#TITLE:Virtual Insanity;
#ARTIST:wg feat. Austin Willacy;
#BANNER:Virtual Insanity.png;
#BACKGROUND:Virtual Insanity-bg.png;
#CDTITLE:./CDTITLES/DANCE DANCE REVOLUTION ULTRAMIX 3.png;
#MUSIC:Virtual Insanity.ogg;
#SAMPLESTART:48.231;
#SAMPLELENGTH:15;
#DISPLAYBPM:60:92;
#BPMS:0=90.942,6=92.783,17=93.75,19=92.308,23=90.909,27=92.784,31=91.139,35=92.784,39=91.371,43=92.545,47=91.603,51=91.837,55=91.603,59=91.837,63=93.023,67=92.072,71=91.837,75=92.308,79=91.603,83=91.139,87=91.837,91=92.426,99=91.954,115=92.189,131=91.603,135=91.525,138=90,142=80,150=70.313,152=60.928;

//---------------dance-single - ----------------
#NOTES:
     dance-single:
     :
     Beginner:
     1:
     :
0000
0000
0000
0000
,
0000
0000
0000
0000
,
0000
0000
0000
0000
,
1000
0000
1000
0000
,
0001
0000
0001
0000
,
0000
0000
1000
0000
,
0000
0000
0010
0000
,
0010
0000
0010
0000
,
0000
0000
0100
0000
,
0000
0000
0001
0000
,
0000
0000
1000
0000
,
0000
0000
0001
0000
,
1000
1000
1000
0000
,
0001
0001
0001
0000
,
1000
0000
1000
0000
,
0001
0000
0000
0001
,
0000
1000
0000
0001
,
0000
1000
0000
0001
,
0000
1000
1000
0000
,
1000
0000
1000
0000
,
0000
0000
0001
0000
,
0001
0000
0001
0000
,
0000
0000
0010
0000
,
0010
0000
0010
0000
,
0000
0000
0100
0000
,
0100
0000
0100
0000
,
0000
0000
1000
0000
,
0001
0000
1000
0000
,
0001
0000
0010
0000
,
0100
0000
0010
0000
,
0100
0000
1000
0000
,
1000
0000
0001
0000
,
0001
0000
0100
0000
,
0010
0000
0100
0000
,
0010
0000
1000
0000
,
1000
0000
0001
0000
,
0001
0000
1000
0000
,
0001
0000
1001
0000
;

//---------------dance-single - ----------------
#NOTES:
     dance-single:
     :
     Easy:
     2:
     :
0000
0000
0000
0000
,
0000
0000
0000
0000
,
0000
0000
0000
0000
,
0001
0000
1000
0000
,
0001
0000
1001
1000
,
1000
0010
0100
0100
,
0100
0001
1000
0000
,
0001
0000
0010
0010
,
0010
0001
1000
1000
,
1000
0100
0010
0010
,
0010
0001
1000
0000
,
0001
1000
0001
1000
,
0020
0000
0030
0100
,
0002
0000
0003
1000
,
0200
0000
0300
0010
,
0001
0001
1000
1000
,
0001
0100
0001
1000
,
0100
0100
1000
1000
,
0001
0001
0002
0003
,
2000
3000
0001
0001
,
1000
1000
0020
0030
,
0200
0300
0010
0010
,
0100
0100
0002
0003
,
2000
3000
0100
0100
,
0010
0010
0002
0003
,
2000
3000
0100
0100
,
0010
0001
1001
0000
,
0001
0000
0001
0001
,
1000
1000
0010
0000
,
0100
0000
0001
0001
,
0010
0010
0100
0000
,
1000
0000
0010
0010
,
0100
0100
0001
0000
,
1000
0000
0100
0100
,
0010
0010
0002
0000
,
0000
0003
2000
0000
,
0000
3000
0002
0000
,
0000
0003
1001
0000
;

//---------------dance-single - ----------------
#NOTES:
     dance-single:
     :
     Medium:
     4:
     :
0000
0000
0000
0000
,
0000
0000
0000
0000
,
0000
0000
0000
0000
,
1000
0000
0001
0000
,
1000
0000
0001
1000
,
0100
0100
1000
0001
,
0100
0100
0010
1000
,
0100
0010
0001
0010
,
1000
0000
1000
0000
0010
0000
0100
0010
,
0100
0000
0010
0000
0100
0000
0010
0100
,
0010
0100
0001
1000
,
0001
1000
0100
0000
,
0020
1000
0130
0000
,
0020
0001
0130
0000
,
0010
0100
0010
0000
,
1001
0000
1000
1000
,
0010
0100
0010
0000
,
0001
0010
0100
1000
,
0010
0000
0100
0000
0001
0001
0000
0000
,
1000
1000
0000
0000
0010
0000
1000
0000
,
0100
0000
0010
0000
0001
0001
0000
0000
,
1000
1000
0000
0000
0010
0000
0001
0000
,
0100
0000
0010
0000
1000
1000
0000
0000
,
0001
0001
0000
0000
1000
0000
0010
0000
,
0100
0001
1000
1000
,
0001
0000
0001
0000
1000
0001
1000
0001
,
1000
1001
0010
0100
,
0010
0000
0100
0000
0001
0100
0001
0000
,
1000
0100
1000
0000
0010
0000
0100
0000
,
0010
0000
0100
0000
1000
0100
1000
0000
,
0001
0100
0001
0000
0010
0000
0010
0000
,
0100
0000
0100
0000
1000
0100
1000
0000
,
0001
0100
0001
0000
1000
0000
1000
0000
,
0001
0000
0001
0000
0010
0100
0010
0000
,
0100
0010
0100
0000
1001
0000
0000
0000
,
1000
0000
0001
0000
0000
0000
0000
0000
0000
0110
0000
0000
0000
0000
0000
0000
,
0000
1001
0000
0000
0000
0000
0000
0010
0000
0100
0000
0000
0000
0000
0000
0000
,
1001
0000
0110
0000
,
2002
0000
0000
0000
0000
3003
0000
0000
;

//---------------dance-single - ----------------
#NOTES:
     dance-single:
     :
     Hard:
     6:
     :
0000
0000
0000
0000
,
0000
0000
0000
0000
,
0000
0000
0000
0000
,
1000
0200
0000
0000
1300
0020
0000
0000
,
1030
0002
0000
0000
0103
0000
0001
0000
,
1000
0100
1000
0000
0001
0000
1000
0000
,
0010
0100
0010
0000
2000
0000
3001
0000
,
0002
0000
1003
0000
0200
0000
0310
0001
,
1000
0001
0000
0100
0020
0000
1030
0001
,
2000
0000
3100
0000
0020
0000
0031
1000
,
0001
0100
0020
1030
,
0002
0000
0103
0000
0001
1000
0001
0010
,
0100
1001
1010
0001
,
0100
1001
0011
1000
,
0100
0000
1001
0000
1010
0000
0010
1000
,
0001
0020
0000
0000
0130
0000
1100
0000
,
0001
0101
0010
1010
,
1000
0001
1000
0100
0010
0100
0001
0100
,
1000
0010
0100
0001
0101
0101
0000
0000
,
1100
1100
0000
0000
0010
1000
0001
0100
,
0001
1000
0100
0000
0011
0011
0000
0000
,
1010
1010
0000
0000
0100
0001
0010
0100
,
1000
0000
0100
0000
0010
0000
0001
0000
0011
0000
0011
0000
0010
0100
1000
0000
,
1100
0000
1100
0000
1000
0010
0100
0000
0002
0000
0000
0000
0023
0000
0000
0000
,
0230
0000
0000
0000
2300
0000
0000
0000
3001
0000
0100
0001
0000
1000
0000
0200
,
0000
0000
0000
0000
0000
1300
0000
1001
0000
0010
0000
0100
0000
0001
0000
1000
,
0000
0000
0000
1001
0000
0000
0000
0000
0010
0000
0000
0000
1000
0001
1000
0000
,
0200
0000
0000
0000
0320
0000
0000
0000
0031
0000
0100
0001
0000
0000
1000
0000
,
0100
0000
1000
0100
0000
0000
0000
0000
0100
0000
0000
0000
1000
0001
1000
0000
,
0020
0000
0000
0000
0230
0000
0000
0000
0301
0000
0010
0001
0000
0000
1000
0000
,
0010
0000
1000
0010
0000
0000
0000
0000
0100
0000
0001
0000
0010
0000
0000
0000
,
0100
1000
0010
0000
0100
0001
1000
0000
,
0100
1000
0001
0000
0010
0001
0100
0000
,
0010
1000
0100
0000
0010
0001
1000
0000
,
0010
1000
0001
0000
1002
0000
0000
0000
,
0103
0000
0010
0000
0000
0000
0000
0000
0000
0110
0000
0000
0000
0000
0000
0000
,
0000
1010
0000
0000
0000
0000
0000
0001
0000
0010
0000
0000
0000
0000
0000
0000
,
0011
0000
1001
0000
,
2200
0000
0000
0000
0000
3300
0000
0000
;

//---------------dance-double - ----------------
#NOTES:
     dance-double:
     :
     Beginner:
     1:
     :
00000000
00000000
00000000
00000000
,
00000000
00000000
00000000
00000000
,
00000000
00000000
00000000
00000000
,
10000000
00000000
10000000
00000000
,
00010000
00000000
00010000
00000000
,
00000000
00000000
10000000
00000000
,
00000000
00000000
00010000
00000000
,
00010000
00000000
00010000
00000000
,
00000000
00000000
00001000
00000000
,
00000000
00000000
00010000
00000000
,
00000000
00000000
00000010
00000000
,
00000000
00000000
00000100
00000000
,
00001000
00001000
00001000
00000000
,
00000001
00000001
00000001
00000000
,
00001000
00000000
00001000
00000000
,
00001000
00000000
00000000
00001000
,
00000000
00000001
00000000
00000100
,
00000000
00001000
00000000
00010000
,
00000000
00001000
00001000
00000000
,
00001000
00000000
00001000
00000000
,
00000000
00000000
00010000
00000000
,
00010000
00000000
00010000
00000000
,
00000000
00000000
00100000
00000000
,
00100000
00000000
00100000
00000000
,
00000000
00000000
01000000
00000000
,
01000000
00000000
01000000
00000000
,
00000000
00000000
10000000
00000000
,
00010000
00000000
10000000
00000000
,
00010000
00000000
00100000
00000000
,
01000000
00000000
00100000
00000000
,
01000000
00000000
00010000
00000000
,
00010000
00000000
00001000
00000000
,
00001000
00000000
00000010
00000000
,
00000100
00000000
00000010
00000000
,
00000100
00000000
00001000
00000000
,
00001000
00000000
00000001
00000000
,
00000001
00000000
00001000
00000000
,
00000001
00000000
00001001
00000000
;

//---------------dance-double - ----------------
#NOTES:
     dance-double:
     :
     Easy:
     2:
     :
00000000
00000000
00000000
00000000
,
00000000
00000000
00000000
00000000
,
00000000
00000000
00000000
00000000
,
00010000
00000000
10000000
00000000
,
00010000
00000000
00011000
00000000
,
00000010
00000000
00001000
00000000
,
00001000
00000000
00010000
00000000
,
00010000
00000000
20000000
00000000
,
00000000
30000000
00010000
00000000
,
00100000
00100000
01000000
00000000
,
00100000
00100000
01000000
00000000
,
00010000
00000000
00001000
00000000
,
00000010
00000001
00001000
00000000
,
00001000
00000100
00010000
00000000
,
00100000
00000000
00000000
00000000
,
10000000
00000000
00010000
00010000
,
01000000
00000000
00010000
00000000
,
10000000
00000000
00010000
00000000
,
00001000
00000000
00000001
00000000
,
00001000
00000000
00000010
00000010
,
00000010
00000000
00001000
00000000
,
00010000
00000000
00100000
00100000
,
00100000
00000000
00010000
00000000
,
00001000
00000000
00000100
00000100
,
00000100
00000000
00001000
00000000
,
00010000
00000000
01000000
01000000
,
01000000
00000000
00011000
00000000
,
00010000
00000000
00001000
00000000
,
00010000
00000000
00001000
00000000
,
00000010
00000000
00000010
00000000
,
00000100
00000000
00000100
00000000
,
00001000
00000000
00010000
00000000
,
00001000
00000000
00010000
00000000
,
00100000
00000000
00100000
00000000
,
01000000
00000000
02000000
00000000
,
00000000
03000000
00020000
00000000
,
00000000
00030000
00002000
00000000
,
00000000
00003000
00011000
00000000
;

//---------------dance-double - ----------------
#NOTES:
     dance-double:
     :
     Medium:
     4:
     :
00000000
00000000
00000000
00000000
,
00000000
00000000
00000000
00000000
,
00000000
00000000
00000000
00000000
,
00000001
00000000
00001000
00000000
,
00010000
00000000
10000000
00100000
,
01000000
01000000
00010000
10000000
,
01000000
01000000
00010000
00001000
,
00000100
00000010
00001000
00000001
,
00001000
00000000
00001000
00000000
00000001
00000000
00001000
00000001
,
00001000
00000000
00000010
00000000
00000100
00000000
00000001
00001000
,
00000001
00000100
00001000
00010000
,
00001000
00010000
01000000
00000000
,
20000000
00100000
31000000
00000000
,
00020000
00100000
01030000
00000000
,
10000000
01000000
00010000
00000000
,
00011000
00000000
00000001
00000001
,
00000010
00000100
00000010
00000000
,
00001000
00000100
00000000
00010000
,
00001000
00000000
00010000
00000000
00001000
00001000
00000000
00000000
,
00010000
00010000
00000000
00000000
00100000
00000000
10000000
00000000
,
01000000
00000000
00100000
00000000
00010000
00010000
00000000
00000000
,
10000000
10000000
00000000
00000000
00010000
00000000
01000000
00000000
,
00001000
00000000
00010000
00000000
00001000
00001000
00000000
00000000
,
00010000
00010000
00000000
00000000
00000010
00000000
00001000
00000000
,
00000100
00000001
00001000
00001000
,
00000001
00000000
00000001
00000000
00001000
00000001
00001000
00000001
,
00001000
00001001
00000010
00000100
,
00000010
00000000
00000100
00000000
00001000
00000100
00001000
00000000
,
00000001
00000100
00000001
00000000
00000100
00000000
00001000
00000000
,
00010000
00000000
01000000
00000000
10000000
01000000
10000000
00000000
,
00010000
01000000
00010000
00000000
00100000
00000000
00100000
00000000
,
01000000
00000000
01000000
00000000
10000000
01000000
10000000
00000000
,
00010000
01000000
00010000
00000000
01000000
00000000
00010000
00000000
,
00001000
00000000
00000100
00000000
00000001
00000100
00000001
00000000
,
00001000
00000100
00001000
00000000
00001001
00000000
00000000
00000000
,
00000001
00000000
00000100
00000000
00000000
00000000
00000000
00000000
00000000
00011000
00000000
00000000
00000000
00000000
00000000
00000000
,
00000000
01100000
00000000
00000000
00000000
00000000
00000000
00100000
00000000
01000000
00000000
00000000
00000000
00000000
00000000
00000000
,
10010000
00000000
00011000
00000000
,
00002002
00000000
00000000
00000000
00000000
00003003
00000000
00000000
;

//---------------dance-double - ----------------
#NOTES:
     dance-double:
     :
     Hard:
     6:
     :
00000000
00000000
00000000
00000000
,
00000000
00000000
00000000
00000000
,
00000000
00000000
00000000
00000000
,
10000000
00200000
00000000
00000000
01300000
00002000
00000000
00000000
,
00013000
00000020
00000000
00000000
00001030
00000000
00000001
00000000
,
00001000
00000100
00001000
00000000
00000010
00000000
00010000
00000000
,
00001000
00010000
00001000
00000000
00020000
00000000
00031000
00000000
,
00002000
00000000
00013000
00000000
00002000
00000000
00003100
00000001
,
00001000
00000000
00000000
00000010
00002000
00000000
00003001
00000100
,
00000020
00000000
00001030
00000000
00000200
00000000
00010300
00001000
,
00010000
01000000
20000000
31000000
,
00020000
00000000
00130000
00000000
20000000
00000000
00000000
31000000
,
00100000
00010000
10000000
01000000
00020000
00000000
00031000
00000000
,
00000100
00000001
00001000
00000010
00000200
00000000
00000301
00000000
,
00001000
00001100
00010100
00011000
,
00100000
02000000
00000000
00000000
03100000
00000000
00110000
00000000
,
10000000
11000000
00010000
01010000
,
10000000
00010000
10000000
00100000
01000000
00100000
10000000
01000000
,
00010000
00001000
00010000
00001000
00011000
00011000
00000000
00000000
,
00001001
00001001
00000000
00000000
00000010
00000001
00001000
00000100
,
00000010
00000001
00001000
00000000
00011000
00011000
00000000
00000000
,
10010000
10010000
00000000
00000000
00100000
10000000
00010000
01000000
,
00100000
00000000
10000000
00000000
01000000
00000000
00010000
00000000
00011000
00000000
00011000
00000000
00001000
00000100
00000001
00000000
,
00001001
00000000
00001001
00000000
00000001
00000100
00001000
00000000
00020000
00000000
00000000
00000000
00030020
00000000
00000000
00000000
,
00020030
00000000
00000000
00000000
00030200
00000000
00000000
00000000
00001300
00000000
00000001
00000100
00000000
00001000
00000000
00020000
,
00000000
00000000
00000000
00000000
00000000
00031000
00000000
00011000
00000000
00010000
00000000
01000000
00000000
10000000
00000000
00010000
,
00000000
00000000
00000000
10010000
00000000
00000000
00000000
00000000
00100000
00000000
00000000
00000000
10000000
00010000
10000000
00000000
,
02000000
00000000
00000000
00000000
03020000
00000000
00000000
00000000
00031000
00000000
00010000
00000100
00000000
00000000
00000010
00000000
,
00000001
00000000
00001000
00000100
00000000
00000000
00000000
00000000
00000010
00000000
00000000
00000000
00000001
00001000
00000001
00000000
,
00000200
00000000
00000000
00000000
00002300
00000000
00000000
00000000
00013000
00000000
00001000
01000000
00000000
00000000
00100000
00000000
,
10000000
00000000
00010000
01000000
00000000
00000000
00000000
00000000
00100000
00000000
10000000
00000000
01000000
00000000
00000000
00000000
,
01000000
00010000
00001000
00000000
00001000
00000100
00000001
00000000
,
00000100
00000001
00000010
00000000
00000100
00001000
00000010
00000000
,
00001000
00000001
00000100
00000000
00000100
00001000
00010000
00000000
,
00001000
00010000
01000000
00000000
20010000
00000000
00000000
00000000
,
30100000
00000000
01000000
00000000
00000000
00000000
00000000
00000000
00000000
01100000
00000000
00000000
00000000
00000000
00000000
00000000
,
00000000
00011000
00000000
00000000
00000000
00000000
00000000
00000010
00000000
00000100
00000000
00000000
00000000
00000000
00000000
00000000
,
00001010
00000000
00001001
00000000
,
00000202
00000000
00000000
00000000
00000000
00000303
00000000
00000000
;
