#TITLE:The Imperial Carnival;
#ARTIST:kumiko;
#BANNER:The Imperial Carnival.png;
#BACKGROUND:The Imperial Carnival-bg.png;
#CDTITLE:./CDTITLES/DANCE DANCE REVOLUTION ULTRAMIX 3.png;
#MUSIC:The Imperial Carnival.ogg;
#SAMPLESTART:19.35;
#SAMPLELENGTH:15;
#DISPLAYBPM:174;
#BPMS:0=173.968;

//---------------dance-single - ----------------
#NOTES:
     dance-single:
     :
     Beginner:
     1:
     :
0000
0000
0000
0000
,
0000
0000
0000
0000
,
0000
0000
0000
0000
,
0000
0000
0000
0000
,
0000
0000
0000
0000
,
0000
0000
0000
0000
,
1000
0000
0000
0000
,
0001
0000
0000
0000
,
1000
0000
0000
0000
,
0001
0000
0000
0000
,
0001
0000
0000
0000
,
1000
0000
0000
0000
,
0010
0000
0000
0000
,
0001
0000
0000
0000
,
1000
0000
1000
0000
,
1000
0000
0000
0000
,
0001
0000
0001
0000
,
0001
0000
0000
0000
,
0010
0000
0010
0000
,
0010
0000
0000
0000
,
0100
0000
0100
0000
,
0100
0000
0000
0000
,
0010
0000
0000
0000
,
0001
0000
0001
0000
,
0001
0000
1000
0000
,
1000
0000
1000
0000
,
0100
0000
0100
0000
,
0010
0000
0010
0000
,
0010
0000
0000
0000
,
0000
0000
0000
0000
,
1001
0000
0000
0000
,
1001
0000
0000
0000
,
0000
1000
0000
0001
,
0000
1000
0000
1000
,
0000
0001
0000
1000
,
0000
0001
0000
0001
,
0000
1000
0000
1000
,
0000
0010
0000
0010
,
0000
0100
0000
0100
,
0000
0000
0000
0000
,
0000
0001
0000
1000
,
0000
0001
0000
0001
,
0000
1000
0000
0001
,
0000
1000
0000
1000
,
0000
0001
0000
0100
,
0100
0000
0010
0000
,
0010
0000
0000
0000
,
0000
0000
0000
0000
,
0001
0000
0000
1000
,
1000
0000
0000
0000
,
0001
0000
0000
1000
,
1000
0000
0000
0000
,
0010
0000
0000
0000
,
0100
0000
0000
0000
,
0010
0000
0000
0000
,
0100
0000
0000
0000
,
1000
0000
0000
0001
,
0001
0000
0000
0000
,
1000
0000
0000
0001
,
0001
0000
0000
0000
,
1001
0000
0000
0000
,
0100
0000
0000
0000
,
0010
0000
0000
0000
,
0100
0000
0000
0000
,
1000
0000
0000
0000
,
0001
0000
0000
0000
,
1001
0000
0000
0000
;

//---------------dance-single - ----------------
#NOTES:
     dance-single:
     :
     Easy:
     3:
     :
0000
0000
0000
0000
,
0000
0000
0000
0000
,
0000
0000
0000
0000
,
0000
0000
0000
0000
,
0000
0000
0000
0000
,
0000
0000
0000
0000
,
1000
0000
1000
0000
,
1000
0000
1000
0000
,
0001
0000
0001
0000
,
0001
0000
0001
0000
,
1000
0000
1000
0000
,
0001
0000
0001
0000
,
1000
0000
0010
0000
,
0001
0000
0100
0000
,
1000
0000
1000
0000
,
0100
0000
0100
0000
,
0010
0000
0010
0000
,
0002
0000
0000
0003
,
0001
0000
0100
0000
,
0010
0000
0010
0000
,
1000
0000
0100
0000
,
0020
0000
0000
0030
,
0002
0000
0000
0003
,
1000
0000
0100
0000
,
0010
0000
0001
0000
,
0001
0000
1000
0000
,
0001
0000
0100
0000
,
0010
0000
0100
0000
,
0020
0000
0000
1030
,
0000
1000
0000
1000
,
0000
0001
0000
0001
,
0000
0000
0000
0000
,
0001
0000
0100
0000
,
0010
0000
0010
0000
,
1000
0000
0100
0000
,
0020
0000
0000
0030
,
0001
0000
1000
0000
,
0100
1000
0010
0000
,
0001
0000
1000
0000
,
0200
0000
0000
0300
,
0002
0000
0000
1003
,
1000
0000
0001
0000
,
1000
0000
0001
0000
,
0100
0000
0010
0000
,
1000
0000
0000
0001
,
0001
0000
0100
0000
,
1000
0000
0000
0000
,
0001
0000
0010
1000
,
0100
0000
0000
0010
,
0010
0000
0010
0001
,
0100
0000
0000
0010
,
0010
0000
0010
0100
,
0001
0000
0000
1000
,
0000
1000
0000
0100
,
0000
0010
0000
0100
,
0000
0000
0001
1000
,
0100
0000
0000
1000
,
1000
0000
1000
0001
,
0100
0000
0000
0001
,
0001
0000
0010
1000
,
0001
1000
0000
0001
,
0000
0001
0000
1000
,
0000
0100
0000
0100
,
0000
0000
0000
0000
,
1001
0000
0000
0000
,
0110
0000
0000
0000
,
2002
0000
0000
3003
;

//---------------dance-single - ----------------
#NOTES:
     dance-single:
     :
     Medium:
     5:
     :
0000
0000
0000
0000
,
0000
0000
0000
0000
,
0000
0000
0000
0000
,
0000
0000
0000
0000
,
0000
0000
0000
0000
,
0000
0000
0000
0000
,
0001
2000
3000
0001
,
0010
0100
0100
0100
,
1000
0002
0003
1000
,
0100
0010
0010
0110
,
1000
0010
1000
0100
,
2000
3000
0002
0003
,
0010
0001
0010
0100
,
2000
3000
0002
0003
,
0020
0130
2000
3010
,
0002
1003
0200
0310
,
2000
0000
3001
0010
,
2200
0000
0000
3300
,
2000
3010
0200
0301
,
1000
0010
0200
0300
,
0002
1003
2000
3001
,
0200
0000
0000
0300
,
0020
1000
0100
1030
,
2000
0001
0001
3100
,
0200
0010
0000
0310
,
2010
3000
1200
0300
,
0021
0000
0000
0030
,
0002
0003
0100
0010
,
2000
0000
0001
0000
0000
0001
3000
0000
,
2002
0000
0000
0000
,
3003
0000
0010
0000
0000
0100
0000
0000
,
0001
1000
0001
1000
0000
1001
0000
0000
,
0002
0000
0203
0000
,
0320
0000
2030
0000
,
3200
0000
1300
0100
,
2200
0000
0000
3300
,
0010
2000
3010
0200
,
0301
2000
3100
0000
,
0001
0000
0000
0100
0001
0000
0000
0100
,
0020
0000
0000
0030
,
1000
1000
0010
1000
,
0001
0010
0100
1000
,
0001
2000
3000
0001
,
0100
0020
0030
1000
,
0001
0200
0000
0300
,
0020
0030
2000
3000
,
0100
0000
2000
0000
0000
0010
0000
0000
,
0002
3003
0010
0100
,
0001
0100
0001
0000
1000
0100
1000
0000
,
0001
0010
0001
0000
1000
0010
1000
0000
,
0001
0100
0001
0000
0100
0010
0100
0000
,
0001
1000
0001
0000
1000
0100
1000
0000
,
0002
0000
1000
0000
0000
1000
0003
0000
,
2000
0000
0000
0100
0000
0000
3000
0000
,
0020
0000
0001
0000
0000
0001
0030
0000
,
0200
0000
0010
0310
,
0001
0010
0100
0000
1000
0010
0100
0000
,
0001
0100
1000
0000
0001
0100
1000
0000
,
0100
0010
1000
0000
1000
0100
0010
0000
,
1000
0100
0001
0000
1000
0100
0001
0000
,
0020
0001
0100
0031
,
2000
0010
0100
3010
,
1000
1000
0001
0001
,
2002
0000
0000
3003
,
0020
0000
0000
2000
0030
0000
0000
0000
,
3002
0000
0000
0200
0003
0000
0300
0000
,
0010
0100
0001
1000
0000
0110
0000
1001
;

//---------------dance-single - ----------------
#NOTES:
     dance-single:
     :
     Hard:
     7:
     :
0000
0000
0000
0000
,
0000
0000
0000
0000
,
0000
0000
0000
0000
,
0000
0000
0000
0000
,
0000
0000
0000
0000
,
0000
0000
0000
0000
,
1000
1000
0001
0001
,
0010
0001
1000
1000
,
0010
0010
0100
0100
,
0001
0100
0010
0110
,
1000
0000
0010
0010
0010
0000
0100
0010
,
0000
1000
0000
0100
1000
0000
0100
0000
,
1000
0000
0001
0001
0001
0000
1000
0100
,
0000
0010
0000
0001
0010
0001
0010
0000
,
0200
0000
0300
1000
0020
0000
0030
0100
,
0002
0000
0003
1000
0200
0000
0300
0010
,
0200
0300
2000
3002
,
0203
0000
0010
0310
,
2000
0000
0200
3300
,
0010
0001
0200
0300
,
0020
0000
0030
1000
0200
0000
0300
1000
,
0200
0010
0000
0010
0000
0010
0300
0000
,
1000
0001
0001
0000
0010
0100
0100
0000
,
0010
0100
1000
0010
,
0100
0001
0001
0000
1000
1000
0100
0000
,
1000
0100
0010
0001
,
0100
1010
0001
1010
,
0100
0011
0100
1010
,
0102
0000
1000
0000
0000
0100
0000
0000
,
1000
1000
0000
2000
0000
0000
0003
0000
,
0000
0000
0100
0000
0000
0010
0000
0000
,
0100
3100
1000
0020
0000
1030
0000
0000
,
0002
0000
0003
0001
2000
0000
3000
0100
,
2000
0000
3000
0100
0020
0000
0030
0100
,
0020
0030
0110
1001
,
2020
0000
0000
3030
,
0200
0310
2000
3001
,
0010
0200
2300
3000
,
2000
0000
3000
0001
0200
0000
0300
0001
,
0100
0101
0000
1100
0000
0101
0000
0000
,
1000
0010
0100
0001
0010
0001
0010
0100
,
1000
0010
0100
0001
1000
0001
0010
0100
,
1000
0010
1000
0100
1000
0010
1000
0001
,
0100
0010
0100
0001
0100
0010
1000
0100
,
0020
0001
0001
0031
,
0200
1000
1000
1300
,
2002
0000
0000
0000
,
0000
3003
0100
0010
,
2000
0000
0000
0001
0000
0000
3001
0000
,
0200
0000
0000
0010
0000
0000
0310
0000
,
0020
0000
0000
1000
0000
0000
0130
0000
,
2000
0000
0000
0001
0000
0000
3010
0000
,
0010
0100
1000
0010
1000
0010
1000
0001
,
0010
0100
1000
0100
0010
0001
0100
0001
,
0010
0001
1000
0100
0010
0001
1000
0010
,
1000
0100
0010
0001
0100
0010
0100
0000
,
0120
0000
0000
0100
0030
0000
0101
0000
,
2001
0000
0000
0100
3000
0000
0110
0000
,
0021
0000
0000
0100
0030
0000
1100
0000
,
0102
0000
0000
1000
0000
0000
0103
0000
,
1000
1000
0010
0010
1000
1000
0001
0001
,
0100
0100
0010
0010
1000
1000
0001
0100
,
0010
1000
0001
0100
0010
0100
0001
1000
,
0100
0010
0001
0100
0010
1000
0001
0000
,
1000
0000
0001
0200
0000
0000
0301
0000
,
1000
0000
0100
2000
0000
0000
3010
0000
,
1000
0100
0001
0010
0000
0110
0000
1001
;

//---------------dance-double - ----------------
#NOTES:
     dance-double:
     :
     Beginner:
     1:
     :
00000000
00000000
00000000
00000000
,
00000000
00000000
00000000
00000000
,
00000000
00000000
00000000
00000000
,
00000000
00000000
00000000
00000000
,
00000000
00000000
00000000
00000000
,
00000000
00000000
00000000
00000000
,
10000000
00000000
00000000
00000000
,
00010000
00000000
00000000
00000000
,
10000000
00000000
00000000
00000000
,
00010000
00000000
00000000
00000000
,
00001000
00000000
00000000
00000000
,
00010000
00000000
00000000
00000000
,
00000001
00000000
00000000
00000000
,
00001000
00000000
00000000
00000000
,
00000100
00000000
00000100
00000000
,
00000100
00000000
00000000
00000000
,
00000010
00000000
00000010
00000000
,
00000010
00000000
00000000
00000000
,
00000001
00000000
00000001
00000000
,
00000001
00000000
00000000
00000000
,
00001000
00000000
00001000
00000000
,
00001000
00000000
00000000
00000000
,
00000100
00000000
00000000
00000000
,
00010000
00000000
00010000
00000000
,
00010000
00000000
00001000
00000000
,
00001000
00000000
00001000
00000000
,
00100000
00000000
00100000
00000000
,
00010000
00000000
00010000
00000000
,
10000000
00000000
00000000
00000000
,
00000000
00000000
00000000
00000000
,
10010000
00000000
00000000
00000000
,
10010000
00000000
00000000
00000000
,
00000000
00010000
00000000
10000000
,
00000000
01000000
00000000
01000000
,
00000000
00100000
00000000
01000000
,
00000000
00100000
00000000
00100000
,
00000000
00010000
00000000
00010000
,
00000000
10000000
00000000
10000000
,
00000000
01000000
00000000
01000000
,
00000000
00000000
00000000
00000000
,
00000000
00010000
00000000
00001000
,
00000000
00010000
00000000
00010000
,
00000000
00001000
00000000
00010000
,
00000000
00001000
00000000
00001000
,
00000000
00000100
00000000
00000010
,
00000010
00000000
00000100
00000000
,
00000100
00000000
00000000
00000000
,
00000000
00000000
00000000
00000000
,
00000001
00000000
00000000
00001000
,
00001000
00000000
00000000
00000000
,
00000001
00000000
00000000
00001000
,
00001000
00000000
00000000
00000000
,
00000001
00000000
00000000
00000000
,
00000100
00000000
00000000
00000000
,
00001000
00000000
00000000
00000000
,
00010000
00000000
00000000
00000000
,
00001000
00000000
00000000
00010000
,
00010000
00000000
00000000
00000000
,
00001000
00000000
00000000
00010000
,
00010000
00000000
00000000
00000000
,
10010000
00000000
00000000
00000000
,
00100000
00000000
00000000
00000000
,
01000000
00000000
00000000
00000000
,
00100000
00000000
00000000
00000000
,
00010000
00000000
00000000
00000000
,
00001000
00000000
00000000
00000000
,
00011000
00000000
00000000
00000000
;

//---------------dance-double - ----------------
#NOTES:
     dance-double:
     :
     Easy:
     3:
     :
00000000
00000000
00000000
00000000
,
00000000
00000000
00000000
00000000
,
00000000
00000000
00000000
00000000
,
00000000
00000000
00000000
00000000
,
00000000
00000000
00000000
00000000
,
00000000
00000000
00000000
00000000
,
10000000
00000000
10000000
00000000
,
01000000
00000000
01000000
00000000
,
00010000
00000000
00010000
00000000
,
00001000
00000000
00001000
00000000
,
00010000
00000000
00010000
00000000
,
00001000
00000000
00001000
00000000
,
00000100
00000000
00000100
00000000
,
00000001
00000000
00000001
00000000
,
00000100
00000100
00000100
00000000
,
00000010
00000010
00000010
00000000
,
00001000
00001000
00001000
00000000
,
00020000
00000000
00000000
00030000
,
01000000
01000000
01000000
00000000
,
00100000
00100000
00100000
00000000
,
01000000
01000000
01000000
00000000
,
00200000
00000000
00000000
00300000
,
00020000
00000000
00000000
00030000
,
10000000
00000000
10000000
00000000
,
00100000
00000000
01000000
00000000
,
00010000
00000000
10000000
00000000
,
01000000
00000000
00010000
00000000
,
00001000
00000000
00000010
00000000
,
00000200
00000000
00000000
00000301
,
00000000
00001000
00000000
00001000
,
00000000
00000001
00000000
00000001
,
00000000
00000000
00000000
00000000
,
00000100
00000000
00000010
00000000
,
00001000
00000000
00001000
00000000
,
00010000
00000000
01000000
00000000
,
00200000
00000000
00000000
00300000
,
10000000
00000000
10000000
00000000
,
01000000
10000000
00100000
00000000
,
00010000
00000000
10000000
00000000
,
02000000
00000000
00000000
03000000
,
00020000
00000000
00000000
10030000
,
10000000
00000000
00010000
00000000
,
01000000
00000000
00010000
00000000
,
00001000
00000000
00000100
00000000
,
00000001
00000000
00000000
00000001
,
00000100
00000000
00000010
00000000
,
00000100
00000000
00000000
00000000
,
00000010
00000000
00001000
00000100
,
00010000
00000000
00000000
00010000
,
01000000
00000000
00100000
10000000
,
01000000
00000000
00000000
00100000
,
00100000
00000000
00001000
00010000
,
00000100
00000000
00000000
00000010
,
00000000
00000001
00000000
00000100
,
00000000
00000010
00000000
00000100
,
00000000
00000000
00000001
00001000
,
00000100
00000000
00000000
00010000
,
00010000
00000000
00001000
00010000
,
01000000
00000000
00000000
00100000
,
00100000
00000000
01000000
10000000
,
00010000
10000000
00000000
00010000
,
00000000
00010000
00000000
10000000
,
00000000
01000000
00000000
01000000
,
00000000
00000000
00000000
00000000
,
10010000
00000000
00000000
00000000
,
00011000
00000000
00000000
00000000
,
00002002
00000000
00000000
00000000
00000000
00000000
00000000
00003003
;

//---------------dance-double - ----------------
#NOTES:
     dance-double:
     :
     Medium:
     6:
     :
00000000
00000000
00000000
00000000
,
00000000
00000000
00000000
00000000
,
00000000
00000000
00000000
00000000
,
00000000
00000000
00000000
00000000
,
00000000
00000000
00000000
00000000
,
00000000
00000000
00000000
00000000
,
10000000
00020000
00030000
01000000
,
00001000
00020000
00030000
00001000
,
00010000
00000020
00000030
00001000
,
00000001
00000001
00000001
00001000
,
00000100
00000010
00000001
00000100
,
00000020
00000030
00002000
00003000
,
00000100
00010000
00001000
00010000
,
00002000
00003000
00020000
00030000
,
00200000
10300000
20000000
30100000
,
02000000
03010000
00020000
00130000
,
02000000
00000000
10000000
03010000
,
02200000
00000000
00000000
03300000
,
02000000
03010000
00002000
00013000
,
00000010
00001000
00000020
00000030
,
00000200
00000301
00000020
00000130
,
00001000
00000001
00000000
00000100
00000000
00001000
00000000
00000000
,
00020000
00000010
00001000
00031000
,
00002000
00100000
00010000
00013000
,
00020000
00001000
00000000
00130000
,
20000000
30000000
02000000
03000000
,
00210000
00000000
00000000
00300000
,
00020000
00030000
01000000
00100000
,
20000000
00000000
00010000
00000000
00000000
00010000
30000000
00000000
,
20020000
00000000
00000000
00000000
,
30030000
00000000
01000000
00000000
00000000
00010000
00000000
00000000
,
00001000
00010000
00001000
00010000
00000000
00011000
00000000
00000000
,
00002000
00000000
00003200
00000000
,
00000320
00000000
00002030
00000000
,
00003002
00000000
00001003
00000100
,
00000022
00000000
00000000
00000033
,
00000001
00002000
00003100
00020000
,
00031000
02000000
03010000
00000000
,
10000000
00000000
00000000
00100000
10000000
00000000
00000000
00010000
,
00200000
00000000
00000000
00300000
,
00001000
00001000
00010000
00001000
,
00010000
01000000
10000000
00010000
,
00010000
00002000
00003000
00001000
,
00000100
00000020
00000030
00000001
,
00001000
00000200
00000000
00000300
,
00000020
00000030
00000002
00000003
,
00000100
00000000
00002000
00000000
00000000
00100000
00000000
00000000
,
00020000
00033000
00010000
00001000
,
00010000
01000000
00010000
00000000
10000000
00100000
10000000
00000000
,
00010000
00100000
00010000
00000000
10000000
01000000
10000000
00000000
,
01000000
00010000
01000000
00000000
00010000
00001000
00010000
00000000
,
00001000
00010000
00001000
00000000
00000100
00001000
00000100
00000000
,
00000020
00000000
00000100
00000000
00000000
00000100
00000030
00000000
,
00000200
00000000
00000000
00000010
00000000
00000000
00000300
00000000
,
00002000
00000000
00010000
00000000
00000000
00010000
00003000
00000000
,
00020000
00000000
00001000
00031000
,
00001000
00010000
01000000
00000000
10000000
00100000
01000000
00000000
,
01000000
00010000
00100000
00000000
01000000
00010000
00100000
00000000
,
01000000
00010000
00001000
00000000
00001000
00000100
00000001
00000000
,
00000001
00000100
00001000
00000000
00000001
00000100
00001000
00000000
,
00020000
00001000
00000010
00031000
,
00002000
00010000
00100000
00013000
,
00001000
00001000
00010000
00010000
,
00022000
00000000
00000000
00033000
,
00020000
00000000
00000000
02030000
00000000
00000000
00000000
00000000
,
23000000
00000000
00000000
30020000
00000000
00000000
00030000
00000000
,
00100000
00010000
10000000
00100000
00000000
01100000
00000000
10010000
;

//---------------dance-double - ----------------
#NOTES:
     dance-double:
     :
     Hard:
     7:
     :
00000000
00000000
00000000
00000000
,
00000000
00000000
00000000
00000000
,
00000000
00000000
00000000
00000000
,
00000000
00000000
00000000
00000000
,
00000000
00000000
00000000
00000000
,
00000000
00000000
00000000
00000000
,
00100000
00000000
00100000
10000000
01000000
00000000
01000000
10000000
,
00000000
00010000
00000000
01000000
00001000
00010000
00000100
00000000
,
00000010
00000000
00000010
00000001
00000100
00000000
00000100
00000001
,
00000000
00001000
00000000
00000100
00010000
00001000
01000000
00000000
,
00011000
00000100
00011000
01000000
,
00100000
00000000
00100000
00000000
00100000
10000000
01000000
00000000
,
00011000
00100000
00011000
00000010
,
00000100
00000000
00000100
00000000
00000001
00000100
00001000
00000000
,
00000001
00000000
00000001
00000100
00000010
00000000
00000001
00000100
,
00000010
00000000
00010000
00001000
00010000
00000000
00010000
10000000
,
00020000
00030000
00100000
01000000
,
02200000
00000000
00000000
03300000
,
10000000
00000000
00000000
00010000
01000000
00000000
00000000
10000000
,
01000000
00100000
00002000
00013000
,
00000010
00000000
00000000
00001000
00000100
00000000
00000000
00001000
,
00000001
00001001
00000000
00000101
00000000
00000202
00000303
00000000
,
00000100
00000000
00000100
00000001
00001000
00000000
00000100
00010000
,
00001000
00000000
01000000
00010000
00100000
00000000
00100000
00000000
,
00010000
01000000
00100000
10000000
,
22000000
00000000
00000000
33000000
,
10000000
00100000
10000000
00010000
10000000
01000000
10000000
00100000
,
01000000
00001000
00010000
00000100
00001000
00000010
00000100
00000000
,
00000202
00000000
00000000
00000000
,
00000000
00000000
00000000
00000303
,
00000001
00000100
00000001
00000100
00000001
00000100
00000001
00000000
,
00001000
00000100
00001000
00000100
00000000
00011000
00000000
00000000
,
01010000
00000000
00100000
10000000
01000000
00000000
01000000
10000000
,
00100000
00000000
01000000
00001000
00010000
00000000
00011000
00000000
,
00000010
00000100
00000010
00000000
00000010
00001000
00000100
00000000
,
00002200
00000000
00000000
00003300
,
00001100
00011000
00110000
11000000
,
10000000
00100000
01000000
00010000
00100000
01000000
10000000
00000000
,
11000000
00110000
00011000
00001100
,
00002002
00000000
00000000
00003003
,
00000001
00000010
00001000
00000100
,
00000001
00000010
00000100
00001000
,
00000010
00010000
00001000
00100000
,
02000000
00000000
00000000
03000000
,
20000000
00010000
00000000
30010000
,
02010000
03000000
12000000
03000000
,
10000000
00100000
01000000
00100000
10000000
00010000
01000000
00001000
,
00010000
00000100
00000010
00000000
00000100
00000000
00000100
00000000
,
00002000
00000000
00003001
00000100
00000000
00000000
00000011
00000000
,
00000220
00000330
00001100
00011000
,
00200000
00000000
01300000
10000000
00000000
00000000
10100000
00000000
,
02200000
03300000
01000000
00010000
,
00022000
00000000
00000000
00000000
,
00000000
00000000
00000000
00033000
,
00000100
00001000
00010000
00000000
01000000
00010000
00001000
00000000
,
01010000
00011000
00001100
00011000
,
02000000
00000000
03010000
01000000
00000000
00000000
00010000
00000000
,
02020000
00000000
03030000
00000000
10000000
01000000
10000000
00000000
,
00020000
00000000
01030000
00001000
00000000
00000000
00010000
00000000
,
00022000
00033000
00000100
00000010
,
00000001
00000010
00000001
00000100
00000010
00001000
00000100
00010000
,
00001000
01000000
00010000
00100000
01000000
10000000
00100000
10000000
,
00100000
10000000
00100000
01000000
00100000
10000000
00100000
00000000
,
10100000
00000000
10100000
00000000
,
10000000
00100000
10000000
02000000
00000000
00000000
03000000
00000000
,
00100000
00010000
00100000
00020000
00000000
00000000
00030000
00000000
,
01000000
00001000
00010000
00001000
00000000
00011000
00000000
00011000
;
