#TITLE:The Cat In The Moon;
#ARTIST:901(Clay);
#BANNER:The Cat In The Moon.png;
#BACKGROUND:The Cat In The Moon-bg.png;
#CDTITLE:./CDTITLES/DANCE DANCE REVOLUTION ULTRAMIX 3.png;
#MUSIC:The Cat In The Moon.ogg;
#SAMPLESTART:28.06;
#SAMPLELENGTH:15;
#DISPLAYBPM:180;
#BPMS:0=179.9,238=179,256=179.9,280=179.2;

//---------------dance-single - ----------------
#NOTES:
     dance-single:
     :
     Beginner:
     1:
     :
0000
0000
0000
0000
,
0000
0000
0000
0000
,
0000
0000
0000
0000
,
0000
0000
0000
0000
,
0000
0000
0000
0000
,
1000
0000
0000
0000
,
0001
0000
0000
0000
,
1000
0000
0000
0000
,
0001
0000
0000
0000
,
0100
0000
0000
0000
,
0010
0000
0000
0000
,
0100
0000
0000
0000
,
0010
0000
0000
0000
,
1000
0000
1000
0000
,
0000
0000
0000
0000
,
0001
0000
0001
0000
,
0000
0000
0000
0000
,
0010
0000
0010
0000
,
0000
0000
0000
0000
,
0100
0000
0100
0000
,
0000
0000
0000
0000
,
1000
0000
1000
0000
,
0001
0000
0001
0000
,
0100
0000
0000
0000
,
0010
0000
0000
0000
,
1000
0000
1000
0000
,
0001
0000
0001
0000
,
0010
0000
0000
0000
,
0100
0000
0000
0000
,
0000
2000
0000
0000
,
3000
0000
0000
0000
,
0000
0020
0000
0000
,
0030
0000
0000
0000
,
0200
0000
0000
0300
,
0000
0000
0000
0000
,
0000
0002
0000
0000
,
0003
0000
0000
0000
,
0000
2000
0000
0000
,
3000
0000
0000
0000
,
0200
0000
0000
0300
,
0100
0000
0000
0000
,
0010
0000
0000
0000
,
0001
0000
0000
0000
,
1000
0000
0001
0000
,
1000
0000
0001
0000
,
0100
0000
0100
0000
,
0001
0000
0000
0000
,
1000
0000
1000
0000
,
0100
0000
0000
0000
,
0010
0000
0010
0000
,
0001
0000
0000
0000
,
0100
0000
0100
0000
,
0010
0000
0010
0000
,
1000
0000
0000
0000
,
0001
0000
0001
0000
,
0010
0000
0000
0000
,
0100
0000
0100
0000
,
1000
0000
0000
0000
,
0001
0000
0001
0000
,
0100
0000
0000
0000
,
0010
0000
0010
0000
,
2000
0000
0000
3000
,
0000
0000
0001
0000
,
0200
0000
0000
0300
,
0000
0000
0010
0000
,
2000
0000
0000
3000
,
0000
0000
0100
0000
,
0020
0000
0000
0030
,
0000
0000
0001
0000
,
0002
0000
0000
0003
,
0000
0000
0000
0000
,
2000
0000
0000
3000
,
1000
0000
0100
0000
,
0020
0000
0000
0030
;

//---------------dance-single - ----------------
#NOTES:
     dance-single:
     :
     Easy:
     3:
     :
0000
0000
0000
0000
,
0000
0000
0000
0000
,
0000
0000
0000
0000
,
0000
0000
0000
0000
,
0000
0000
0000
0000
,
1000
0000
1000
0000
,
0001
0000
0001
0000
,
1000
0000
1000
0000
,
0100
0000
0100
0000
,
1000
0000
1000
0000
,
0001
0000
0001
0000
,
1000
0000
1000
0000
,
0010
0000
0010
0000
,
0100
0100
0100
0000
,
0001
0000
0001
0000
,
0010
0010
0010
0000
,
0100
0000
0100
0000
,
1000
1000
1000
0000
,
0001
0000
0001
0000
,
0100
0100
0100
0000
,
0010
0000
0010
0000
,
1001
0001
0100
0000
,
0001
1000
0100
0000
,
0010
0001
1000
0000
,
0010
1000
0001
0000
,
0010
0001
0100
0000
,
0010
1000
0100
0000
,
1001
0000
1001
0000
,
0010
1000
0001
0010
,
0001
2000
0000
0010
,
0000
0010
0000
3010
,
1000
0200
0000
0010
,
0000
0010
0300
0010
,
0002
1000
0000
1000
,
0000
1000
0000
1003
,
0010
0200
0000
0001
,
0000
0001
0300
0001
,
2000
0100
0000
0100
,
0000
3100
0000
0100
,
0020
0001
0000
0031
,
1001
0000
0000
0000
,
1010
0000
0000
0000
,
0101
0000
0000
0000
,
0110
0000
1001
0000
,
0110
0000
1001
0000
,
0001
0100
0000
0001
,
1000
0100
0000
1000
,
0001
0010
0000
0001
,
0100
0010
0000
0100
,
0001
0010
0000
0001
,
1000
0100
0000
1000
,
0010
0100
0000
0010
,
1000
0001
0000
1000
,
1001
0000
0000
0000
,
1001
0000
0110
0000
,
1001
0000
0000
0000
,
0110
0000
1001
0000
,
0110
0000
0000
0000
,
1001
0000
0110
0000
,
1001
0000
0000
0000
,
0110
0000
0110
0000
,
2002
0000
0000
3003
,
0000
0010
1000
0001
,
0200
0000
0000
0300
,
0000
0001
0010
0100
,
2000
0000
0000
3000
,
0000
0010
0100
0001
,
2000
0000
0000
3000
,
0000
0100
1000
0001
,
0200
0000
0000
0000
,
0000
0000
0000
0300
,
0020
0000
0000
0030
,
2000
3000
0002
0003
,
0200
0000
0000
0000
,
0300
0000
0000
0000
;

//---------------dance-single - ----------------
#NOTES:
     dance-single:
     :
     Medium:
     5:
     :
0000
0000
0000
0000
,
0000
0000
0000
0000
,
0000
0000
0000
0000
,
0000
0000
0000
0000
,
0000
0000
0000
0000
,
1000
0000
0000
0100
0000
0000
0010
0000
,
0001
0000
1000
0000
0100
0010
0001
0000
,
1000
0000
0000
0010
0000
0000
0100
0000
,
0001
0000
1000
0000
0010
0100
0001
0000
,
1000
0000
0000
0001
0000
0000
0010
0000
,
0100
0000
1000
0000
0001
0100
0010
0000
,
1000
0000
0000
0001
0000
0000
0100
0000
,
0010
0000
1000
0100
0010
0001
1000
0001
,
0100
0000
0001
0000
1000
0002
0000
0000
,
0013
0000
0100
0010
0000
0001
1000
0000
,
0100
0000
1000
0000
0001
2000
0000
0000
,
3010
0000
0100
0010
0000
1000
0001
0000
,
0010
0000
0100
0000
1000
0200
0000
0000
,
0310
0000
0001
1000
0000
0010
0100
0000
,
0010
0000
0100
0000
0001
0200
0000
0000
,
0310
0000
1000
0001
1000
0100
0010
0001
,
1000
0001
1000
0001
,
0100
0100
0100
0100
,
0010
1000
0010
1000
,
0001
0001
0001
0001
,
1001
1000
0010
0100
,
0110
0010
0001
0010
,
1010
1000
0101
0100
,
0011
0101
1010
1100
,
0001
0000
0000
0001
0000
0000
0001
0000
,
0100
0000
0000
0100
0000
0000
0100
0000
,
0010
0000
0000
0010
0000
0000
0010
0000
,
1000
0000
0000
1000
0000
0000
1000
0000
,
1100
0000
0000
0010
0000
0000
0001
0000
,
1000
0000
0000
0010
0000
0000
0100
0000
,
0001
0000
0000
1000
0000
0000
0100
0000
,
0010
0000
0000
0001
0000
0000
0100
0000
,
0101
0000
0000
1000
0000
0000
0001
0000
,
0010
0000
0000
0100
0000
0000
1000
0000
,
1001
0000
0000
0100
0000
0000
0010
0000
,
1001
0000
0000
0100
0000
0000
0001
0000
,
0110
0000
0000
0100
0000
0000
1000
0000
,
0110
0000
0000
0001
0000
0000
1000
0000
,
1001
0000
0110
0000
,
0101
1100
0101
1100
,
2000
0000
0000
3020
0000
0000
1030
0000
,
0002
0000
0000
0023
0000
0000
0130
0000
,
2000
0000
0000
3002
0000
0000
1003
0000
,
0020
0000
0000
0230
0000
0000
0301
0000
,
1000
0000
0000
0001
0000
0010
0100
0000
,
1000
0000
0000
0001
0000
0100
0010
0000
,
1000
0000
0000
0100
0000
0010
0001
0000
,
0100
0000
0000
0010
0000
1000
0001
0000
,
2000
0000
0000
3200
0000
0000
1300
0000
,
0002
0000
0000
0203
0000
0000
0310
0000
,
2000
0000
0000
3002
0000
0000
1003
0000
,
0200
0000
0000
0320
0000
0000
0031
0000
,
1000
0000
0000
0001
0000
0100
0010
0000
,
1000
0000
0000
0001
0000
0010
0100
0000
,
1000
0000
0000
0010
0000
0100
0001
0000
,
0010
0000
0000
0100
0000
1000
0001
0000
,
1001
0100
0001
0010
,
0100
1000
0001
0100
,
0010
1000
0001
0010
,
0100
1000
0001
0100
,
0002
0000
2003
0000
3000
0100
1000
0000
,
0200
0000
2300
0000
3000
0001
1000
0000
,
0002
0000
0203
0000
0300
0001
0100
0000
,
0020
0000
0230
0000
0300
0010
1000
0000
,
0200
0000
0000
0000
,
0000
0000
0000
0000
,
2300
0000
0000
0000
,
3002
0000
0203
0000
,
0320
0000
0000
0000
,
0030
0000
0000
0000
;

//---------------dance-single - ----------------
#NOTES:
     dance-single:
     :
     Hard:
     8:
     :
0000
0000
0000
0000
,
0000
0000
0000
0000
,
0000
0000
0000
0000
,
0000
0000
0000
0000
,
0000
0000
0000
0000
,
0100
0000
1000
0100
0000
0010
0100
1000
,
0001
1000
1010
0101
,
0100
0000
0001
0100
0000
0010
0100
0001
,
1000
0100
1000
0001
0010
0100
1000
0000
,
0010
0000
1000
0010
0000
0100
0010
1000
,
0001
1000
1100
0011
,
0010
0000
0001
0010
0000
0100
0010
0001
,
1000
0010
1000
0001
0100
0010
1000
0000
,
0001
0000
0100
0000
0010
0100
1000
0000
,
0100
0000
0002
0010
0003
0010
0200
0000
,
1300
0000
0100
0000
0010
0100
0001
0000
,
0100
0000
2000
0010
3000
0010
0200
0000
,
0301
0000
1000
0000
0001
0010
0100
0000
,
0001
0000
0200
1000
0300
0001
0200
0000
,
0310
0000
0100
0000
0001
0100
1000
0100
,
0001
0000
0000
0000
1000
0000
0100
0000
0001
0000
0100
0000
1000
0001
1000
0000
,
0001
0000
1000
0000
0010
1000
0100
0000
,
0010
0001
0100
0010
0001
1000
0100
0001
,
1000
0000
0001
0000
0100
1000
0010
0000
,
0100
0001
0010
0100
0001
1000
0010
0001
,
1000
0000
0001
0000
0100
0001
0010
0000
,
0100
1000
0010
0100
1000
0001
0010
1000
,
0001
0000
1000
0000
0010
0001
0100
0000
,
0010
1000
0100
0010
1000
0001
0100
1000
,
0100
2000
0010
0010
,
0001
0001
0100
0100
,
3001
0012
0010
1000
,
1000
0100
0100
1003
,
0210
0010
1000
1000
,
0010
0010
0001
0001
,
0310
1020
1000
0100
,
0100
0001
0001
0130
,
2010
0001
0010
0001
,
0100
0001
0100
3001
,
0012
1000
0010
1003
,
2100
0001
0100
3001
,
0012
0100
0010
1003
,
2010
0100
0010
3001
,
0102
1003
2100
3001
,
0012
0103
2010
3100
,
1001
0000
0010
0000
0000
0100
0001
0000
,
1000
0000
0001
0000
0000
0010
0100
0000
,
1000
0000
0001
0000
0000
1000
0010
0000
,
0100
0000
0001
0000
0000
1000
0100
0010
,
0002
0000
2003
0000
3000
0010
0100
0000
,
0002
0000
2003
0000
3000
0100
0010
0000
,
0002
0000
2003
0000
3000
0001
0100
0000
,
0020
0000
0230
0000
0300
0001
1000
0000
,
2010
0000
3001
0000
0000
0100
0001
0000
,
0012
0000
1003
0000
0000
0100
1000
0000
,
1200
0000
0310
0000
0000
0001
0100
0000
,
0201
0000
0310
0000
0000
1000
0001
0010
,
0200
0000
2300
0000
3000
0001
0100
0000
,
0020
0000
2030
0000
3000
0001
0010
0000
,
0200
0000
0320
0000
0030
0100
1000
0000
,
0002
0000
0203
0000
0300
0010
1000
0001
,
1001
0000
1000
0010
0100
0001
0010
0001
,
0100
0000
0001
1000
0100
1000
0010
0100
,
0001
0000
0010
0100
1000
0001
1000
0100
,
0001
0000
0100
1000
0001
0100
0001
0010
,
1001
0000
0001
0100
0010
1000
0100
1000
,
0010
0000
1000
0001
0010
0001
0100
0010
,
1000
0000
0100
0010
0001
1000
0001
0010
,
1000
0000
0010
0001
1000
0010
1000
0100
,
2002
0000
0000
0000
,
0000
0000
0000
0003
,
0200
0000
0000
3000
,
0000
0020
0000
0000
0300
0000
0000
0000
0002
0000
0000
0000
0000
0000
0000
0000
,
2030
0000
0000
0000
0000
0003
0000
0000
,
0000
3000
0000
0000
;

//---------------dance-double - ----------------
#NOTES:
     dance-double:
     :
     Beginner:
     1:
     :
00000000
00000000
00000000
00000000
,
00000000
00000000
00000000
00000000
,
00000000
00000000
00000000
00000000
,
00000000
00000000
00000000
00000000
,
00000000
00000000
00000000
00000000
,
10000000
00000000
00000000
00000000
,
00010000
00000000
00000000
00000000
,
01000000
00000000
00000000
00000000
,
00001000
00000000
00000000
00000000
,
00010000
00000000
00000000
00000000
,
00000100
00000000
00000000
00000000
,
00001000
00000000
00000000
00000000
,
00000001
00000000
00000000
00000000
,
00000100
00000000
00000100
00000000
,
00000000
00000000
00000000
00000000
,
00001000
00000000
00001000
00000000
,
00000000
00000000
00000000
00000000
,
00010000
00000000
00010000
00000000
,
00000000
00000000
00000000
00000000
,
01000000
00000000
01000000
00000000
,
00000000
00000000
00000000
00000000
,
10000000
00000000
10000000
00000000
,
01000000
00000000
01000000
00000000
,
00100000
00000000
00000000
00000000
,
00001000
00000000
00000000
00000000
,
00010000
00000000
00010000
00000000
,
00001000
00000000
00001000
00000000
,
00000100
00000000
00000000
00000000
,
00000001
00000000
00000000
00000000
,
00000000
00000020
00000000
00000000
,
00000030
00000000
00000000
00000000
,
00000000
00002000
00000000
00000000
,
00003000
00000000
00000000
00000000
,
00020000
00000000
00000000
00030000
,
00000000
00000000
00000000
00000000
,
00000000
02000000
00000000
00000000
,
03000000
00000000
00000000
00000000
,
00000000
20000000
00000000
00000000
,
30000000
00000000
00000000
00000000
,
00200000
00000000
00000000
00300000
,
00100000
00000000
00000000
00000000
,
00010000
00000000
00000000
00000000
,
00001000
00000000
00000000
00000000
,
00010000
00000000
00001000
00000000
,
00010000
00000000
00001000
00000000
,
00000100
00000000
00000100
00000000
,
00000001
00000000
00000000
00000000
,
00000010
00000000
00000010
00000000
,
00001000
00000000
00000000
00000000
,
00010000
00000000
00010000
00000000
,
00001000
00000000
00000000
00000000
,
00100000
00000000
00100000
00000000
,
00010000
00000000
00010000
00000000
,
10000000
00000000
00000000
00000000
,
01000000
00000000
01000000
00000000
,
00100000
00000000
00000000
00000000
,
00001000
00000000
00001000
00000000
,
00010000
00000000
00000000
00000000
,
00000100
00000000
00000100
00000000
,
00001000
00000000
00000000
00000000
,
00000001
00000000
00000001
00000000
,
00000200
00000000
00000000
00000300
,
00000000
00000000
00001000
00000000
,
00020000
00000000
00000000
00030000
,
00000000
00000000
00100000
00000000
,
20000000
00000000
00000000
30000000
,
00000000
00000000
01000000
00000000
,
00020000
00000000
00000000
00030000
,
00000000
00000000
00001000
00000000
,
00000200
00000000
00000000
00000000
,
00000300
00000000
00000000
00000000
,
00000020
00000000
00000000
00000030
,
00000010
00000000
00000100
00000000
,
00000002
00000000
00000000
00000003
;

//---------------dance-double - ----------------
#NOTES:
     dance-double:
     :
     Easy:
     4:
     :
00000000
00000000
00000000
00000000
,
00000000
00000000
00000000
00000000
,
00000000
00000000
00000000
00000000
,
00000000
00000000
00000000
00000000
,
00000000
00000000
00000000
00000000
,
00001000
00000000
00001000
00000000
,
00010000
00000000
00010000
00000000
,
01000000
00000000
01000000
00000000
,
10000000
00000000
10000000
00000000
,
00100000
00000000
00100000
00000000
,
00010000
00000000
00010000
00000000
,
00001000
00000000
00001000
00000000
,
00000100
00000000
00000100
00000000
,
00000001
00000001
00000001
00000000
,
00000100
00000000
00001000
00000000
,
00010000
00010000
00010000
00000000
,
01000000
00000000
01000000
00000000
,
10000000
10000000
10000000
00000000
,
00100000
00000000
00100000
00000000
,
01000000
01000000
01000000
00000000
,
00001000
00000000
00001000
00000000
,
00011000
00001000
00010000
00000000
,
00000100
00001000
00000010
00000000
,
00000100
00000001
00000010
00000000
,
00001000
00010000
00001000
00000000
,
00100000
00010000
01000000
00000000
,
00100000
10000000
01000000
00000000
,
00110000
00000000
00011000
00000000
,
00000000
00001000
00100000
00001000
,
00010000
00000200
00000000
00001000
,
00000000
00001000
00000000
00001300
,
00000010
00000200
00000000
00000001
,
00000000
00000001
00000300
00000001
,
00002000
00000100
00000000
00000100
,
00000000
00000100
00000000
00003100
,
00010000
00002000
00000000
00100000
,
00000000
00100000
00003000
00100000
,
00020000
01000000
00000000
01000000
,
00000000
01000000
00030000
01000000
,
00200000
10000000
00000000
10300000
,
10010000
00000000
00000000
00000000
,
10100000
00000000
00000000
00000000
,
01010000
00000000
00000000
00000000
,
00011000
00000000
00011000
00000000
,
00001100
00000000
00001100
00000000
,
00000001
00001000
00000000
00000001
,
00000100
00000001
00000000
00001000
,
00000100
00001000
00000000
00010000
,
00001000
00010000
00000000
00100000
,
00010000
00100000
00000000
01000000
,
10000000
01000000
00000000
10000000
,
00100000
10000000
00000000
00010000
,
01000000
00010000
00000000
00001000
,
00011000
00000000
00000000
00000000
,
00001100
00000000
00001001
00000000
,
00001010
00000000
00000000
00000000
,
00011000
00000000
01010000
00000000
,
01100000
00000000
00000000
00000000
,
10100000
00000000
10010000
00000000
,
11000000
00000000
00000000
00000000
,
00110000
00000000
00011000
00000000
,
00022000
00000000
00000000
00033000
,
00000000
00001000
00000100
00000010
,
00002000
00000000
00000000
00003000
,
00000000
00000100
00000010
00001000
,
00020000
00000000
00000000
00030000
,
00000000
00001000
00010000
01000000
,
20000000
00000000
00000000
30000000
,
00000000
01000000
10000000
00010000
,
02000000
00000000
00000000
00000000
,
00000000
00000000
00000000
03000000
,
00200000
00000000
00000000
00300000
,
00020000
00030000
00002000
00003000
,
00000200
00000000
00000000
00000000
,
00000300
00000000
00000000
00000000
;

//---------------dance-double - ----------------
#NOTES:
     dance-double:
     :
     Medium:
     6:
     :
00000000
00000000
00000000
00000000
,
00000000
00000000
00000000
00000000
,
00000000
00000000
00000000
00000000
,
00000000
00000000
00000000
00000000
,
00000000
00000000
00000000
00000000
,
10000000
00000000
00000000
01000000
00000000
00000000
00100000
00000000
,
01000000
00000000
10000000
00000000
00100000
00010000
00001000
00000000
,
00010000
00000000
00000000
00001000
00000000
00000000
00010000
00000000
,
00000100
00000000
00001000
00000000
00000010
00001000
00000001
00000000
,
00000010
00000000
00000000
00000100
00000000
00000000
00001000
00000000
,
00000010
00000000
00010000
00000000
00001000
00010000
00000100
00000000
,
00010000
00000000
00000000
00001000
00000000
00000000
00100000
00000000
,
00010000
00000000
10000000
00100000
01000000
00010000
00100000
00001000
,
00010000
00000000
00001000
00000000
00010000
00000200
00000000
00000000
,
00001300
00000000
00000100
00000010
00000000
00000001
00001000
00000000
,
00000010
00000000
00000100
00000000
00000001
00000020
00000000
00000000
,
00001030
00000000
00010000
00001000
00000000
00010000
00100000
00000000
,
10000000
00000000
00010000
00000000
10000000
02000000
00000000
00000000
,
03100000
00000000
00010000
01000000
00000000
00001000
00010000
00000000
,
00000010
00000000
00001000
00000000
00000001
00000020
00000000
00000000
,
00001030
00000000
00000010
00000001
00000000
00000100
00001000
00000000
,
00010000
00001000
00010000
00001000
,
00100000
00100000
00100000
00100000
,
00010000
10000000
00010000
10000000
,
01000000
01000000
01000000
01000000
,
10010000
10000000
00100000
01000000
,
01100000
00100000
00010000
00001000
,
00011000
00010000
00010100
00000100
,
00001100
00001010
00000101
00000011
,
00001000
00000000
00000000
00001000
00000000
00000000
00001000
00000000
,
00000100
00000000
00000000
00000100
00000000
00000000
00000100
00000000
,
00010000
00000000
00000000
00010000
00000000
00000000
00010000
00000000
,
00001000
00000000
00000000
00001000
00000000
00000000
00001000
00000000
,
00101000
00000000
00000000
00010000
00000000
00000000
01000000
00000000
,
10000000
00000000
00000000
01000000
00000000
00000000
00010000
00000000
,
00100000
00000000
00000000
01000000
00000000
00000000
00010000
00000000
,
00001000
00000000
00000000
00010000
00000000
00000000
00001000
00000000
,
00001100
00000000
00000000
00000010
00000000
00000000
00001000
00000000
,
00000001
00000000
00000000
00000010
00000000
00000000
00001000
00000000
,
00011000
00000000
00000000
01000000
00000000
00000000
00100000
00000000
,
10010000
00000000
00000000
01000000
00000000
00000000
00010000
00000000
,
00011000
00000000
00000000
00001000
00000000
00000000
00000100
00000000
,
00001001
00000000
00000000
00000010
00000000
00000000
00000100
00000000
,
00000110
00000000
00001100
00000000
,
00011000
00010100
00011000
00101000
,
00002000
00000000
00000000
00203000
00000000
00000000
00310000
00000000
,
02000000
00000000
00000000
23000000
00000000
00000000
31000000
00000000
,
00200000
00000000
00000000
00320000
00000000
00000000
00031000
00000000
,
00020000
00000000
00000000
00030200
00000000
00000000
00001300
00000000
,
00000010
00000000
00000000
00001000
00000000
00000001
00000100
00000000
,
00001000
00000000
00000000
00010000
00000000
01000000
10000000
00000000
,
00010000
00000000
00000000
01000000
00000000
00100000
00010000
00000000
,
00001000
00000000
00000000
00000100
00000000
00000001
00001000
00000000
,
00000200
00000000
00000000
00000320
00000000
00000000
00000031
00000000
,
00000200
00000000
00000000
00002300
00000000
00000000
00013000
00000000
,
02000000
00000000
00000000
23000000
00000000
00000000
30100000
00000000
,
02000000
00000000
00000000
03020000
00000000
00000000
00130000
00000000
,
01000000
00000000
00000000
00100000
00000000
00001000
00010000
00000000
,
00000100
00000000
00000000
00001000
00000000
00000001
00000100
00000000
,
00000010
00000000
00000000
00001000
00000000
00000100
00010000
00000000
,
00001000
00000000
00000000
00010000
00000000
00001000
00010000
00000000
,
00011000
00010000
00100000
01000000
,
00010000
10000000
00010000
00100000
,
01000000
00010000
00001000
00000100
,
00000010
00001000
00000001
00001000
,
00000200
00000000
00000320
00000000
00000030
00000100
00001000
00000000
,
00000200
00000000
00020300
00000000
00030000
00001000
00010000
00000000
,
00002000
00000000
00203000
00000000
00300000
00010000
00100000
00000000
,
00020000
00000000
02030000
00000000
03000000
00010000
10000000
00000000
,
02000000
00000000
00000000
00000000
,
00000000
00000000
00000000
00000000
,
00000000
03020000
00000000
00000000
00000000
00000000
00000000
00000000
,
00032000
00000000
00003200
00000000
,
00000302
00000000
00000000
00000000
,
00000003
00000000
00000000
00000000
;

//---------------dance-double - ----------------
#NOTES:
     dance-double:
     :
     Hard:
     9:
     :
00000000
00000000
00000000
00000000
,
00000000
00000000
00000000
00000000
,
00000000
00000000
00000000
00000000
,
00000000
00000000
00000000
00000000
,
00000000
00000000
00000000
00000000
,
00000001
00000000
00000100
00000001
00000000
00001000
00000100
00000001
,
00000100
00010000
00011000
00010100
,
00001000
00000000
00100000
00010000
00000000
10000000
00100000
00010000
,
00001000
00000100
00001000
00010000
00100000
10000000
01000000
00000000
,
10000000
00000000
00100000
10000000
00000000
00010000
00100000
10000000
,
00100000
00001000
00011000
00101000
,
00010000
00000000
00000100
00001000
00000000
00000001
00000100
00001000
,
00010000
00100000
00010000
00001000
00000100
00000001
00000010
00000000
,
00000100
00000000
00001000
00000000
00000010
00000100
00001000
00000000
,
00010000
00000000
00001000
00200000
00000000
00320000
10000000
00000000
,
01030000
00000000
00010000
00000000
00100000
01000000
00010000
00000000
,
00001000
00000000
00010000
00000200
00000000
00002300
00000001
00000000
,
00003010
00000000
00000001
00000000
00001000
00000001
00000100
00000000
,
00000010
00000000
00020000
00001000
00030000
00002000
00010000
00003000
,
00001000
00000000
01000000
00000000
00001000
00100000
00010000
00100000
,
00001000
00000000
00000000
00000000
00010000
00000000
00000100
00000000
00001000
00000000
00000100
00000000
00010000
00001000
00010000
00000000
,
00001000
00000000
00100000
00000000
01000000
10000000
00010000
00000000
,
00100000
00010000
01000000
00100000
00010000
00001000
00000100
00000001
,
00001000
00000000
00000010
00000000
00000100
00000001
00001000
00000000
,
00000010
00001000
00000100
00000010
00001000
00010000
01000000
10000000
,
00010000
00000000
01000000
00000000
00100000
10000000
00010000
00000000
,
01000000
00010000
00100000
01000000
00010000
00001000
00000010
00000001
,
00001000
00000000
00000100
00000000
00000010
00000001
00001000
00000000
,
00000100
00001000
00000010
00000100
00001000
00010000
00100000
01000000
,
00100000
00020000
01000000
01000000
,
10000000
10000000
00100000
00130000
,
00010000
00002100
00000100
00000001
,
00000001
00000010
00003010
00010000
,
00102000
00100000
00010000
00010000
,
01000000
01000000
00010000
00103000
,
00001000
00020100
00000100
00001000
,
00001000
00000000
00000000
00000000
00000010
00000000
00000000
00000000
00000010
00000000
00000000
00030000
00001000
00000000
00000000
00000000
,
00210000
01000000
00010000
01300000
,
12000000
00100000
10000000
03100000
,
00021000
00000100
00001000
00030100
,
00012000
01000000
00010000
01003000
,
00010200
00000010
00000001
00000310
,
00001020
00000100
00000001
00000130
,
00002100
00003010
00021000
00030100
,
00012000
00103000
01020000
10030000
,
10010000
00000000
00100000
00000000
00000000
01000000
00010000
00000000
,
00100000
00000000
00001000
00000000
00000000
00010000
00000100
00000000
,
00001000
00000000
00000001
00000000
00000000
00000100
00000010
00000000
,
00000001
00000000
00000010
00000000
00000000
00000100
00001000
00010000
,
02000000
00000000
03020000
00000000
00030000
01000000
10000000
00000000
,
00020000
00000000
20030000
00000000
30000000
00100000
01000000
00000000
,
00200000
00000000
02300000
00000000
03000000
00001000
00010000
00000000
,
00002000
00000000
00023000
00000000
00030000
00000100
00000010
00000000
,
00000210
00000000
00001300
00000000
00000000
00000001
00000100
00000000
,
00000210
00000000
00000301
00000000
00000000
00000100
00001000
00000000
,
00012000
00000000
00103000
00000000
00000000
00010000
01000000
00000000
,
02010000
00000000
03100000
00000000
00000000
10000000
01000000
00010000
,
02000000
00000000
03200000
00000000
00300000
00001000
00010000
00000000
,
00000200
00000000
00002300
00000000
00003000
00000001
00000010
00000000
,
00000200
00000000
00000320
00000000
00000030
00001000
00010000
00000000
,
00002000
00000000
00023000
00000000
00030000
00001000
00010000
00001000
,
00011000
00000000
01000000
10000000
00100000
00010000
00100000
01000000
,
00010000
00000000
00100000
00001000
00010000
00000100
00010000
00001000
,
01000000
00000000
00010000
01000000
00001000
00010000
00000010
00001000
,
00000100
00000000
00000001
00000100
00001000
00000010
00000100
00001000
,
00011000
00000000
00100000
10000000
01000000
00010000
01000000
00100000
,
00010000
00000000
01000000
00001000
00010000
00000010
00010000
00001000
,
00100000
00000000
00010000
01000000
00001000
00010000
00000100
00001000
,
00000010
00000000
00000001
00000010
00001000
00000100
00000010
00001000
,
00022000
00000000
00000000
00000000
,
00000000
00000000
00000000
00000000
00000000
00000000
00000000
00030000
,
00000000
02000000
00000000
00000000
00000000
00000000
00003000
00000000
,
00000000
00200000
00000000
00000000
03000000
00000000
00000000
00000000
00020000
00000000
00000000
00000000
00300000
00000000
00000000
00000000
,
20000000
00000000
00000000
00000000
00000000
00030000
00000000
00000000
,
00000000
30000000
00000000
00000000
;
