#TITLE:THE SPIRIT OF HAWK;
#ARTIST:chuji;
#BANNER:THE SPIRIT OF HAWK.png;
#BACKGROUND:THE SPIRIT OF HAWK-bg.png;
#CDTITLE:./CDTITLES/DANCE DANCE REVOLUTION ULTRAMIX 3.png;
#MUSIC:THE SPIRIT OF HAWK.ogg;
#SAMPLESTART:9.11;
#SAMPLELENGTH:15;
#DISPLAYBPM:131;
#BPMS:0=130.41,4=132.06;

//---------------dance-single - ----------------
#NOTES:
     dance-single:
     :
     Beginner:
     1:
     :
0000
0000
0000
0000
,
0000
0000
0000
0000
,
0000
0000
0000
0000
,
0000
0000
0000
0000
,
0000
0000
0000
0000
,
1000
0000
0000
0000
,
1000
0000
0000
0000
,
0001
0000
0000
0000
,
0001
0000
0000
0000
,
0100
0000
0000
0000
,
1000
0000
0000
0000
,
0100
0000
0000
0000
,
0001
0000
0000
0000
,
0100
0000
0000
0000
,
1000
0000
0000
0000
,
0100
0000
0000
0000
,
0001
0000
0000
0000
,
0010
0000
0010
0000
,
0010
0000
0000
0000
,
0100
0000
0100
0000
,
0100
0000
0000
0000
,
1000
0000
0001
0000
,
1000
0000
0001
0000
,
0100
0000
0000
0000
,
0200
0000
0300
0000
,
0100
0000
0000
0000
,
0100
0000
0000
0000
,
1000
0000
0000
0000
,
1000
0000
0000
0000
,
0001
0000
0000
0000
,
0001
0000
0000
0000
,
0100
0000
0000
0000
,
0100
0000
0000
0000
,
0010
0000
0010
0000
,
0020
0000
0030
0000
,
0002
0000
0003
0000
,
2000
0000
3000
0000
,
0010
0000
0010
0000
,
0020
0000
0030
0000
,
2000
0000
3000
0000
,
0002
0000
0003
0000
,
0010
0000
0010
0000
,
0100
0000
0100
0000
,
0010
0000
0100
0000
,
2002
0000
3003
0000
,
1000
0000
1000
0000
,
0001
0000
0001
0000
,
1000
0000
0001
0000
,
2002
0000
3003
0000
,
1001
0000
0000
0000
;

//---------------dance-single - ----------------
#NOTES:
     dance-single:
     :
     Easy:
     2:
     :
0000
0000
0000
0000
,
0000
0000
0000
0000
,
0000
0000
0000
0000
,
0000
0000
0000
0000
,
0000
0000
0000
0000
,
1000
0000
1000
0000
,
0000
0000
0000
0000
,
0001
0000
0001
0000
,
0002
0000
0003
0000
,
0100
0000
0000
0000
,
0100
0000
0000
0000
,
0001
0000
0100
0000
,
1000
0000
0000
0000
,
0100
0000
0000
0000
,
0100
0000
0000
0000
,
1000
0000
0100
0000
,
0001
0000
0000
0000
,
0010
0000
0010
0000
,
0020
0000
0030
0000
,
0100
0000
0100
0000
,
0200
0000
0300
0000
,
0010
0000
0010
0000
,
1000
0001
1000
0000
,
0100
0000
0010
0000
,
0200
0000
0300
0000
,
1000
0000
0010
0000
,
1000
0000
0001
0000
,
0010
0000
0001
0000
,
0200
0000
0300
0000
,
0001
0000
0010
0000
,
0001
0000
1000
0000
,
0010
0000
1000
0000
,
0200
0000
0300
0000
,
1001
0000
0100
0100
,
0100
0000
0000
0010
,
0010
0000
0000
0010
,
0200
0000
0300
0000
,
1001
0000
1000
0001
,
1000
0000
0000
0001
,
1000
0000
0000
0001
,
0200
0000
0300
0000
,
1000
0000
0010
0000
,
1000
0000
0001
0000
,
0010
0000
0001
0000
,
2002
0000
3003
0000
,
0001
0000
0010
0000
,
0001
0000
1000
0000
,
0010
0000
1000
0000
,
2002
0000
3003
0000
,
0110
0000
0000
0000
;

//---------------dance-single - ----------------
#NOTES:
     dance-single:
     :
     Medium:
     5:
     :
0000
0000
0000
0000
,
0000
0000
0000
0000
,
0000
0000
0000
0000
,
0000
0000
0000
0000
,
0000
0000
0000
0000
,
1000
1000
0001
0001
,
0200
0000
0000
0300
,
0001
0001
1000
1000
,
0200
0000
0000
0300
,
1001
0000
0010
0000
0001
1000
0001
0000
,
1000
0000
0010
1000
0010
0000
0100
0001
,
0100
0000
0010
1000
0010
0000
1000
0100
,
1000
0000
0001
0100
0002
0000
0003
0000
,
1001
0000
0100
0000
1000
0010
1000
0000
,
0001
0000
0100
0001
0100
0000
0010
0100
,
0010
0000
1000
0001
1000
0000
0010
0100
,
0020
0000
0000
0000
0030
0000
1000
0100
,
2000
0000
0000
0000
3010
0000
0100
0001
,
0002
0000
0000
0000
0003
0000
0010
0100
,
0020
0000
0000
0000
0031
0000
0100
0001
,
0200
0000
0000
0300
,
0002
0000
1003
0010
,
1000
0000
0000
0100
0000
0000
1000
0000
0010
0000
0000
0000
0100
0000
0000
0000
,
0001
0000
0000
0010
0001
0000
0100
0010
,
2000
0000
3000
0001
,
0101
0000
0000
0010
0010
0000
1000
0000
,
1100
0000
0000
0010
0010
0000
0100
0000
,
1001
0000
0000
1000
0001
0000
0100
0000
,
0200
0000
0300
1000
,
1010
0000
0000
0100
0100
0000
0001
0000
,
0011
0000
0000
0100
0100
0000
0010
0000
,
1001
0000
0000
0100
1000
0000
0001
0010
,
0200
0000
0000
0300
,
1001
0000
0000
0000
1000
1000
0100
0000
,
1001
0000
0000
0000
0000
0001
0010
0100
,
2000
0000
0000
3000
0000
1000
0010
0100
,
0002
0000
0000
0003
,
1001
0000
0000
0000
0001
0001
0100
0000
,
1001
0000
0000
0000
0000
1000
0100
0010
,
0002
0000
0000
0003
0000
0001
0100
0010
,
2000
0000
0000
0000
3000
0000
1000
0100
,
0001
0000
0000
0100
1000
0000
0001
0100
,
1000
0000
0000
0100
0001
0000
0010
0100
,
0010
0000
0000
0001
1000
0000
0001
0000
,
2002
0000
0000
0000
3003
0000
0001
0100
,
1000
0000
0000
0100
0001
0000
1000
0100
,
0001
0000
0000
0100
1000
0000
0010
0100
,
0010
0000
0000
1000
0001
0000
0010
0100
,
2000
0000
0000
0000
,
0001
3001
0000
0000
0000
0000
0000
0000
;

//---------------dance-single - ----------------
#NOTES:
     dance-single:
     :
     Hard:
     8:
     :
0000
0000
0000
0000
,
0000
0000
0000
0000
,
0000
0000
0000
0000
,
0000
0000
0000
0000
,
0000
0000
0000
0000
,
1000
0010
1000
0001
0100
0010
0100
0001
,
2000
0100
0000
3100
,
0010
0001
0100
0001
0010
0100
1000
0001
,
2000
0100
0000
3100
,
1001
0000
0010
0000
0100
0100
1100
0000
,
1010
0000
0010
0100
0001
0000
1000
1000
,
0100
0000
0010
0010
0001
0000
0100
0100
,
0010
0000
1000
1000
0002
0000
0003
0000
,
1001
0000
0010
0000
0100
0100
0101
0000
,
0011
0000
0010
0100
1000
0000
0001
0001
,
0100
0000
0010
0010
1000
0000
0100
0100
,
0200
0000
0000
0000
0000
0000
1300
0001
,
2002
0000
0003
0010
3010
0000
0100
0001
,
1002
0000
0100
0000
0100
0000
0103
0010
,
0210
0000
0000
0001
0301
0000
0010
0100
,
2100
0000
0010
0000
0010
0000
3010
0100
,
0210
0000
0000
0001
0301
0000
0010
0100
,
1100
0000
0000
1100
0000
0000
0001
0000
0100
0000
0001
1000
0001
0000
0010
0000
,
0100
0000
0000
1000
0010
0000
0100
0001
,
0020
0000
0000
0000
0000
0000
0031
1000
,
0200
0000
0000
1300
1100
0000
1000
0001
,
0200
0000
0000
0301
0101
0000
0010
1000
,
0020
0000
0000
0130
0101
0000
1100
0000
,
2002
0000
0000
0000
3003
0000
0010
0010
,
1001
0001
0100
0001
0200
0000
0310
0010
,
1001
1000
0100
1000
0200
0000
1300
0001
,
0120
0000
0000
1000
1030
0000
0001
0001
,
0200
0000
0000
0300
,
1001
0000
0000
0000
0000
0000
0100
1000
0001
0000
0010
0000
0100
0000
1000
0000
,
0020
0000
0000
0000
1000
0000
0000
0000
1030
0000
0001
0100
0001
0000
0010
0000
,
0200
0000
0000
0000
0010
0000
0000
0000
0310
0000
0001
0100
0001
0000
1000
0000
,
0200
0000
0000
0300
,
1001
0000
0000
0000
0000
0000
0010
1000
0001
0000
0100
0000
0010
0000
1000
0000
,
0200
0000
0000
0000
1000
0000
0000
0000
1300
0000
0001
0010
0001
0000
0100
0000
,
0020
0000
0000
0000
0100
0000
0000
0000
0130
0000
0001
0010
0001
0000
1000
0000
,
0020
0000
0000
0000
0000
0000
1030
1000
,
0100
0000
1000
0001
0010
0000
0001
0000
0002
0000
0000
0000
0103
0000
0100
0000
,
0010
0000
1000
0001
0100
0000
0010
0000
0020
0000
0000
0000
1030
0000
1000
0000
,
0002
0100
0103
0010
2000
0000
3001
0000
,
2002
0000
0000
0000
3003
0000
0010
0010
,
0100
0000
1000
0010
0100
0000
0001
0000
0002
0000
0100
0000
0103
0000
0010
0000
,
1000
0000
0001
0010
0100
0000
1000
0000
2000
0000
0010
0000
3010
0000
0100
0000
,
1002
0000
0003
0100
0101
0000
0010
0100
,
2000
0000
0000
3000
,
0110
0110
0000
0000
0000
0000
0000
0000
;

//---------------dance-double - ----------------
#NOTES:
     dance-double:
     :
     Beginner:
     1:
     :
00000000
00000000
00000000
00000000
,
00000000
00000000
00000000
00000000
,
00000000
00000000
00000000
00000000
,
00000000
00000000
00000000
00000000
,
00000000
00000000
00000000
00000000
,
00000001
00000000
00000000
00000000
,
00001000
00000000
00000000
00000000
,
00000001
00000000
00000000
00000000
,
00001000
00000000
00000000
00000000
,
00000100
00000000
00000000
00000000
,
00010000
00000000
00000000
00000000
,
00001000
00000000
00000000
00000000
,
00010000
00000000
00000000
00000000
,
00001000
00000000
00000000
00000000
,
00010000
00000000
00000000
00000000
,
00001000
00000000
00000000
00000000
,
01000000
00000000
00000000
00000000
,
00100000
00000000
00100000
00000000
,
00100000
00000000
00000000
00000000
,
01000000
00000000
01000000
00000000
,
01000000
00000000
00000000
00000000
,
10000000
00000000
10000000
00000000
,
00010000
00000000
00010000
00000000
,
01000000
00000000
00000000
00000000
,
02000000
00000000
03000000
00000000
,
01000000
00000000
00000000
00000000
,
00001000
00000000
00000000
00000000
,
00010000
00000000
00000000
00000000
,
00001000
00000000
00000000
00000000
,
00010000
00000000
00000000
00000000
,
00000010
00000000
00000000
00000000
,
00000100
00000000
00000000
00000000
,
00000010
00000000
00000000
00000000
,
00000100
00000000
00000100
00000000
,
00000200
00000000
00000300
00000000
,
00000002
00000000
00000003
00000000
,
00002000
00000000
00003000
00000000
,
00000100
00000000
00000100
00000000
,
00000200
00000000
00000300
00000000
,
00020000
00000000
00030000
00000000
,
00002000
00000000
00003000
00000000
,
00010000
00000000
00010000
00000000
,
00001000
00000000
00001000
00000000
,
00010000
00000000
00001000
00000000
,
00022000
00000000
00033000
00000000
,
00010000
00000000
01000000
00000000
,
10000000
00000000
01000000
00000000
,
00010000
00000000
00001000
00000000
,
00022000
00000000
00033000
00000000
,
00011000
00000000
00000000
00000000
;

//---------------dance-double - ----------------
#NOTES:
     dance-double:
     :
     Easy:
     3:
     :
00000000
00000000
00000000
00000000
,
00000000
00000000
00000000
00000000
,
00000000
00000000
00000000
00000000
,
00000000
00000000
00000000
00000000
,
00000000
00000000
00000000
00000000
,
10000000
00000000
01000000
00000000
,
00010000
00000000
01000000
00000000
,
10000000
00000000
01000000
00000000
,
20020000
00000000
30030000
00000000
,
00010000
00000000
00010000
00000000
,
00010000
00000000
00000000
00000000
,
00001000
00000000
00000100
00000000
,
00000001
00000000
00000000
00000000
,
00000010
00000000
00000010
00000000
,
00000010
00000000
00000000
00000000
,
00000001
00000000
00001000
00000000
,
00000001
00000000
00000000
00000000
,
00000100
00000000
00000100
00000000
,
00000200
00000000
00000300
00000000
,
00000010
00000000
00000010
00000000
,
00000020
00000000
00000030
00000000
,
00010000
00000000
00001000
00000000
,
00010000
00100000
10000000
00000000
,
01000000
00000000
00010000
00000000
,
00002000
00000000
00003000
00000000
,
00010000
00000000
00000100
00000000
,
00001000
00000000
00000001
00000000
,
00000010
00000000
00000001
00000000
,
00000200
00000000
00000300
00000000
,
00000010
00000000
00010000
00000000
,
00001000
00000000
00100000
00000000
,
00010000
00000000
10000000
00000000
,
02000000
00000000
03000000
00000000
,
10010000
00000000
01000000
01000000
,
01000000
00000000
00000000
00001000
,
00001000
00000000
00000000
00010000
,
00002000
00000000
00003000
00000000
,
00001001
00000000
00000100
00000100
,
00000100
00000000
00000000
00010000
,
00010000
00000000
00000000
00001000
,
00020000
00000000
00030000
00000000
,
00001000
00000000
00000010
00000000
,
00000001
00000000
00000100
00000000
,
00001000
00000000
00010000
00000000
,
00022000
00000000
00033000
00000000
,
00010000
00000000
00100000
00000000
,
10000000
00000000
01000000
00000000
,
00010000
00000000
00001000
00000000
,
00022000
00000000
00033000
00000000
,
00011000
00000000
00000000
00000000
;

//---------------dance-double - ----------------
#NOTES:
     dance-double:
     :
     Medium:
     5:
     :
00000000
00000000
00000000
00000000
,
00000000
00000000
00000000
00000000
,
00000000
00000000
00000000
00000000
,
00000000
00000000
00000000
00000000
,
00000000
00000000
00000000
00000000
,
10000000
01000000
00010000
01000000
,
20020000
00000000
00000000
30030000
,
10000000
00100000
00010000
00100000
,
20020000
00000000
00000000
30030000
,
01000000
00000000
00100000
00000000
00010000
00001000
00010000
00000000
,
00000100
00000000
00000010
00000001
00000100
00000000
00000010
00001000
,
00000100
00000000
00010000
00001000
00000100
00000000
00001000
00010000
,
01000000
00000000
00100000
00010000
02000000
00000000
03000000
00000000
,
10000000
00000000
00100000
00000000
01000000
00001000
01000000
00000000
,
00010000
00000000
00100000
00010000
01000000
00000000
00100000
10000000
,
01000000
00000000
00100000
00001000
00010000
00000000
00001000
00010000
,
00000020
00000000
00000000
00000000
00000030
00000000
00000100
00000100
,
00000002
00000000
00000000
00000000
00000013
00000000
00000100
00010000
,
00002000
00000000
00000000
00000000
00003000
00000000
00100000
00010000
,
20000000
00000000
00000000
00000000
30010000
00000000
01000000
00010000
,
00002000
00000000
00000000
00000000
00000000
00000000
00013000
01000000
,
20000000
00000000
30100000
01000000
,
10000000
00000000
00000000
00010000
00000000
00000000
10000000
00000000
01000000
00000000
00000000
00000000
00010000
00000000
00000000
00000000
,
00001000
00000000
00000000
00100000
00001000
00000000
01000000
00100000
,
20000000
00000000
30000000
01000000
,
11000000
00000000
00000000
00100000
00100000
00000000
01000000
00000000
,
01010000
00000000
00000000
00100000
00100000
00000000
01000000
00000000
,
10010000
00000000
00000000
10000000
01000000
00000000
00010000
00000000
,
00002000
00000000
00003000
00000010
,
00001010
00000000
00000000
00000100
00000100
00000000
00000010
00000000
,
00000011
00000000
00000000
00000100
00000100
00000000
00000010
00000000
,
00001001
00000000
00000000
00000001
00000100
00000000
00000001
00001000
,
00000200
00000000
00000000
00000300
,
00001001
00000000
00000000
00000000
00000100
00000100
00000100
00000000
,
00001001
00000000
00000000
00000000
00000000
00000100
00010000
00001000
,
00020000
00000000
00000000
00030000
00000000
00001000
00010000
00001000
,
02000000
00000000
00000000
03000000
,
10010000
00000000
00000000
00000000
01000000
01000000
01000000
00000000
,
10010000
00000000
00000000
00000000
00000000
01000000
00100000
00001000
,
00020000
00000000
00000000
00030000
00000000
00001000
00010000
00000010
,
00000200
00000000
00000000
00000000
00000300
00000000
00000100
00000100
,
00000001
00000000
00000000
00000001
00001000
00000000
00000100
00000100
,
00010000
00000000
00000000
00010000
00001000
00000000
00100000
00100000
,
00010000
00000000
00000000
00010000
10000000
00000000
00010000
00000000
,
20020000
00000000
00000000
00000000
30030000
00000000
01000000
01000000
,
00010000
00000000
00000000
00010000
00100000
00000000
00001000
00001000
,
00010000
00000000
00000000
00010000
00000010
00000000
00001000
00001000
,
00000100
00000000
00000000
00000100
00000010
00000000
00000001
00001000
,
00000002
00000000
00000000
00000000
,
00001000
00001003
00000000
00000000
00000000
00000000
00000000
00000000
;

//---------------dance-double - ----------------
#NOTES:
     dance-double:
     :
     Hard:
     8:
     :
00000000
00000000
00000000
00000000
,
00000000
00000000
00000000
00000000
,
00000000
00000000
00000000
00000000
,
00000000
00000000
00000000
00000000
,
00000000
00000000
00000000
00000000
,
00001000
00100000
00001000
00010000
01000000
00100000
00010000
01000000
,
00002000
00000000
00000000
00003000
,
00010000
01000000
10000000
00100000
01000000
00001000
00010000
00000100
,
00020000
00000000
00000000
00030000
,
00001000
00000000
00000100
00000000
00000001
00000010
00000100
00000000
,
00001100
00000000
00000001
00000100
00001000
00000000
00000100
00000010
,
00010000
00000000
00001000
00000010
00000001
00000000
00000010
00000100
,
00001000
00000000
00000001
00000100
00000200
00000000
00000300
00000000
,
00000010
00000000
00010000
00000000
00001000
00010000
01000000
00000000
,
11000000
00000000
00100000
01000000
00010000
00000000
01000000
00001000
,
00010000
00000000
00001000
00000010
00000001
00000000
00001000
00000100
,
00000200
00000000
00000000
00000000
00000000
00000000
00010300
00001000
,
00022000
00000000
00030000
00103000
00001000
00000000
01000000
00010000
,
10020000
00000000
01000000
01000000
01000000
00000000
01030000
00001000
,
00022000
00000000
00003000
00030010
00010000
00000000
00000100
00001000
,
00002001
00000000
00000100
00000100
00000100
00000000
00003100
00010000
,
00012000
00000000
00000000
00000100
00003100
00000000
00000001
00000010
,
00000011
00000000
00000000
00001100
00000000
00000000
00000001
00000000
00000100
00000000
00000001
00001000
00000001
00000000
00000010
00000000
,
00001000
00000000
00000000
00010000
00001000
00000000
00010000
01000000
,
00200000
00000000
00000000
00000000
00000000
00000000
00301000
00010000
,
02000000
00000000
00000000
13000000
10100000
00000000
00100000
00010000
,
00002000
00000000
00000000
00003100
00000110
00000000
00000010
00010000
,
00000200
00000000
00000000
00001300
00001001
00000000
00001100
00000000
,
00000202
00000000
00000000
00000000
00000303
00000000
00000001
00000100
,
00002000
00000000
00000000
00013000
00010010
00000000
00001000
00010000
,
00200000
00000000
00300000
01000000
01010000
00000000
00100000
01000000
,
10010000
00000000
00000000
10000000
01000000
00000000
00100000
00001000
,
00020000
00000000
00000000
00030000
,
00011000
00000000
00000000
00000000
00000000
00000000
00001000
00010000
00001000
00000000
00000010
00000000
00000100
00000000
00001000
00000000
,
00000002
00000000
00000000
00000000
00000000
00000000
00000000
00000000
00000003
00000000
00001000
00000100
00001000
00000000
00000010
00000000
,
00020000
00000000
00000000
00000000
00000000
00000000
00000000
00000000
00030000
00000000
01000000
00100000
01000000
00000000
10000000
00000000
,
00200000
00000000
00000000
00300000
,
10010000
00000000
00000000
00000000
00000000
00000000
00100000
10000000
00100000
00000000
01000000
00000000
00001000
00000000
00010000
00000000
,
00000020
00000000
00000000
00000000
00000000
00000000
00000000
00000000
00000030
00000000
00000100
00001000
00000100
00000000
00000001
00000000
,
00000020
00000000
00000000
00000000
00000000
00000000
00000000
00000000
00000030
00000000
00000100
00010000
00000100
00000000
00001000
00000000
,
00000002
00000000
00000000
00000000
00000000
00000000
00000103
00000100
,
00000100
00000010
00010000
00000100
00001000
00000001
00000100
00000100
,
00000100
00001000
00010000
00100000
01000000
00010000
00100000
00100000
,
00100000
01000000
10000000
00100000
00010000
00000000
00001000
00000000
,
00022000
00000000
00000000
00000000
00033000
00000000
00001000
00001000
,
00001000
00000010
00000001
00000100
00001000
00010000
00100000
00100000
,
00100000
10000000
01000000
00100000
00001000
00010000
01000000
01000000
,
02000000
00000000
00000000
13000000
01000000
00000000
00100000
01000000
,
20000000
00000000
00000000
30000000
,
11000000
01010000
00000000
00000000
00000000
00000000
00000000
00000000
;
