#TITLE:Superstylin';
#ARTIST:GROOVE ARMADA;
#BANNER:Superstylin'.png;
#BACKGROUND:Superstylin'-bg.png;
#CDTITLE:./CDTITLES/DANCE DANCE REVOLUTION ULTRAMIX 3.png;
#MUSIC:Superstylin'.ogg;
#SAMPLESTART:23.966;
#SAMPLELENGTH:15;
#DISPLAYBPM:128;
#BPMS:0=127.73,4=129.03;

//---------------dance-single - ----------------
#NOTES:
     dance-single:
     :
     Beginner:
     1:
     :
0000
0000
0000
0000
,
0000
0000
0000
0000
,
0000
0000
0000
0000
,
0000
0000
0000
0000
,
0000
0000
0000
0000
,
0000
0000
0100
0000
,
0000
0000
0010
0000
,
0000
0000
1000
0000
,
0000
0000
0001
0000
,
0000
0000
0010
0000
,
0000
0000
0100
0000
,
0000
0000
1000
0000
,
0000
0000
0001
0000
,
1000
1000
0000
0000
,
0001
0000
1000
0000
,
0001
0001
0000
0000
,
1000
0000
0001
0000
,
0010
0010
0000
0000
,
0100
0000
0010
0000
,
0100
0100
0000
0000
,
0010
0000
0100
0000
,
0000
1000
0000
1000
,
0000
0001
0000
0001
,
0000
0100
0000
0100
,
0000
0010
0000
0010
,
0010
0000
1000
0000
,
0001
0000
0010
0000
,
0100
0000
1000
0000
,
0001
0000
0100
0000
,
0010
0010
0000
0000
,
0100
0000
0010
0000
,
1000
1000
0000
0000
,
0001
0000
1000
0000
,
0001
0000
0010
0000
,
0100
0000
1000
0000
,
0100
0000
0010
0000
,
0001
0000
1000
0000
,
0002
0000
0000
0003
,
0001
0000
0001
0000
,
0200
0000
0000
0300
,
0000
0010
0000
1000
,
0000
0010
0000
1000
,
0000
0001
0000
0100
,
0000
0001
0000
0100
,
0000
0010
0000
1000
,
0000
0100
0000
0010
,
0000
0001
0000
1000
,
0000
0010
0000
0100
,
0000
0001
0000
1001
;

//---------------dance-single - ----------------
#NOTES:
     dance-single:
     :
     Easy:
     2:
     :
0000
0000
0000
0000
,
0000
0000
0000
0000
,
0000
0000
0000
0000
,
0000
0000
0000
0000
,
0000
0000
0000
0000
,
0010
0000
0000
0000
,
0100
0000
0000
0000
,
0001
0000
0000
0000
,
1000
0000
0000
0000
,
0010
0000
0100
0000
,
0001
0000
1000
0000
,
0100
0000
0010
0000
,
0001
0000
1000
0000
,
0010
0010
0100
0000
,
0001
0001
1000
0000
,
1000
1000
0001
0000
,
0100
0100
0010
0000
,
0100
0001
0010
0000
,
0100
1000
0010
0000
,
0100
0001
1000
0000
,
0010
0100
0001
0000
,
0010
0000
0001
0000
,
1000
0001
0001
0000
,
0010
0000
0100
0000
,
1000
0001
1000
0000
,
0010
0000
0010
0000
,
0100
0000
0100
0000
,
0001
1000
0001
0000
,
0001
1000
0001
0000
,
0010
0000
0010
0000
,
0100
0100
0100
0000
,
1000
0000
0001
0000
,
0010
0010
0010
0000
,
0001
0000
1000
0000
,
0001
0000
1000
0000
,
0010
0000
0100
0000
,
0001
0000
1000
0000
,
0002
0000
0000
0003
,
0001
0000
1000
0000
,
0020
0000
0000
0030
,
0010
0000
0100
0000
,
0010
1000
0010
0000
,
0010
0100
0010
0000
,
1000
0100
1000
0000
,
0001
0100
0001
0000
,
0001
1000
0100
0000
,
0010
0100
1000
0000
,
1000
0100
0010
0000
,
0001
1000
0001
1001
;

//---------------dance-single - ----------------
#NOTES:
     dance-single:
     :
     Medium:
     4:
     :
0000
0000
0000
0000
,
0000
0000
0000
0000
,
0000
0000
0000
0000
,
0000
0000
0000
0000
,
0000
0000
0000
0000
,
1000
0000
0010
0000
,
1000
0000
0001
0000
,
0100
0000
0010
0000
,
1000
0000
1001
0000
,
0010
1000
0010
0000
,
0001
0100
0001
0000
,
0010
0100
1000
0000
,
0010
0100
1001
0000
,
1000
0010
1000
0001
,
0010
0100
1100
0000
,
0010
0100
0001
1000
,
0100
0010
0011
0000
,
1000
0010
0100
0010
,
1000
0001
0011
0000
,
0001
1000
0010
0100
,
0001
0100
1001
0000
,
1000
0000
0010
0000
1000
0001
1000
0000
,
0010
0000
1000
0000
0010
0100
0010
0000
,
1000
0000
0001
0000
0010
0100
0010
0000
,
0001
0000
1000
0000
0001
1000
0001
0000
,
0001
0010
0100
1000
,
0010
1000
1001
0000
,
0100
0010
1000
1000
,
0010
0100
1001
0000
,
0100
1000
0010
0100
,
0001
1000
1100
0000
,
0010
0001
1000
0010
,
0100
0001
1001
0000
,
0200
0000
0000
0300
,
0001
0000
0000
1000
0001
1000
0001
0000
,
0020
0000
0000
0030
,
0010
0000
0000
0100
0010
0100
0010
0000
,
0002
1000
0000
1003
,
0001
0100
0001
0000
0001
0000
0000
0000
,
2000
0001
0000
3001
,
1000
0000
0001
0010
0001
0000
0100
0000
,
0001
0000
1000
0000
0001
0010
0100
0000
,
1000
0000
0010
0000
0010
1000
0001
0000
,
0001
0000
0001
0000
0100
0001
1000
0000
,
0010
0000
1000
0000
0010
1000
0001
0000
,
0002
0000
0203
0000
,
0320
0000
2030
0000
,
3002
0000
2003
0000
,
3001
0100
0001
0000
0001
0000
2002
0000
,
0000
3003
0000
0000
;

//---------------dance-single - ----------------
#NOTES:
     dance-single:
     :
     Hard:
     7:
     :
0000
0000
0000
0000
,
0000
0000
0000
0000
,
0000
0000
0000
0000
,
0000
0000
0000
0000
,
0000
0000
0000
0000
0000
0000
0000
0001
,
0000
2000
0010
0000
0010
0000
3010
0000
,
0200
0000
0001
0000
0001
0000
0301
1000
,
0000
0002
0010
0000
0010
0000
0013
0000
,
0200
0000
1000
0000
1000
0000
1300
0010
,
0000
0200
0001
0000
0001
0000
0301
0000
,
2000
0000
0010
0000
0010
0000
3010
0100
,
0000
0002
1000
0000
1000
0000
1003
0000
,
2000
0001
3001
1001
,
1000
0010
1000
0010
1000
0000
0001
0000
0100
0000
0001
0000
1000
0000
0200
0000
,
0000
1300
0100
0000
1001
0000
0101
0000
,
0010
1000
0100
0010
0100
2000
0000
3002
,
0000
0003
0100
0000
0001
0000
0000
0000
1001
0000
0000
0000
1100
0000
0000
0000
,
1000
0010
0100
0010
1000
0001
0010
0200
,
0000
1300
0001
0000
1001
0000
0011
0000
,
0001
0000
1000
0001
1000
0000
0010
0000
0100
0000
0001
0000
1000
0000
0002
0000
,
0000
2003
0000
0000
3001
0000
0000
0000
1010
0000
0000
0000
1001
0000
0000
0000
,
2000
0000
0010
0000
0010
0000
3010
0100
,
0002
0000
0100
0000
0100
0003
0100
0010
,
2000
0000
0100
0000
0100
0000
3100
0020
,
0000
0002
0030
0000
1003
0000
0000
0000
1100
0000
0000
0000
1001
0000
2000
0000
,
0000
0002
3000
0000
1003
0100
1000
0010
,
0100
0001
0010
0100
1000
0000
1001
0002
,
0000
2000
0003
0000
3000
0100
1000
0001
,
0100
0010
0100
0001
0010
0000
0110
0200
,
0000
0020
0300
0000
0031
1000
0001
0010
,
0100
0010
0001
1000
0100
0000
0110
0020
,
0000
0200
0030
0000
0300
1000
0001
0100
,
1000
0100
0001
0010
0100
0000
1001
0000
,
1000
0000
0100
0000
1000
0000
0010
0100
0000
0100
0000
0000
0001
0000
1000
0000
,
0010
0000
0100
0000
0010
0000
1000
0100
0000
0100
0000
0000
0010
0000
0100
0000
,
1000
0000
0001
0000
0100
0000
0010
0100
0000
0100
0000
0000
0001
0000
0010
0000
,
0100
0000
1000
0000
0001
0000
0100
0000
0000
0001
1000
0000
1001
0000
0000
0000
,
1000
0010
0100
0020
0000
0130
0010
0200
,
0000
0310
0100
0020
0000
0130
0010
0100
,
0001
0010
0100
0020
0000
0130
0010
0200
,
0000
0310
0100
0020
0000
0130
0010
0100
,
1000
0001
0100
0010
0100
0001
0010
0100
,
1000
0100
0001
0100
0010
0001
1000
0010
,
0200
0000
0302
0000
1003
0001
0010
1000
,
0010
0100
0001
0100
0010
0001
1000
0010
,
0200
0000
0000
0000
0000
0000
0302
0000
0000
0003
0010
0000
0001
0000
0100
0000
,
0010
1000
0100
1000
0010
0001
0010
1000
,
0002
0000
0000
2003
0000
3100
0010
0100
,
1000
0001
0100
0010
1000
0001
1001
0000
;

//---------------dance-double - ----------------
#NOTES:
     dance-double:
     :
     Beginner:
     1:
     :
00000000
00000000
00000000
00000000
,
00000000
00000000
00000000
00000000
,
00000000
00000000
00000000
00000000
,
00000000
00000000
00000000
00000000
,
00000000
00000000
00000000
00000000
,
00000000
00000000
00010000
00000000
,
00000000
00000000
00100000
00000000
,
00000000
00000000
00001000
00000000
,
00000000
00000000
00010000
00000000
,
00000000
00000000
00000100
00000000
,
00000000
00000000
00001000
00000000
,
00000000
00000000
00000001
00000000
,
00000000
00000000
00000100
00000000
,
00001000
00001000
00000000
00000000
,
00010000
00000000
00001000
00000000
,
00010000
00010000
00000000
00000000
,
01000000
00000000
10000000
00000000
,
00100000
00100000
00000000
00000000
,
01000000
00000000
00100000
00000000
,
00010000
00010000
00000000
00000000
,
00001000
00000000
00010000
00000000
,
00000000
00001000
00000000
00001000
,
00000000
00000100
00000000
00000100
,
00000000
00000001
00000000
00000001
,
00000000
00000010
00000000
00000010
,
00000010
00000000
00001000
00000000
,
00010000
00000000
00100000
00000000
,
01000000
00000000
10000000
00000000
,
00010000
00000000
01000000
00000000
,
00100000
00100000
00000000
00000000
,
00010000
00000000
00001000
00000000
,
00010000
00010000
00000000
00000000
,
00001000
00000000
00000100
00000000
,
00000001
00000000
00000010
00000000
,
00001000
00000000
00010000
00000000
,
01000000
00000000
10000000
00000000
,
00010000
00000000
01000000
00000000
,
00020000
00000000
00000000
00030000
,
00010000
00000000
00001000
00000000
,
00020000
00000000
00000000
00030000
,
00000000
00001000
00000000
00010000
,
00000000
00001000
00000000
00010000
,
00000000
00000100
00000000
00001000
,
00000000
00000100
00000000
00001000
,
00000000
00000010
00000000
00000001
,
00000000
00000010
00000000
00000001
,
00000000
00000100
00000000
00001000
,
00000000
00010000
00000000
01000000
,
00000000
10000000
00000000
10010000
;

//---------------dance-double - ----------------
#NOTES:
     dance-double:
     :
     Easy:
     2:
     :
00000000
00000000
00000000
00000000
,
00000000
00000000
00000000
00000000
,
00000000
00000000
00000000
00000000
,
00000000
00000000
00000000
00000000
,
00000000
00000000
00000000
00000000
,
00010000
00000000
00000000
00000000
,
01000000
00000000
00000000
00000000
,
00100000
00000000
00000000
00000000
,
10000000
00000000
00000000
00000000
,
01000000
00000000
00010000
00000000
,
00001000
00000000
00001000
00000000
,
00000100
00000000
00000001
00000000
,
00000001
00000000
00001000
00000000
,
00000001
00000001
00000100
00000000
,
00000010
00000010
00001000
00000000
,
00000001
00000100
00000001
00000000
,
00000001
00000100
00001000
00000000
,
00010000
01000000
10000000
00000000
,
01000000
10000000
00010000
00000000
,
01000000
00010000
01000000
00000000
,
00100000
01000000
00100000
00000000
,
10000000
00000000
01000000
00000000
,
00010000
00001000
00010000
00000000
,
00001000
00000000
00000100
00000000
,
00000001
00000100
00000001
00000000
,
00000100
00000000
00000100
00000000
,
00000010
00000000
00000010
00000000
,
00001000
00000001
00001000
00000000
,
00000001
00000100
00001000
00000000
,
00010000
00000000
01000000
00000000
,
10000000
10000000
10000000
00000000
,
10000000
00000000
00100000
00000000
,
01000000
01000000
01000000
00000000
,
00100000
00000000
10000000
00000000
,
01000000
00000000
00010000
00000000
,
00001000
00000000
00010000
00000000
,
00001000
00000000
00000100
00000000
,
00000002
00000000
00000000
00000003
,
00000001
00000000
00001000
00000000
,
00000200
00000000
00000000
00000300
,
00000100
00000000
00001000
00000000
,
00000001
00000100
00001000
00000000
,
00010000
01000000
10000000
00000000
,
10000000
01000000
10000000
00000000
,
00010000
10000000
00010000
00000000
,
00010000
10000000
01000000
00000000
,
10000000
00010000
00100000
00000000
,
01000000
00010000
00001000
00000000
,
00010000
00001000
00010000
00011000
;

//---------------dance-double - ----------------
#NOTES:
     dance-double:
     :
     Medium:
     5:
     :
00000000
00000000
00000000
00000000
,
00000000
00000000
00000000
00000000
,
00000000
00000000
00000000
00000000
,
00000000
00000000
00000000
00000000
,
00000000
00000000
00000000
00000000
,
00100000
00000000
10000000
00000000
,
01000000
00000000
00100000
00000000
,
01000000
00000000
00010000
00000000
,
00001000
00000000
00011000
00000000
,
00001000
00000100
00000001
00000000
,
00001000
00000010
00001000
00000000
,
00000100
00000010
00000001
00000000
,
00000100
00001000
00011000
00000000
,
00010000
01000000
10000000
00010000
,
01000000
00100000
10100000
00000000
,
00100000
01000000
00001000
00010000
,
00000100
00001000
00001100
00000000
,
00010000
00000100
00001000
00000001
,
00001000
00000010
00000110
00000000
,
00000100
00001000
00010000
00001000
,
01000000
00010000
01010000
00000000
,
00010000
00000000
00100000
00000000
00010000
10000000
00010000
00000000
,
00100000
00000000
00010000
00000000
01000000
00100000
01000000
00000000
,
00010000
00000000
01000000
00000000
00001000
00010000
00001000
00000000
,
00010000
00000000
00000100
00000000
00001000
00000010
00000100
00000000
,
00000001
00000010
00000100
00001000
,
00000010
00001000
00001001
00000000
,
00000010
00000100
00000001
00000001
,
00000100
00001000
00011000
00000000
,
00001000
01000000
00010000
01000000
,
00100000
10000000
11000000
00000000
,
01000000
10000000
00010000
01000000
,
00100000
10000000
10010000
00000000
,
02000000
00000000
00000000
03000000
,
00001000
00000000
00000000
00010000
00001000
00010000
00001000
00000000
,
00020000
00000000
00000000
00030000
,
00000100
00000000
00000000
00001000
00000100
00001000
00000100
00000000
,
00000020
00000001
00000000
00000031
,
00001000
00000010
00001000
00000000
00000100
00000000
00000000
00000000
,
00002000
00000010
00000000
00003100
,
00000001
00000000
00000100
00001000
00010000
00000000
00001000
00000000
,
00010000
00000000
01000000
00000000
10000000
00010000
01000000
00000000
,
00010000
00000000
10000000
00000000
00100000
10000000
00010000
00000000
,
10000000
00000000
00010000
00000000
01000000
00001000
00010000
00000000
,
00001000
00000000
00010000
00000000
00000100
00001000
00000100
00000000
,
00002000
00000000
00003020
00000000
,
00000230
00000000
00000302
00000000
,
00000203
00000000
00002300
00000000
,
00013000
01000000
10000000
00000000
01000000
00000000
22000000
00000000
,
00000000
33000000
00000000
00000000
;

//---------------dance-double - ----------------
#NOTES:
     dance-double:
     :
     Hard:
     8:
     :
00000000
00000000
00000000
00000000
,
00000000
00000000
00000000
00000000
,
00000000
00000000
00000000
00000000
,
00000000
00000000
00000000
00000000
,
00000000
00000000
00000000
00000000
00000000
00000000
00000000
10000000
,
00000000
01000000
00010000
00000000
01000000
10000000
00100000
00010000
,
00000000
00001000
00010000
00000000
00101000
00000000
00011000
00001000
,
00000000
00010000
01000000
00000000
00010000
00001000
00000100
00000001
,
00000000
00000010
00000001
00000000
00000101
00000000
00001001
00000001
,
00000000
00000010
00001000
00000000
00000010
00000001
00000100
00001000
,
00000000
00010000
00001000
00000000
00010100
00000000
00011000
00010000
,
00000000
00001000
00000010
00000000
00001000
00010000
00100000
10000000
,
00000000
01000000
10000000
00000000
10100000
00000000
10010000
00000000
,
10000000
01000000
10000000
01000000
10000000
00000000
00010000
00000000
00100000
00000000
00001000
00000000
00010000
00000000
00002000
00000000
,
00000000
01003000
00001000
00000000
00101000
00000000
00011000
00000000
,
00001000
00010000
00000100
00000010
00000100
00001000
00000001
00000100
,
00000010
00000100
00000001
00000000
00000011
00000000
00001001
00000000
,
00001000
00000010
00001000
00000100
00010000
00001000
00010000
01000000
,
10000000
00100000
10000000
00000000
10010000
00000000
11000000
00000000
,
00100000
00000000
00010000
01000000
00010000
00000000
00100000
00000000
00001000
00000000
00010000
00000000
00001000
00000000
00020000
00000000
,
00000000
00032000
00000000
00000000
00003100
00000000
00000000
00000000
00000110
00000000
00000000
00000000
00001001
00000000
00000000
00000000
,
00000100
00000010
00000100
00000000
00001000
00000100
00001000
00000000
,
00000010
00001000
00000010
00000100
00001000
00010000
01000000
00000000
,
00100000
01000000
00100000
00000000
00010000
00100000
00010000
00000000
,
01000000
00010000
01000000
00100000
00010000
00001000
00000010
00000002
,
00000000
00002003
00000000
00003010
00000001
00000010
00001000
00000100
,
00010000
00001000
01000000
00010000
00100000
10000000
00100000
00020000
,
00000000
20000000
00030000
00000000
30000000
00100000
00010000
00001000
,
00100000
00001000
00010000
00000100
00010000
00001000
00000100
00000002
,
00000000
00002000
00000003
00000000
00003100
00000010
00001000
00000010
,
00000100
00010000
00001000
00010000
00100000
01000000
00010000
02000000
,
00000000
00200000
03000000
00000000
00300000
10000000
01000000
00010000
,
01000000
00100000
00001000
00010000
00001000
00000000
00011000
00000000
,
00000100
00000000
00001000
00000000
00000010
00000000
00000100
00000010
00000000
00000100
00000000
00000010
00000100
00000000
00000001
00000000
,
00001000
00000000
00000100
00000000
00000010
00000000
00000001
00000010
00000000
00000001
00000000
00000010
00000001
00000000
00001000
00000000
,
00000100
00000000
00010000
00000000
00001000
00000000
00010000
00001000
00000000
00010000
00000000
00001000
00010000
00000000
00100000
00000000
,
10000000
00000000
01000000
00000000
00100000
00000000
00010000
00000000
00000000
10000000
00010000
00000000
10010000
00000000
00000000
00000000
,
00100000
00010000
02000000
00010000
03000000
00010000
20000000
00010000
,
30000000
00010000
00200000
00010000
00300000
00001000
00010000
00000100
,
00001000
00000001
00000200
00000001
00000300
00000001
00002000
00000001
,
00003000
00000001
00000020
00000001
00000030
00001000
00000100
00010000
,
00001000
01000000
00010000
01000000
00100000
10000000
00010000
00100000
,
00001000
00010000
00000010
00000100
00000010
00001000
00000001
00000010
,
00000100
00000010
00001000
00010000
00001000
00100000
01000000
00100000
,
00010000
10000000
00100000
01000000
00010000
00100000
00001000
00010000
,
00002000
00000000
00000000
00023000
00000000
00030010
00000100
00000010
,
00010000
00001000
00100000
01000000
00100000
00001000
00010000
00001000
,
00020000
00000000
00000000
00032000
00000000
01003000
00100000
01000000
,
00001000
00010000
00000100
00000010
00000100
00010000
00011000
00000000
;
