#TITLE:Sunflower Girl;
#ARTIST:SHORTCUTS;
#BANNER:Sunflower Girl.png;
#BACKGROUND:Sunflower Girl-bg.png;
#CDTITLE:./CDTITLES/GUITARFREAKS & drummania.PNG;
#MUSIC:Sunflower Girl.ogg;
#SAMPLESTART:40.8;
#SAMPLELENGTH:15;
#BPMS:0=153;

//---------------dance-single - ----------------
#NOTES:
     dance-single:
     :
     Beginner:
     1:
     :
0000
0000
0000
0000
,
0000
0000
0000
0000
,
0000
0000
0000
0000
,
0000
0000
0000
0000
,
0000
0000
0000
0000
,
0000
0000
0000
0000
,
0001
0000
0000
0000
,
1000
0000
0000
0000
,
0020
0000
0000
0030
,
0000
0000
0000
0000
,
1000
0000
0000
0000
,
0000
0000
0000
0000
,
1000
0000
0000
0000
,
0100
0000
0000
0000
,
1000
0000
0000
0000
,
0010
0000
0000
0000
,
0100
0000
0000
0000
,
0001
0000
0000
0000
,
0100
0000
0000
0000
,
0001
0000
0000
0000
,
0001
0000
0000
0000
,
0010
0000
0000
0000
,
0001
0000
0000
0000
,
0100
0000
0000
0000
,
0100
0000
0000
0000
,
0001
0000
0000
0000
,
0100
0100
0000
0000
,
0001
0001
0000
0000
,
1000
1000
0000
0000
,
0100
0100
0000
0000
,
1000
0000
1000
0000
,
0010
0000
0010
0000
,
1000
0000
1000
0000
,
0100
0000
0100
0000
,
1000
0000
0000
1001
,
0000
0000
0000
1000
,
1000
0000
0000
0001
,
0001
0000
0000
1000
,
1000
0000
0000
0010
,
0010
0000
0000
0100
,
0100
0000
0000
0100
,
0100
0000
0000
0001
,
0001
0000
0000
1000
,
2000
0000
0000
3000
,
0000
0000
0000
0000
,
0001
0000
0000
0000
,
1000
0000
0000
0000
,
0010
0000
0000
0000
,
0010
0000
0000
0000
,
1000
0000
0000
0000
,
1000
0000
0000
0000
,
0010
0010
0000
0000
,
0000
0000
0000
0000
,
0001
0001
0000
0000
,
0000
0000
0000
0000
,
1000
1000
0000
0000
,
0100
0100
0000
0000
,
0020
0000
0000
0030
,
0000
0000
0000
0000
,
0001
0000
0000
0000
;

//---------------dance-single - ----------------
#NOTES:
     dance-single:
     :
     Easy:
     2:
     :
0000
0000
0000
0000
,
0000
0000
0000
0000
,
0000
0000
0000
0000
,
0000
0000
0000
0000
,
0000
0000
0000
0000
,
0000
0000
0000
0000
,
1000
0000
0001
0000
,
1000
0000
0010
0000
,
1001
0000
0000
0000
,
0000
0000
0000
0000
,
1000
0000
0010
0000
,
0100
0000
0001
0000
,
2000
0000
0000
3000
,
1000
0000
0002
0000
,
0000
0003
0001
0000
,
0010
0000
0100
0000
,
1000
0000
0100
0000
,
1000
0000
0001
0000
,
0010
0000
0010
0000
,
0100
0000
0100
0000
,
0020
0000
0000
0030
,
0010
0000
0200
0000
,
0000
0300
0100
0000
,
0010
0000
0001
0000
,
1000
0000
0010
0000
,
0010
0000
0100
0000
,
0010
0100
0001
0000
,
0000
0000
0001
0000
,
0100
0010
1000
0000
,
0000
0000
1000
0000
,
0001
0100
0001
0000
,
1000
0010
1000
0000
,
1000
0001
1000
0000
,
0000
0000
0000
0000
,
1000
1000
0000
0010
,
0000
0000
0000
0001
,
1000
0000
0000
0100
,
1000
0000
0000
0001
,
0100
0000
0000
0100
,
0001
0000
0000
1000
,
0001
0000
0000
0001
,
0000
0001
1000
0000
,
0010
0000
1000
0001
,
0001
0000
0000
0000
,
1000
0000
0000
0000
,
0010
0000
0000
0000
,
0100
0000
0000
0000
,
0010
0000
1000
0000
,
0100
1000
0001
0000
,
0010
0000
0010
0000
,
0001
0010
0001
0000
,
1000
1000
0000
0001
,
0002
0000
0003
0000
,
0010
0010
0000
0100
,
0200
0000
0300
0000
,
1000
0000
0010
0000
,
0010
0000
1000
0001
,
2000
0000
0000
0000
0000
0000
3000
0002
,
0000
0000
0000
0003
,
1001
0000
0000
0000
;

//---------------dance-single - ----------------
#NOTES:
     dance-single:
     :
     Medium:
     4:
     :
0000
0000
0000
0000
,
0000
0000
0000
0000
,
0000
0000
0000
0000
,
0000
0000
0000
0000
,
0000
0000
0000
0000
,
0000
0000
0000
0000
,
0010
0000
0000
0000
0000
0000
0100
0001
,
0000
0001
0000
0000
0100
0000
0100
0000
,
0020
0000
0000
0000
0030
0000
0000
2002
,
0000
0000
3003
0000
,
1100
1000
0100
1000
,
0100
0000
0010
0000
,
0001
0000
0000
0000
0001
1000
0000
0000
,
1000
0000
0000
0000
0100
0010
0000
0000
,
0001
0000
0000
0000
1000
0100
0000
0000
,
1000
0000
0000
0000
0001
1000
0000
0000
,
1000
0000
0000
0000
0001
0010
0000
0000
,
0100
0000
0000
0000
1000
0010
0000
0000
,
0100
0000
0001
0100
,
0001
1000
0010
0000
,
0010
0000
0000
0000
1000
0001
0000
0000
,
0001
0000
0000
0000
0010
0100
0000
0000
,
1000
0000
0000
0000
0001
0010
0000
0000
,
0001
0000
0000
0000
1000
0001
0000
0000
,
0001
0000
0000
0000
1000
0100
0000
0010
,
0000
0010
0000
0020
0000
0000
0030
0000
,
0001
0000
0010
0000
0100
1000
0000
2000
,
0000
0000
0000
0000
0000
3000
0000
0000
,
1000
0000
0100
0000
0010
0001
0000
0002
,
0000
0000
0000
0000
0000
0003
0000
0000
,
1000
0100
0000
0010
0000
0001
0000
0010
,
0000
0100
0000
0010
0000
0001
0000
1000
,
0001
0000
0001
2000
0000
0000
0000
0000
,
3000
0000
0000
1000
0010
1000
0000
0000
,
0100
0100
0000
1001
,
2000
3000
0010
0100
,
0002
0003
0100
0001
,
0020
0000
0030
0000
0001
1000
0000
0001
,
0000
0001
0000
1000
0000
1000
0000
0000
,
0200
0300
0010
0001
,
2000
3000
0100
1000
,
0020
0000
0030
0000
0010
1000
0000
0001
,
0000
1000
0000
1000
0000
0001
0000
2002
,
0000
0000
0000
3003
,
0000
0000
0000
0000
,
0010
0000
1000
0000
,
0001
0000
1000
0000
,
0100
0000
0000
0000
0100
0000
0000
0010
,
0000
0000
0010
0000
0001
1000
0000
0002
,
0000
0003
0010
0010
,
0100
0100
2000
3000
,
0010
0100
0010
0000
0000
1000
0100
0020
,
0000
0000
0030
0000
,
0001
0000
0010
0000
0000
0100
1000
0200
,
0000
0000
0300
0000
,
2000
0000
0000
3000
,
0002
0000
0000
0003
,
2002
0000
0000
0000
3003
0000
0000
0220
,
0000
0000
0000
0330
,
1001
0000
0000
0000
;

//---------------dance-single - ----------------
#NOTES:
     dance-single:
     :
     Hard:
     6:
     :
0000
0000
0000
0000
,
0000
0000
0000
0000
,
0000
0000
0000
0000
,
0000
0000
0000
0000
,
0000
0000
0000
0000
,
0000
0000
0000
0000
,
0010
1000
0000
0001
0000
0100
0000
0001
,
0000
1000
0000
1000
0010
1000
0001
1000
,
2002
0000
0000
0000
3003
0000
0000
2001
,
0000
0010
0100
3001
,
0001
0000
0010
0000
0100
1000
0000
0001
,
0000
0100
0000
0100
0000
0000
1001
0000
,
0010
0000
0000
0001
1000
0100
0000
0010
,
0000
0000
1000
0100
0000
1000
0000
0002
,
0000
0000
1003
0000
,
1000
0000
0000
0000
0001
1000
0000
2000
,
0000
0000
3001
0000
0001
0010
0000
0100
,
0000
0000
0100
0000
1000
0001
0000
0100
,
0000
0010
0000
1000
,
0001
0000
1000
0010
0000
1000
0000
0000
,
0000
0000
0000
1000
0001
1000
0100
0000
,
1000
0000
0001
1000
0000
0010
0000
2000
,
0000
3001
0000
0001
,
0000
0000
0001
0100
0001
1000
0001
0010
,
0001
0000
0000
0001
1000
0001
0000
1000
,
0000
0000
1000
0000
0000
0000
1000
0000
0000
0000
0000
0001
1000
0000
0000
0000
,
0001
0000
0010
0000
0001
1000
0000
0001
,
0000
0010
0000
0100
0000
1000
0100
0000
,
0010
0000
0001
0000
1000
0001
0000
1000
,
0000
0100
0000
0010
0000
0001
1000
0000
,
0100
0010
0000
0001
0000
1000
0000
1000
,
0000
0001
0000
0100
0000
0010
0000
0100
,
0001
0000
0001
0100
0000
0001
1000
0010
,
0000
0000
0000
1000
0001
0100
0000
0010
,
1000
0001
0000
0000
1000
0000
0000
0000
1000
0001
0000
0000
0001
0000
0000
0000
,
2000
0000
0000
3001
0000
1000
0000
0002
,
0000
0000
0003
0000
0001
1000
0000
2000
,
0000
0000
3000
0000
0010
0100
0000
0001
,
0000
0001
0000
1000
0000
0100
0000
0000
,
1000
0000
0000
0001
0000
0010
0000
0100
,
0000
0000
1000
0001
0000
1000
0000
0002
,
0000
0000
0003
0000
1000
0001
0000
0010
,
0000
0100
0000
0010
0000
0001
0000
1000
,
0010
1000
0000
1010
0000
1000
0000
1010
,
0000
0100
0000
0101
0000
0001
0100
0001
,
0000
0000
1000
0000
0001
0100
0000
0001
,
0000
1000
0000
0001
0010
0001
0010
0000
,
0001
0000
1000
0000
0100
1000
0000
0001
,
0000
0000
1000
0000
0001
0010
0001
0010
,
0000
0001
0100
0001
0100
0001
1000
0001
,
1000
0100
1000
0100
1000
0000
0000
0000
,
0010
1000
0010
1000
0010
0000
0000
0000
0000
0000
1000
0000
0001
0000
0100
0000
,
0000
0000
0001
0000
0001
1000
0000
0000
,
0010
0001
0000
0000
1000
0000
0000
0000
0000
0000
1000
0000
0001
0000
0010
0000
,
0000
0000
0001
0000
1000
0001
0000
0000
,
0010
0001
0000
0001
0000
0100
0000
0001
,
0000
1000
0000
0010
1000
0001
0010
0001
,
2000
0000
0100
0000
3100
0000
0000
0002
,
0000
0010
0013
0000
,
1001
0000
0000
0000
;

//---------------dance-double - ----------------
#NOTES:
     dance-double:
     :
     Beginner:
     1:
     :
00000000
00000000
00000000
00000000
,
00000000
00000000
00000000
00000000
,
00000000
00000000
00000000
00000000
,
00000000
00000000
00000000
00000000
,
00000000
00000000
00000000
00000000
,
00000000
00000000
00000000
00000000
,
00010000
00000000
00000000
00000000
,
00010000
00000000
00000000
00000000
,
00002000
00000000
00000000
00003000
,
00000000
00000000
00000000
00000000
,
00000001
00000000
00000000
00000000
,
00000000
00000000
00000000
00000000
,
00000010
00000000
00000000
00000000
,
00000100
00000000
00000000
00000000
,
00001000
00000000
00000000
00000000
,
00000010
00000000
00000000
00000000
,
00000100
00000000
00000000
00000000
,
00001000
00000000
00000000
00000000
,
00010000
00000000
00000000
00000000
,
01000000
00000000
00000000
00000000
,
00100000
00000000
00000000
00000000
,
00010000
00000000
00000000
00000000
,
01000000
00000000
00000000
00000000
,
00010000
00000000
00000000
00000000
,
00001000
00000000
00000000
00000000
,
00010000
00000000
00000000
00000000
,
01000000
01000000
00000000
00000000
,
00010000
00010000
00000000
00000000
,
00001000
00001000
00000000
00000000
,
00000100
00000100
00000000
00000000
,
00000001
00000000
00000001
00000000
,
00000010
00000000
00000010
00000000
,
00001000
00000000
00001000
00000000
,
00010000
00000000
00010000
00000000
,
00001000
00001000
00000000
00011000
,
00000000
00000000
00000000
00100000
,
00100000
00000000
00000000
00010000
,
00010000
00000000
00000000
10000000
,
10000000
00000000
00000000
00000000
,
01000000
01000000
00000000
00000000
,
00100000
00100000
00000000
00000000
,
01000000
01000000
00000000
00000000
,
00010000
00010000
00000000
00001000
,
00002000
00000000
00000000
00003000
,
00000000
00000000
00000000
00000000
,
00010000
00000000
00000000
00000000
,
00001000
00000000
00000000
00000000
,
00000000
00000000
00000000
00000000
,
00000100
00000000
00000000
00000000
,
00000001
00000000
00000000
00000000
,
00000001
00000000
00000000
00000000
,
00001000
00001000
00000000
00000000
,
00000000
00000000
00000000
00000000
,
00000100
00000100
00000000
00000000
,
00000000
00000000
00000000
00000000
,
00001000
00000000
00000000
00000000
,
00010000
00010000
00000000
00000000
,
00002000
00000000
00000000
00003000
,
00000000
00000000
00000000
00000000
,
00011000
00000000
00000000
00000000
;

//---------------dance-double - ----------------
#NOTES:
     dance-double:
     :
     Easy:
     3:
     :
00000000
00000000
00000000
00000000
,
00000000
00000000
00000000
00000000
,
00000000
00000000
00000000
00000000
,
00000000
00000000
00000000
00000000
,
00000000
00000000
00000000
00000000
,
00000000
00000000
00000000
00000000
,
00000001
00001000
00000100
00000000
,
00010000
00000000
00001000
00000000
,
00022000
00000000
00000000
00033000
,
00000000
00000000
00000000
00000000
,
01000000
00000000
00010000
00000000
,
00100000
00000000
01000000
00000000
,
20000000
00000000
00000000
30000000
,
10000000
00000000
02000000
00000000
,
00000000
03000000
01000000
00000000
,
00010000
00000000
00001000
00000000
,
00010000
00000000
00000100
00000000
,
00001000
00000000
00000100
00000000
,
00000010
00000000
00000001
00000000
,
00000100
00000000
00000001
00000000
,
00000200
00000000
00000000
00000300
,
00000100
00000000
00002000
00000000
,
00000000
00003000
00001000
00000000
,
00010000
00000000
01000000
00000000
,
00100000
00000000
00010000
00000000
,
10000000
00000000
01000000
00000000
,
00100000
00010000
01000000
00000000
,
00000000
00000000
00001000
00000000
,
00010000
00001000
00010000
00000000
,
00000000
00000000
00000010
00000000
,
00001000
00000100
00000010
00000000
,
00000001
00000010
00000100
00000000
,
00001000
00000100
00001000
00000000
,
00000000
00000000
00000000
00000000
,
00010000
00010000
00000000
00001000
,
00000000
00000000
00000000
00010000
,
00001000
00000000
00000000
01000000
,
00010000
00000000
00000000
00100000
,
01000000
00000000
00000000
01000000
,
10000000
00000000
00000000
10000000
,
00010000
00000000
00000000
00001000
,
00000000
00010000
00001000
00000000
,
00100000
00000000
00001000
00010000
,
00010000
00000000
00000000
00000000
,
00000100
00000000
00000000
00000000
,
00001000
00000000
00000000
00000000
,
00000010
00000000
00000000
00000000
,
00000100
00000000
00000010
00000000
,
00001000
00000100
00000010
00000000
,
00000001
00000000
00001000
00000000
,
00000100
00010000
00001000
00000000
,
00100000
00100000
00000000
00010000
,
00020000
00000000
00030000
00000000
,
01000000
01000000
00000000
00010000
,
00020000
00000000
00030000
00000000
,
01000000
00000000
00010000
00000000
,
01000000
00000000
00001000
00010000
,
00002000
00000000
00000000
00000000
00000000
00000000
00003000
00020000
,
00000000
00000000
00000000
00030000
,
00011000
00000000
00000000
00000000
;

//---------------dance-double - ----------------
#NOTES:
     dance-double:
     :
     Medium:
     4:
     :
00000000
00000000
00000000
00000000
,
00000000
00000000
00000000
00000000
,
00000000
00000000
00000000
00000000
,
00000000
00000000
00000000
00000000
,
00000000
00000000
00000000
00000000
,
00000000
00000000
00000000
00000000
,
00100000
00000000
00000000
00000000
00000000
00000000
00001000
00010000
,
00000000
00010000
00000000
00000000
00000100
00000000
00000010
00000000
,
00000002
00000000
00000000
00000000
00000003
00000000
00000000
00000200
,
00000000
00000000
00000000
00000300
,
00000001
00001000
00000010
00001000
,
00000000
00000000
00000000
00000000
,
00000000
00000000
00000000
00000000
00000001
00000010
00000000
00000000
,
00000001
00000000
00000000
00000000
00000010
00000100
00000000
00000000
,
00000100
00000000
00000000
00000000
00010000
00001000
00000000
00000000
,
01000000
00000000
00000000
00000000
00010000
10000000
00000000
00000000
,
10000000
00000000
00000000
00000000
01000000
00100000
00000000
00000000
,
10000000
00000000
00000000
00000000
00010000
00100000
00000000
00000000
,
01000000
00000000
00000000
10000000
,
01000000
00000000
00010000
00001000
00000000
00000200
00000000
00000000
,
00000300
00000000
00000001
00001000
,
00000100
00000000
00000000
00000000
00010000
00000100
00000000
00000000
,
00010000
00000000
00000000
00000000
00001000
00010000
00000000
00000000
,
00001000
00000000
00000000
00010000
01000000
10000000
00000000
00000000
,
10000000
00000000
00000000
00000000
00010000
01000000
00000000
00100000
,
00000000
10000000
00000000
20000000
00000000
00000000
30000000
00000000
,
00010000
00000000
00100000
00000000
01000000
10000000
00000000
20000000
,
00000000
00000000
00000000
00000000
00000000
30000000
00000000
00000000
,
10000000
00000000
01000000
00000000
00010000
00001000
00000000
00020000
,
00000000
00000000
00030000
00000000
,
00001000
00000100
00000000
00000001
00000000
00000010
00000000
00000100
,
00000000
00001000
00000000
00000001
00000000
00000010
00000000
00000000
,
00000100
00000000
00000100
00020000
00000000
00000000
00000000
00000000
,
00030000
00000000
00000000
00001000
01000000
00010000
00000000
00000000
,
00100000
00100000
00000000
10010000
,
00020000
00030000
00100000
01000000
,
00020000
00030000
00001000
00010000
,
00002000
00000000
00003000
00000000
00010000
00000100
00000000
00001000
,
00000000
00001000
00000000
00000001
00000000
00000001
00000000
00000000
,
00000200
00000300
00000010
00000100
,
00000002
00000003
00000100
00001000
,
00020000
00000000
00030000
00000000
00001000
01000000
00000000
00010000
,
00000000
00100000
00000000
00100000
00000000
00010000
00000000
20020000
,
00000000
00000000
00000000
30030000
,
00000000
00000000
00000000
00000000
,
01000000
00000000
10000000
00000000
,
00010000
00000000
01000000
00000000
,
00010000
00000000
00000000
00000000
01000000
00000000
00000000
00001000
,
00000000
00000000
00100000
00000000
00001000
00010000
00000000
00020000
,
00000000
00030000
00001000
00001000
,
00000100
00000100
00000002
00000003
,
00001000
00000100
00001000
00000000
00000000
00000001
00000100
00000020
,
00000000
00000000
00000030
00000000
,
00001000
00000000
00000100
00000000
00000000
00000001
00001000
00000200
,
00000000
00000000
00000300
00000000
,
00020000
00000000
00000000
00030000
,
00002000
00000000
00000000
00003000
,
00022000
00000000
00000000
00000000
00000000
00033000
00000000
00020000
,
00000000
00000000
00000000
00030000
,
00001000
00000000
00000000
00000000
;

//---------------dance-double - ----------------
#NOTES:
     dance-double:
     :
     Hard:
     7:
     :
00000000
00000000
00000000
00000000
,
00000000
00000000
00000000
00000000
,
00000000
00000000
00000000
00000000
,
00000000
00000000
00000000
00000000
,
00000000
00000000
00000000
00000000
,
00000000
00000000
00000000
00000000
,
10000000
00100000
00000000
01000000
00000000
00010000
00000000
00100000
,
00000000
00010000
00000000
01000000
00001000
00010000
00001000
00010000
,
00022000
00000000
00000000
00000000
00033000
00000000
00000000
00020200
,
00000000
00000000
00030300
00000000
,
00001000
00000000
00000100
00000000
00000010
00000001
00000000
00000100
,
00000000
00000001
00000000
00000001
00000000
00000000
00001000
00000000
,
00000100
00000000
00000000
00000010
00000100
00001000
00000000
00000010
,
00000000
00000000
00001000
00000100
00000000
00010000
00000000
00020000
,
00000000
00000000
00031000
00000000
,
00001000
00000000
00000000
00000000
01000000
00010000
00000000
20000000
,
00000000
00000000
30100000
00000000
01000000
00100000
00000000
10000000
,
00000000
00000000
01000000
00000000
10000000
10000000
00000000
00010000
,
00000000
00100000
00000000
01000000
,
00010000
00000000
00001000
00000010
00000000
00000002
00000000
00000000
,
00000003
00000000
00000000
00001000
00000010
00000100
00000010
00000000
,
00001000
00000000
00000100
00000010
00000000
00000001
00000000
00002000
,
00000000
00000000
00003100
00000000
00000000
00001000
00000001
00001000
,
00000000
00000000
00000000
00000100
00010000
00001000
00010000
00001000
,
00010000
00000000
00000000
00010000
01000000
10000000
00000000
00100000
,
00000000
00000000
10000000
00000000
00000000
00000000
00100000
00000000
00000000
00000000
00000000
00100000
10000000
00000000
00000000
00000000
,
00100000
00000000
01000000
00000000
00010000
10000000
00000000
01000000
,
00000000
00100000
00000000
00010000
00000000
10000000
01000000
00000000
,
00100000
00000000
00010000
00000000
01000000
00010000
00000000
10000000
,
00000000
01000000
00000000
00010000
00000000
00001000
00000100
00000000
,
00000001
00001000
00000000
00000010
00000000
00000100
00000000
00000001
,
00000000
00001000
00000000
00000100
00000000
00001000
00000000
00000001
,
00000010
00000000
00001000
00010000
00000000
00000000
00001000
01000000
,
00000000
00000000
00000000
00010000
10000000
00100000
00000000
10000000
,
00010000
01000000
00000000
00000000
00010000
00000000
00000000
00000000
10000000
01000000
00000000
00000000
00100000
00000000
00000000
00000000
,
02000000
00000000
00000000
03010000
00000000
00001000
00000000
00000200
,
00000000
00000000
00000300
00000000
00000001
00001000
00000000
00000200
,
00000000
00000000
00000300
00000000
00001000
00000100
00000000
00010000
,
00000000
00001000
00000000
00010000
00000000
01000000
00000000
00000000
,
00100000
00000000
00000000
00010000
00000000
00100000
00000000
01000000
,
00000000
00000000
00100000
00010000
00000000
01000000
00000000
00020000
,
00000000
00000000
00030000
00000000
01000000
00010000
00000000
00100000
,
00000000
00001000
00000000
00010000
00000000
00001000
00000000
00010000
,
00001000
00010000
00000000
00011000
00000000
00001000
00000000
01001000
,
00000000
00010000
00000000
00010100
00000000
00001000
00000100
00001000
,
00000000
00000000
00000001
00000000
00000010
00000100
00000000
00001000
,
00000000
00000001
00000000
00001000
00000010
00001000
00000010
00000000
,
00010000
00000000
00001000
00000000
01000000
00010000
00000000
10000000
,
00000000
00010000
00100000
00000000
00010000
00100000
00010000
00100000
,
00000000
00010000
01000000
00010000
01000000
00010000
01000000
00001000
,
00010000
00001000
00000100
00000001
00001000
00000000
00000000
00000000
,
00000001
00000100
00000001
00000100
00000001
00000000
00000000
00000000
00000000
00000000
00001000
00000000
00000001
00000000
00000010
00000000
,
00000000
00000001
00000100
00001000
,
00010000
00001000
00000000
00000000
01000000
00000000
00000000
00000000
00000000
00000000
00010000
00000000
00100000
00000000
00100000
00000000
,
00000000
00000000
01000000
00000000
10000000
00100000
00000000
00000000
,
10000000
00010000
00000000
00010000
00000000
01000000
00000000
00001000
,
00000000
00010000
00000000
00001000
00100000
00010000
00100000
00001000
,
00020000
00000000
00000100
00000000
00030100
00000000
00000000
00002000
,
00000000
00000010
00003010
00000000
,
00001010
00000000
00000000
00000000
;
