#TITLE:Stakeout;
#SUBTITLE:(Ultra-mix);
#ARTIST:Freezepop;
#BANNER:Stakeout (Ultra-mix).png;
#BACKGROUND:Stakeout (Ultra-mix)-bg.png;
#CDTITLE:./CDTITLES/DANCE DANCE REVOLUTION ULTRAMIX 3.png;
#MUSIC:Stakeout (Ultra-mix).ogg;
#SAMPLESTART:61.8;
#SAMPLELENGTH:15;
#BPMS:0=150;
#BGCHANGES:4=Stakeout (Ultra-mix).avi=1=1=0=0,253=Stakeout Ultra-mix-bg.png=1=0=0=1;

//---------------dance-single - ----------------
#NOTES:
     dance-single:
     :
     Beginner:
     1:
     :
0000
0000
0000
0000
,
0000
0000
0000
0000
,
0000
0000
0000
0000
,
0000
0000
0000
0000
,
0000
0000
0000
0000
,
1000
0000
0000
0000
,
1000
0000
0000
0000
,
0001
0000
0000
0000
,
0001
0000
0000
0000
,
0010
0000
0000
0000
,
0010
0000
0000
0000
,
0100
0000
0000
0000
,
0100
0000
0000
0000
,
1000
0000
0000
0000
,
0001
0000
0000
0000
,
0001
0000
0010
0000
,
0001
0000
0000
0000
,
0010
0000
0000
0000
,
0100
0000
0000
0000
,
1000
0000
1000
0000
,
0001
0000
0000
0000
,
0100
0000
0000
0000
,
0001
0000
0000
0000
,
0100
0000
0000
0000
,
0010
0000
0000
0000
,
1000
0000
0000
0000
,
1000
0000
0000
0000
,
0010
0000
0000
0000
,
1000
0000
0000
0000
,
1000
0000
0100
0000
,
1000
0000
0000
0000
,
1000
0000
0001
0000
,
1000
0000
0000
0000
,
0001
0000
0100
0000
,
0010
0000
0000
0000
,
0010
0000
0100
0000
,
0001
0000
0000
0000
,
1000
0000
0000
0000
,
1000
0000
0000
0000
,
0100
0000
0000
0000
,
0010
0000
0001
0000
,
1000
0000
0000
0000
,
0010
0000
0010
0000
,
0100
0000
0000
0000
,
0001
0000
1000
0000
,
0010
0000
0000
0000
,
0100
0000
0100
0000
,
0010
0000
0000
0000
,
0100
0000
0000
0000
,
0001
0000
0001
0000
,
0010
0000
0000
0000
,
0100
0000
0000
0000
,
0010
0000
0001
0000
,
0100
0000
0000
0000
,
0010
0000
0000
0000
,
1000
0000
0000
0000
,
0001
0000
0000
0000
,
0010
0000
0000
0000
,
0100
0000
0000
0000
,
1000
0000
0000
0000
,
0001
0000
0000
0000
,
0010
0000
0010
0000
,
0010
0000
1001
0000
;

//---------------dance-single - ----------------
#NOTES:
     dance-single:
     :
     Easy:
     3:
     :
0000
0000
0000
0000
,
0000
0000
0000
0000
,
0000
0000
0000
0000
,
0000
0000
0000
0000
,
0000
0000
0000
0000
,
1000
0000
1000
0000
,
0001
0000
0001
0000
,
0010
0010
0010
0000
,
0100
0100
0100
0000
,
0010
0100
0100
0000
,
1000
0001
0001
0000
,
1000
0000
0001
0000
,
0100
0000
0001
1000
,
0001
0000
0100
0000
,
0001
0000
0001
0000
,
1001
0000
1000
0000
,
0100
0000
0010
0000
,
0110
0000
0001
0000
,
1000
0000
1000
0000
,
1001
0000
0010
0000
,
1000
0000
0001
0000
,
1001
0000
0010
0000
,
0100
0100
0100
0000
,
0010
0000
1000
0000
,
0010
0010
0010
0000
,
1000
0000
0100
0000
,
1000
1000
1000
0000
,
0001
0000
0010
0000
,
0001
0001
0001
0000
,
0100
0000
0010
0000
,
1000
0000
1001
0000
,
0001
0000
0100
0000
,
0010
0000
0110
0000
,
0100
0000
0010
0000
,
1000
0000
1001
0000
,
1000
0000
0010
0000
,
0100
0000
0110
0000
,
0010
0000
1000
0000
,
0001
0000
1001
0000
,
0010
0000
0010
0000
,
0001
1000
0001
0000
,
0100
0000
0100
0000
,
1000
0001
1000
0000
,
0001
0000
1000
0000
,
0100
0010
0100
0000
,
1000
0000
0001
0000
,
0100
0010
0100
0000
,
0001
1000
0001
0000
,
0010
0100
0010
0000
,
1000
0001
1000
0000
,
0010
0100
0010
0000
,
1000
1000
0010
0000
,
0001
0001
0100
0000
,
0001
0000
0000
0000
,
1000
0000
0000
0000
,
0100
0000
0000
0000
,
0010
0000
0000
0000
,
0010
0000
0001
0000
,
1000
0000
0010
0000
,
0100
0000
0100
0000
,
0001
0000
0100
0000
,
0001
0000
0010
0000
,
1000
0001
1000
1001
;

//---------------dance-single - ----------------
#NOTES:
     dance-single:
     :
     Medium:
     5:
     :
0000
0000
0000
0000
,
0000
0000
0000
0000
,
0000
0000
0000
0000
,
0000
0000
0000
0000
,
0000
0000
0000
0000
,
1000
0000
1000
0000
0010
1000
0010
0000
,
0100
0000
0100
0000
0001
0010
0001
0000
,
1000
0000
1000
0000
0100
0010
0100
0000
,
0010
0000
0010
0000
0001
0100
0001
0000
,
1000
0000
1000
0000
0001
1000
0001
0000
,
0010
0000
0010
0000
0100
1000
0100
0000
,
1000
0001
1000
0000
0010
0100
0010
0000
,
1000
0001
0000
0010
0100
0000
1000
0000
,
0001
0000
0010
0000
,
0100
0000
0000
1000
0001
1000
0001
0100
,
0000
0000
0010
0000
,
1000
0000
0000
0010
0100
0010
0100
0001
,
0000
0000
0100
0000
,
0001
0000
0000
0001
0001
1000
1000
0100
,
0000
0000
1000
0000
,
0001
0000
0000
1000
0001
1000
1000
0001
,
0000
0001
0100
0010
,
1000
0100
0000
0000
,
0000
0010
0001
0001
,
0010
0000
0100
0000
1000
0001
0010
0000
,
0000
0001
0100
0010
,
1000
0000
0000
0000
,
0000
0010
1000
0010
,
0100
0000
0001
0000
0010
0001
1000
0000
,
0001
0000
1000
0000
,
0010
0100
0001
0000
0100
0001
1000
0000
,
1000
0010
0100
0010
,
0010
0000
0100
0000
0001
1000
0010
0000
,
0100
0001
1000
0100
,
0010
0000
0001
0000
0100
0010
0100
0000
,
0001
0000
1000
0000
0000
0010
0100
0000
,
0001
0000
0010
0000
0000
0100
1000
0000
,
1000
0000
0010
0000
0000
0010
1000
0000
,
0100
0000
0010
0000
0100
0000
1000
0100
,
1000
0001
0010
0001
,
0100
0000
0001
0000
1000
0000
1000
0100
,
1000
0001
0100
0001
,
1000
0000
0010
0000
1000
0000
0001
0100
,
0100
0010
0100
0001
,
1000
0000
0100
0000
1000
0000
0001
0100
,
0001
0100
0010
1000
,
1000
0000
0001
0000
0100
0000
0010
0010
,
0100
0001
1000
0100
,
1000
0000
0010
0000
1000
0000
0001
0010
,
0100
1000
1000
0010
,
0100
0000
0001
0000
1000
0000
0001
0010
,
0010
0001
1000
0001
,
0001
1000
0100
0000
,
0010
0000
0100
0000
1000
0001
1000
0000
,
0010
0000
1000
0000
0001
0000
0001
1000
,
0001
1000
0000
0010
1000
0000
0001
1000
,
0000
1000
0100
0000
1000
0000
0010
0100
,
0010
0100
0000
0001
1000
0000
1000
0010
,
0000
0100
0001
0000
0000
0000
0000
0000
,
0100
0000
0001
0001
0100
0000
0010
1000
,
0000
0100
1000
0000
0010
1000
0001
0000
,
1001
1000
0010
0100
,
0001
0000
0010
0000
0001
1000
1001
0000
;

//---------------dance-single - ----------------
#NOTES:
     dance-single:
     :
     Hard:
     7:
     :
0000
0000
0000
0000
,
0000
0000
0000
0000
,
0000
0000
0000
0000
,
0000
0000
0000
0000
,
0000
0000
0000
0000
,
0001
1000
0001
0010
0010
0001
1000
0000
,
0010
1000
0100
0100
1000
0001
1001
0000
,
1000
0001
0010
0010
0100
0010
0100
0000
,
1000
1000
0100
1000
0001
0010
0110
0000
,
0100
1000
0001
0001
0010
0100
1000
0000
,
1000
0100
1000
0010
0100
0001
0101
0000
,
0001
0010
0100
0001
0100
1000
0001
0000
,
1000
0001
1000
0010
0100
0000
0001
0000
,
0010
0000
0100
0000
,
1000
0000
0000
0001
0010
0001
1000
1000
,
0001
0000
1000
0000
,
0010
0000
0000
1000
0100
1000
0001
0100
,
0001
0000
0100
0000
,
0010
0000
0000
0100
0001
0001
0100
0001
,
1000
0000
0001
0000
,
0100
0000
0000
0001
1000
0001
0100
0100
,
0001
0010
0100
1000
,
1000
0100
0010
0001
,
0100
0010
0010
0001
,
0010
0000
0001
0000
0100
0100
0100
0000
,
1000
0001
0010
0010
,
0100
0001
1000
0001
,
0010
0100
0001
0001
,
0100
0000
0010
0000
0001
0001
0001
0000
,
1000
0000
0010
0000
,
0100
0001
1000
0001
0010
0001
1000
0000
,
0100
0001
0100
1000
,
0010
0000
0100
0000
0001
0100
1000
0000
,
0100
0010
1000
0010
,
0001
0000
0010
0000
1000
0100
0010
0000
,
0001
1000
0001
1000
0000
0010
0100
0000
,
0010
0100
0010
0100
0000
0001
1000
0000
,
0010
1000
0001
0100
0000
0100
0010
0000
,
1000
0000
1000
0000
0010
0000
0010
0000
1000
0001
1000
0001
1000
0001
1000
0000
,
0100
0100
1000
0001
,
0010
0000
0001
0000
1000
0010
1000
0010
,
1000
0100
0010
0000
1000
0000
0010
0000
,
0100
0000
0100
0000
1000
0100
1000
0100
,
1000
0001
0100
0000
1000
0000
0010
0000
,
0100
0000
1000
0000
0001
0100
0001
0100
,
0001
0010
0100
0000
0100
0000
1000
0000
,
0001
0000
0010
0000
0001
0010
0001
0010
,
0001
0100
0010
0000
0010
0000
0001
0000
,
0001
0000
1000
0000
0010
1000
0010
1000
,
0010
0100
0001
0000
0001
0000
0001
0000
,
1000
0000
0010
0000
0100
0001
0100
0001
,
0100
0010
1000
0000
1000
0000
0100
0000
,
0100
1000
0001
0000
,
0010
0000
0100
0000
1000
0001
1000
0000
,
0010
0000
0100
0000
0001
0100
0010
0100
,
0001
1000
0000
1000
0100
0000
0100
0010
,
0000
0010
0001
0000
1000
0001
0100
0010
,
0010
0100
0000
0001
0010
0000
0010
0100
,
0000
0100
1000
0000
0100
0010
0001
0100
,
0001
1000
1000
0010
0100
0001
0001
1000
,
0010
0010
1000
0100
0100
1000
0001
0000
,
0101
0001
0100
0001
,
0010
0000
0100
0000
1000
0100
1100
0000
;

//---------------dance-double - ----------------
#NOTES:
     dance-double:
     :
     Beginner:
     1:
     :
00000000
00000000
00000000
00000000
,
00000000
00000000
00000000
00000000
,
00000000
00000000
00000000
00000000
,
00000000
00000000
00000000
00000000
,
00000000
00000000
00000000
00000000
,
10000000
00000000
00000000
00000000
,
10000000
00000000
00000000
00000000
,
01000000
00000000
00000000
00000000
,
01000000
00000000
00000000
00000000
,
00010000
00000000
00000000
00000000
,
00010000
00000000
00000000
00000000
,
00001000
00000000
00000000
00000000
,
00000100
00000000
00000000
00000000
,
00000001
00000000
00000000
00000000
,
00000001
00000000
00000000
00000000
,
00000001
00000000
00000010
00000000
,
00000001
00000000
00000000
00000000
,
00000100
00000000
00000000
00000000
,
00001000
00000000
00000000
00000000
,
00010000
00000000
01000000
00000000
,
10000000
00000000
00000000
00000000
,
00100000
00000000
00000000
00000000
,
10000000
00000000
00000000
00000000
,
01000000
00000000
00000000
00000000
,
00100000
00000000
00000000
00000000
,
00010000
00000000
00000000
00000000
,
10000000
00000000
00000000
00000000
,
01000000
00000000
00000000
00000000
,
00010000
00000000
00000000
00000000
,
00001000
00000000
00010000
00000000
,
00001000
00000000
00000000
00000000
,
00001000
00000000
00000100
00000000
,
00000001
00000000
00000000
00000000
,
00001000
00000000
00000010
00000000
,
00000100
00000000
00000000
00000000
,
00000001
00000000
00000010
00000000
,
00000100
00000000
00000000
00000000
,
00001000
00000000
00000000
00000000
,
00000001
00000000
00000000
00000000
,
00000100
00000000
00000000
00000000
,
00001000
00000000
00010000
00000000
,
00001000
00000000
00000000
00000000
,
00010000
00000000
01000000
00000000
,
10000000
00000000
00000000
00000000
,
10000000
00000000
00010000
00000000
,
01000000
00000000
00000000
00000000
,
00100000
00000000
00100000
00000000
,
10000000
00000000
00000000
00000000
,
10000000
00000000
00000000
00000000
,
01000000
00000000
00010000
00000000
,
00001000
00000000
00000000
00000000
,
00001000
00000000
00000000
00000000
,
00000100
00000000
00000001
00000000
,
00000001
00000000
00000000
00000000
,
00000100
00000000
00000000
00000000
,
00001000
00000000
00000000
00000000
,
00010000
00000000
00000000
00000000
,
00001000
00000000
00000000
00000000
,
00010000
00000000
00000000
00000000
,
00001000
00000000
00000000
00000000
,
00000100
00000000
00000000
00000000
,
00000001
00000000
00000001
00000000
,
00001000
00000000
00001001
00000000
;

//---------------dance-double - ----------------
#NOTES:
     dance-double:
     :
     Easy:
     4:
     :
00000000
00000000
00000000
00000000
,
00000000
00000000
00000000
00000000
,
00000000
00000000
00000000
00000000
,
00000000
00000000
00000000
00000000
,
00000000
00000000
00000000
00000000
,
10000000
01000000
10000000
00000000
,
10000000
01000000
00010000
00000000
,
00001000
00000100
00000001
00000000
,
00000001
00000010
00000001
00000000
,
00001000
00000100
00000100
00000000
,
00000010
00000001
00000001
00000000
,
00000100
00000000
00001000
00000000
,
00010000
00000000
01000000
10000000
,
10010000
00000000
00100000
00000000
,
10000000
00000000
01000000
10000000
,
10010000
00000000
00010000
00000000
,
01000000
00000000
00100000
00100000
,
01100000
00000000
10000000
00000000
,
01000000
00000000
00010000
00001000
,
00011000
00000000
00010000
00000000
,
00001000
00000000
00000100
00000001
,
00001001
00000000
00000010
00000000
,
00001000
00000001
00001000
00000000
,
00000010
00000000
00000100
00000000
,
00001000
00010000
00001000
00000000
,
00010000
00000000
01000000
00000000
,
10000000
00010000
10000000
00000000
,
00010000
00000000
00100000
00000000
,
01000000
10000000
10000000
00000000
,
01000000
00000000
00010000
00000000
,
00001000
00010000
00011000
00000000
,
00010000
00000000
00001000
00000000
,
00000100
00000001
00001001
00000000
,
00000010
00000000
00000100
00000000
,
00000010
00001000
00001001
00000000
,
00000001
00000000
00000100
00000000
,
00001000
00010000
00011000
00000000
,
00010000
00000000
01000000
00000000
,
00100000
01000000
01100000
00000000
,
10000000
00100000
10000000
00000000
,
00010000
01000000
00010000
00000000
,
10000000
01000000
00010000
00000000
,
00001000
00010000
00001000
00000000
,
00001000
00000100
00000001
00000000
,
00000100
00000010
00000100
00000000
,
00000100
00001000
00010000
00000000
,
00010000
01000000
10000000
00000000
,
10000000
01000000
00100000
01000000
,
01000000
00100000
00010000
00000000
,
00010000
01000000
00100000
10000000
,
01000000
00010000
00001000
00000000
,
00010000
00001000
00000100
00000001
,
00001000
00000010
00000100
00000000
,
00001000
00000000
00000000
00000000
,
00010000
00000000
00000000
00000000
,
01000000
00000000
00000000
00000000
,
10000000
00000000
00000000
00000000
,
10000000
00000000
01000000
00000000
,
00010000
00000000
00001000
00000000
,
00000100
00000000
00000001
00000000
,
00001000
00000000
00000010
00000000
,
00001000
00000000
00000100
00000000
,
00000010
00000001
00001000
00001001
;

//---------------dance-double - ----------------
#NOTES:
     dance-double:
     :
     Medium:
     5:
     :
00000000
00000000
00000000
00000000
,
00000000
00000000
00000000
00000000
,
00000000
00000000
00000000
00000000
,
00000000
00000000
00000000
00000000
,
00000000
00000000
00000000
00000000
,
00010000
00000000
00010000
00000000
10000000
01000000
00010000
00000000
,
00001000
00000000
00001000
00000000
00000100
00000001
00000010
00000000
,
00000001
00000000
00000001
00000000
00001000
00000100
00000010
00000000
,
00000100
00000000
00000100
00000000
00000010
00000001
00000100
00000000
,
00001000
00000000
00010000
00000000
00010000
00001000
00010000
00000000
,
00010000
00000000
01000000
00000000
10000000
00100000
01000000
00000000
,
00010000
00010000
10000000
00000000
10000000
01000000
00010000
00000000
,
00010000
00001000
00000000
00000100
00000001
00000000
00000001
00000000
,
00000010
00000000
00000100
00000000
,
00001000
00000000
00000000
00000010
00000100
00000010
00000100
00000001
,
00000000
00000000
00000010
00000000
,
00000100
00000000
00000000
00001000
00000100
00001000
00000001
00000001
,
00000000
00000000
00000100
00000000
,
00001000
00000000
00000000
00010000
00010000
00001000
00001000
00010000
,
00000000
00000000
01000000
00000000
,
10000000
00000000
00000000
00100000
01000000
00010000
00010000
10000000
,
00000000
00010000
00100000
01000000
,
10000000
01000000
00000000
00000000
,
00000000
00100000
00010000
00010000
,
00100000
00000000
01000000
00000000
10000000
01000000
00010000
00000000
,
00000000
00001000
00010000
00001000
,
00001000
00000000
00000000
00000000
,
00000000
00000100
00000001
00000010
,
00000001
00000000
00001000
00000000
00000100
00000100
00000010
00000000
,
00000001
00000000
00000010
00000000
,
00000001
00000100
00001000
00000000
00010000
01000000
10000000
00000000
,
10000000
01000000
00100000
00010000
,
10000000
00000000
01000000
00000000
00100000
00010000
00100000
00000000
,
01000000
10000000
10000000
01000000
,
00010000
00000000
00010000
00000000
00001000
00010000
00001000
00000000
,
00001000
00000000
00000100
00000000
00000000
00000001
00001000
00000000
,
00000010
00000000
00000100
00000000
00000000
00001000
00010000
00000000
,
01000000
00000000
10000000
00000000
00000000
00100000
10000000
00000000
,
10000000
00000000
00100000
00000000
01000000
00000000
00010000
01000000
,
00010000
00010000
00100000
00001000
,
00010000
00000000
00001000
00000000
00000100
00000000
00000001
00000100
,
00000001
00000100
00000010
00001000
,
00000001
00000000
00000100
00000000
00001000
00000000
00010000
01000000
,
01000000
10000000
00100000
00100000
,
01000000
00000000
01000000
00000000
00100000
00000000
10000000
01000000
,
00010000
00001000
00000100
00000001
,
00000010
00000000
00000100
00000000
00001000
00000000
00000001
00001000
,
00000100
00010000
00001000
01000000
,
00010000
00000000
00100000
00000000
01000000
00000000
10000000
00100000
,
01000000
00010000
10000000
01000000
,
00010000
00000000
00001000
00000000
00000100
00000000
00000001
00000100
,
00000100
00000010
00000100
00000010
,
00001000
00000100
00010000
00001000
,
01000000
00000000
00010000
00000000
01000000
00100000
01000000
00000000
,
00100000
00000000
10000000
00000000
00010000
00000000
00100000
00010000
,
00010000
10000000
00000000
00100000
01000000
00000000
00010000
10000000
,
00000000
10000000
01000000
00000000
00010000
00000000
00001000
00010000
,
00001000
00010000
00000000
00001000
00000100
00000000
00000001
00000001
,
00000000
00000100
00000001
00000000
00000000
00000000
00000000
00000000
,
00000000
00000000
00000100
00000100
00000010
00000000
00001000
00000100
,
00000000
00000010
00000100
00000000
00001000
00000001
00001000
00000000
,
00001001
00000001
00000100
00001000
,
00010000
00000000
00001000
00000000
00010000
00001000
00011000
00000000
;

//---------------dance-double - ----------------
#NOTES:
     dance-double:
     :
     Hard:
     7:
     :
00000000
00000000
00000000
00000000
,
00000000
00000000
00000000
00000000
,
00000000
00000000
00000000
00000000
,
00000000
00000000
00000000
00000000
,
00000000
00000000
00000000
00000000
,
00000010
00000100
00000010
00001000
00000100
00000010
00000001
00000000
,
00001000
00000010
00000100
00000100
00001000
00010000
00011000
00000000
,
00010000
01000000
10000000
00100000
01000000
00100000
10000000
00000000
,
00010000
10000000
01000000
00100000
00010000
00100000
01100000
00000000
,
01000000
10000000
01000000
00010000
00001000
00000100
00000001
00000000
,
00000001
00001000
00000010
00001000
00000100
00001000
00001100
00000000
,
00000001
00000100
00000010
00010000
00001000
00010000
00001000
00000000
,
00100000
00010000
10000000
00100000
01000000
00000000
00010000
00000000
,
00100000
00000000
00010000
00000000
,
01000000
00000000
00000000
00100000
00100000
10000000
00010000
10000000
,
00010000
00000000
01000000
00000000
,
00100000
00000000
00000000
10000000
01000000
10000000
00010000
01000000
,
00001000
00000000
00010000
00000000
,
00000100
00000000
00000000
00001000
00000001
00000001
00000010
00000001
,
00000100
00000000
00000010
00000000
,
00001000
00000000
00000000
00000001
00000100
00000010
00000010
00001000
,
00000100
00010000
00001000
00010000
,
00010000
00001000
00000100
00001000
,
01000000
00010000
00100000
00010000
,
00100000
00000000
00010000
00000000
01000000
01000000
01000000
00000000
,
10000000
01000000
00010000
00010000
,
00100000
00010000
00001000
00010000
,
01000000
00001000
00010000
00001000
,
00010000
00000000
00000100
00000000
00001000
00001000
00001000
00000000
,
00001000
00000000
00000100
00000000
,
00000001
00000100
00000010
00001000
00000100
00000010
00000100
00000000
,
00001000
00000001
00000010
00000100
,
00001000
00000000
00000001
00000000
00000100
00001000
00010000
00000000
,
01000000
10000000
10000000
00100000
,
00010000
00000000
00100000
00000000
10000000
01000000
00010000
00000000
,
00001000
00010000
00001000
00010000
00000000
00001000
00000100
00000000
,
00000001
00000100
00000001
00000100
00000000
00000010
00001000
00000000
,
00000100
00010000
00010000
00001000
00000000
00010000
01000000
00000000
,
01000000
00000000
01000000
00000000
00010000
00000000
00010000
00000000
00001000
00010000
00001000
00000000
00001000
00010000
00001000
00000000
,
00010000
00001000
00001000
00000100
,
00000001
00000000
00000001
00000000
00001000
00000100
00001000
00000100
,
00001000
00000001
00001000
00000000
00000100
00000000
00001000
00000000
,
00010000
00000000
01000000
00000000
10000000
01000000
10000000
01000000
,
10000000
00010000
01000000
00000000
00100000
00000000
00100000
00000000
,
01000000
00000000
00010000
00000000
00010000
00001000
00010000
00001000
,
00010000
00001000
00010000
00000000
00010000
00000000
00001000
00000000
,
00000100
00000000
00000001
00000000
00000010
00000001
00000010
00000001
,
00000010
00000100
00001000
00000000
00001000
00000000
00000010
00000000
,
00010000
00000000
00001000
00000000
00100000
00010000
00100000
00010000
,
00100000
00010000
10000000
00000000
10000000
00000000
00010000
00000000
,
01000000
00000000
00010000
00000000
01000000
00100000
01000000
00100000
,
01000000
00010000
10000000
00000000
10000000
00000000
01000000
00000000
,
01000000
10000000
00100000
00000000
,
00010000
00000000
00001000
00000000
00000010
00000001
00000001
00000000
,
00001000
00000000
00000100
00000000
00001000
00000010
00000100
00000001
,
00000100
00000010
00000000
00001000
00000100
00000000
00010000
00001000
,
00000000
00100000
00010000
00000000
10000000
00100000
10000000
00010000
,
00010000
01000000
00000000
00010000
10000000
00000000
10000000
00010000
,
00000000
00010000
01000000
00000000
00001000
00100000
00001000
00010000
,
00010000
00000100
00001000
00000001
00000100
00000010
00000010
00000100
,
00000001
00001000
00001000
00000010
00001000
00000100
00001000
00000000
,
00001001
00000010
00010000
00001000
,
00010000
00000000
00001000
00000000
00100000
00001000
00101000
00000000
;
