#TITLE:Sold It For a Song;
#ARTIST:ZONK;
#BANNER:Sold It For a Song.png;
#BACKGROUND:Sold It For a Song-bg.png;
#CDTITLE:./CDTITLES/Song Pack 15.png;
#MUSIC:Sold It For a Song.ogg;
#SAMPLESTART:38.762;
#SAMPLELENGTH:15;
#DISPLAYBPM:130;
#BPMS:0=130.005;

//---------------dance-single - ----------------
#NOTES:
     dance-single:
     :
     Beginner:
     1:
     :
0000
0000
0000
0000
,
0000
0000
0000
0000
,
0000
0000
0000
0000
,
0000
0000
0000
0000
,
0000
0000
0000
0000
,
0100
0000
0000
0000
,
1000
0000
0000
0000
,
0010
0000
0000
0000
,
0001
0000
0000
0000
,
0010
0000
0000
0000
,
1000
0000
0000
0000
,
0100
0000
0000
0000
,
0001
0000
0000
0000
,
1000
1000
0000
0000
,
0001
0001
0000
0000
,
1000
1000
0000
0000
,
0001
0001
0000
0000
,
0100
0100
0000
0000
,
0010
0010
0000
0000
,
2000
0000
3000
0000
,
0002
0000
0003
0000
,
0010
0000
0000
0000
,
0100
0000
0000
0000
,
1000
0000
1000
0000
,
2000
0000
3000
0000
,
0010
0000
0000
0000
,
0100
0000
0000
0000
,
0001
0000
0001
0000
,
0002
0000
0003
0000
,
1000
0000
1000
0000
,
0001
0000
0001
0000
,
1000
0000
0000
0000
,
0001
0000
0000
0000
,
1000
0000
0000
0000
,
0001
0000
0000
0000
,
0100
0000
0000
0000
,
0010
0000
0000
0000
,
0100
0000
0000
0000
,
0010
0000
0000
0000
,
1000
0000
0000
0000
,
0001
0000
0000
0000
,
0010
0000
0010
0000
,
0010
0000
0000
0000
,
0100
0000
0100
0000
,
0100
0000
0000
0000
,
0010
0010
0010
0000
,
0000
0000
0000
0000
,
0100
0100
0100
0000
,
0000
0000
0000
1001
;

//---------------dance-single - ----------------
#NOTES:
     dance-single:
     :
     Easy:
     3:
     :
0000
0000
0000
0000
,
0000
0000
0000
0000
,
0000
0000
0000
0000
,
0000
0000
0000
0000
,
0000
0000
0000
0000
,
0010
0000
0010
0000
,
0001
0000
0001
0000
,
0010
0000
0010
0000
,
1000
0000
1000
0000
,
0100
0000
0100
0000
,
0001
0000
0001
0000
,
0100
0000
0100
0000
,
1000
0000
1000
0000
,
0001
0001
0100
0000
,
1000
1000
0100
0000
,
0001
0001
0010
0000
,
1000
1000
0010
0000
,
0001
0001
0100
0000
,
1000
1000
0100
0000
,
0020
0000
0030
0000
,
0200
0000
0300
0000
,
0010
1000
0100
0000
,
0010
0001
0100
0000
,
0001
0001
0001
0000
,
2000
0000
3000
0000
,
1001
0000
0000
0000
,
1001
0000
0000
0000
,
1000
1000
1000
0000
,
0002
0000
0003
0000
,
0010
1000
0010
0000
,
0100
0001
0100
0000
,
0010
0010
0010
0000
,
0100
0100
0100
0000
,
0001
0100
1000
0100
,
1000
0100
0001
0100
,
0001
0000
0001
0000
,
1000
0000
1000
0000
,
0010
0000
0010
0000
,
0100
0000
0100
0000
,
0010
0000
0010
0000
,
0100
0000
0100
0000
,
0001
0000
1000
0000
,
0002
0000
0003
0000
,
1000
0000
0001
0000
,
2000
0000
3000
0000
,
0010
1000
0020
0100
,
0000
0100
0000
0130
,
0100
0001
0200
0010
,
0000
0010
0300
0110
;

//---------------dance-single - ----------------
#NOTES:
     dance-single:
     :
     Medium:
     5:
     :
0000
0000
0000
0000
,
0000
0000
0000
0000
,
0000
0000
0000
0000
,
0000
0000
0000
0000
,
0000
0000
0000
0000
,
1000
0000
0001
0100
0001
0000
1000
0100
,
0000
0020
0000
0030
,
0001
0000
0100
0010
2000
0000
3000
0000
,
0200
2300
3002
0023
,
0130
1000
0100
0010
0001
0010
0100
1000
,
0020
0000
0000
0030
,
1000
0000
0001
1000
0001
0000
0010
0001
,
0200
0000
0000
0300
,
2002
0000
0000
0000
3003
0000
1000
0002
,
0000
0000
0000
0200
0000
0000
0000
0000
0303
0000
0000
0000
1001
0000
0000
0000
,
1000
0100
0001
0000
0001
0100
1000
0000
,
0001
0100
1000
0000
1000
0100
0001
0000
,
2200
0000
0000
3300
,
0202
0000
0000
0303
,
0001
0000
0010
0100
0010
0000
0001
2000
,
0000
3002
0000
0203
0000
0000
0300
0000
,
2002
0000
0000
0000
3003
1000
0001
1000
,
0001
0000
0000
0010
0001
0010
0001
1000
,
0100
0000
1000
0001
1000
0000
0001
2000
,
0000
3002
0000
2003
0000
0000
3000
0000
,
0120
0000
0000
0000
0000
0000
0130
0000
0000
0000
0001
0000
0000
1000
0000
0000
,
2002
0000
0000
3003
,
0000
0000
1000
0001
0000
1000
0100
0010
,
0001
0010
0001
0010
0002
0000
0003
0000
,
2001
0000
0000
0000
0000
0000
3001
0000
0000
0000
0010
0000
0000
0100
0000
0000
,
1000
0000
0000
0100
1000
0100
0010
0001
,
0010
0000
0100
1000
0100
0000
1000
0002
,
0000
2003
0000
3002
0000
0000
0003
0000
,
0010
0100
0010
0001
,
0100
0010
0100
0001
,
1000
0100
0010
0100
,
1000
0010
0100
0010
,
1000
0100
0001
0010
,
1000
0100
0001
0010
,
0001
0100
1000
0010
,
0001
0100
1000
0010
,
1000
1100
0001
0101
,
1000
1100
0001
0101
,
1000
0000
0001
0000
1000
0001
1000
0000
,
0001
0000
1000
0000
0001
1000
0001
0000
,
2000
0000
3002
0000
2003
0100
3100
1000
,
0002
0000
2003
0000
3002
0100
0103
0001
,
2000
0000
3002
0000
2003
0010
3010
1000
,
0002
0000
2003
0000
3002
1003
1001
0000
;

//---------------dance-single - ----------------
#NOTES:
     dance-single:
     :
     Hard:
     7:
     :
0000
0000
0000
0000
,
0000
0000
0000
0000
,
0000
0000
0000
0000
,
0000
0000
0000
0000
,
0000
0000
0000
0000
,
0010
1000
0100
1000
0001
0010
0001
0100
,
0010
1000
0100
0010
0001
1000
0100
0000
,
1001
0000
0010
0010
0200
0000
0300
0000
,
1001
0000
1001
0000
1001
0000
0010
0001
,
0100
0001
1000
0010
0100
0010
1000
0100
,
0010
0001
0100
0001
0010
0100
1000
0000
,
0100
1000
0100
1000
0001
0100
0010
1000
,
0002
1000
1000
1003
,
0220
0000
0000
0000
0330
0000
1000
0001
,
1000
0100
1000
0010
0100
0001
0010
0001
,
0100
0100
0001
0001
1000
1000
0010
0010
,
1000
1000
0001
0001
0010
0010
0100
0100
,
0220
0000
0000
0330
,
2002
0000
0000
3003
,
0010
0000
0100
0100
0100
0000
0010
0002
,
0000
2003
0000
3002
0000
0100
0103
0000
,
2002
0000
0000
0000
3003
0001
0010
0100
,
1000
0000
0000
0001
0010
0001
1000
0100
,
0020
0000
0001
0001
0001
0000
1000
1000
,
0000
0001
0000
1000
0030
0001
0100
0000
,
1001
0000
0000
0000
0000
0000
0100
0000
0000
0000
1000
0000
0000
0001
0000
0000
,
1001
0000
0100
0000
0100
0000
0100
0010
,
0001
1000
0001
0000
1000
0001
1000
0000
,
0010
0001
0010
0001
0020
0000
0030
0000
,
1000
0000
0010
0000
0001
0000
0100
0000
0000
0000
0001
0000
0000
1000
0000
0000
,
0100
0000
0000
0100
1000
0001
0100
0001
,
0020
0000
0001
0001
0001
0000
1000
1000
,
0000
0001
0000
1000
0030
0001
1000
0001
,
1000
0100
1000
0100
1000
0100
1000
0100
,
0010
0001
0010
0001
0010
0001
0010
0100
,
2000
3002
2003
3002
,
0013
0100
0010
0100
1000
0001
0100
0000
,
0010
1000
0010
1000
0010
1000
0010
1000
,
0001
0100
0001
0100
0001
0100
0001
0100
,
0020
0230
0320
0230
,
0301
1000
0001
1000
0010
0100
0001
0000
,
1100
0101
1100
0101
,
1000
0001
1000
0002
0000
0000
0103
0000
,
0001
1000
0001
2000
0000
0000
3100
0000
,
0011
1010
0011
1010
,
0010
1000
0100
0001
0100
1000
0010
0001
,
0010
1000
0100
0001
0100
1000
0010
0001
,
0010
1000
0100
0001
0100
1000
0010
0001
,
0010
1000
0100
0001
0100
1000
1001
0000
;

//---------------dance-double - ----------------
#NOTES:
     dance-double:
     :
     Beginner:
     1:
     :
00000000
00000000
00000000
00000000
,
00000000
00000000
00000000
00000000
,
00000000
00000000
00000000
00000000
,
00000000
00000000
00000000
00000000
,
00000000
00000000
00000000
00000000
,
01000000
00000000
00000000
00000000
,
10000000
00000000
00000000
00000000
,
00100000
00000000
00000000
00000000
,
00010000
00000000
00000000
00000000
,
00001000
00000000
00000000
00000000
,
00000010
00000000
00000000
00000000
,
00000001
00000000
00000000
00000000
,
00000100
00000000
00000000
00000000
,
00001000
00001000
00000000
00000000
,
00010000
00010000
00000000
00000000
,
00001000
00001000
00000000
00000000
,
00010000
00010000
00000000
00000000
,
00002000
00000000
00003000
00000000
,
00020000
00000000
00030000
00000000
,
02000000
00000000
03000000
00000000
,
20000000
00000000
30000000
00000000
,
01000000
00000000
00000000
00000000
,
00100000
00000000
00000000
00000000
,
10000000
00000000
10000000
00000000
,
20000000
00000000
30000000
00000000
,
01000000
00000000
00000000
00000000
,
00100000
00000000
00000000
00000000
,
00010000
00000000
00010000
00000000
,
00020000
00000000
00030000
00000000
,
01000000
00000000
01000000
00000000
,
00100000
00000000
00100000
00000000
,
01000000
00000000
00000000
00000000
,
00001000
00000000
00000000
00000000
,
00010000
00000000
00000000
00000000
,
00000100
00000000
00000000
00000000
,
00001000
00000000
00000000
00000000
,
00000001
00000000
00000000
00000000
,
00000010
00000000
00000000
00000000
,
00000100
00000000
00000000
00000000
,
00010000
00000000
00000000
00000000
,
00001000
00000000
00000000
00000000
,
00100000
00000000
00100000
00000000
,
00100000
00000000
00000000
00000000
,
01000000
00000000
01000000
00000000
,
01000000
00000000
00000000
00000000
,
10000000
10000000
10000000
00000000
,
00000000
00000000
00000000
00000000
,
00010000
00010000
00010000
00000000
,
00000000
00000000
00000000
10010000
;

//---------------dance-double - ----------------
#NOTES:
     dance-double:
     :
     Easy:
     3:
     :
00000000
00000000
00000000
00000000
,
00000000
00000000
00000000
00000000
,
00000000
00000000
00000000
00000000
,
00000000
00000000
00000000
00000000
,
00000000
00000000
00000000
00000000
,
01000000
00000000
01000000
00000000
,
00001000
00000000
00001000
00000000
,
00010000
00000000
00010000
00000000
,
00000100
00000000
00000100
00000000
,
00001000
00000000
00001000
00000000
,
00000001
00000000
00000001
00000000
,
00000100
00000000
00000100
00000000
,
00001000
00000000
00001000
00000000
,
00010000
01000000
10000000
00000000
,
10000000
01000000
00010000
00000000
,
00001000
00000100
00000001
00000000
,
00000001
00000100
00001000
00000000
,
00010000
00100000
10000000
00000000
,
10000000
01000000
00010000
00000000
,
00002000
00000000
00003000
00000000
,
00020000
00000000
00030000
00000000
,
00200000
00000000
01300000
00000000
,
00020000
00000000
10030000
00000000
,
10000000
01000000
00010000
00000000
,
00002000
00000000
00013000
00000000
,
00011000
00000000
00000000
00000000
,
00011000
00000000
00000000
00000000
,
00001000
00000100
00000001
00000000
,
00000020
00000000
00000130
00000000
,
00001000
00000001
00001000
00000000
,
00000001
00001000
00000001
00000000
,
00001000
00000001
00000010
00001000
,
00010000
00100000
10000000
00010000
,
10000000
00000000
10000000
00000000
,
00010000
00000000
00010000
00000000
,
01000000
00000000
01000000
00000000
,
00100000
00000000
00100000
00000000
,
10000000
00000000
01000000
00000000
,
00010000
00000000
00001000
00000000
,
00000010
00000000
00000001
00000000
,
00000100
00000000
00001000
00000000
,
00010000
00000000
00100000
00000000
,
20000000
00000000
30000000
00000000
,
00010000
00000000
00100000
00000000
,
02000000
00000000
03000000
00000000
,
00100000
00001000
00020000
00001000
,
00000000
00001000
00000000
00031000
,
00010000
00000010
00002000
00000001
,
00000000
00000001
00003000
00001001
;

//---------------dance-double - ----------------
#NOTES:
     dance-double:
     :
     Medium:
     5:
     :
00000000
00000000
00000000
00000000
,
00000000
00000000
00000000
00000000
,
00000000
00000000
00000000
00000000
,
00000000
00000000
00000000
00000000
,
00000000
00000000
00000000
00000000
,
00000001
00000000
00001000
00000100
00000010
00000000
00000001
00000100
,
00000000
00000020
00000000
00000030
,
00010000
00000000
00001000
00001000
00020000
00000000
00031000
00000000
,
00000200
00000302
00002003
00003200
,
00001300
00000001
00001000
00000000
00000001
00001000
00000001
00000000
,
00002002
00000000
00000000
00003003
,
00000100
00000000
00010000
00010000
00001000
00000000
00100000
00010000
,
02000000
00000000
00000000
03000000
,
00200000
00000000
00000000
00000000
00300000
00000000
10000000
02000000
,
00000000
00000000
00000000
00020000
00000000
00000000
00000000
00000000
03030000
00000000
00000000
00000000
00011000
00000000
00000000
00000000
,
00010000
00001000
00000100
00000000
00001000
00010000
01000000
00000000
,
00010000
00000000
00001000
00000000
00000100
00000001
00001000
00000000
,
00002200
00000000
00000000
00003300
,
00000202
00000000
00000000
00000303
,
00000001
00000000
00000010
00000100
00001000
00000000
00000010
00020000
,
00000000
00032000
00000000
00023000
00000000
00000000
00030000
00000000
,
00022000
00000000
00000000
00000000
00033000
00010000
01000000
10000000
,
00010000
00000000
00000000
00100000
00010000
00100000
00001000
00010000
,
00001000
00000000
00010000
00000010
00010000
00000000
00000010
00001000
,
00000000
00000001
00000000
00002002
00000000
00000000
00000000
00003003
,
00000200
00000000
00000000
00000000
00000000
00000000
00000301
00000000
00000000
00000000
00001000
00000000
00000000
00000001
00000000
00000000
,
00002002
00000000
00000000
00003003
,
00000000
00000000
00000001
00001000
00000000
00000100
00010000
00001000
,
00010000
00010000
00001000
00001000
00020000
00000000
00030000
00000000
,
00021000
00000000
00000000
00000000
00000000
00000000
01030000
00000000
00000000
00000000
10000000
00000000
00000000
00010000
00000000
00000000
,
10010000
00000000
00000000
01000000
10000000
01000000
00100000
00001000
,
00100000
00000000
00001000
00010000
00001000
00000000
00000100
00000001
,
00000000
00001000
00000000
00002002
00000000
00000000
00003003
00000000
,
00000010
00000000
00000001
00000000
00000100
00001000
00000100
00000000
,
00001000
00000000
00010000
00000000
01000000
10000000
01000000
00000000
,
10000000
00000000
00100000
00000000
00010000
00100000
00010000
00000000
,
00001000
00000000
00000010
00000000
00000001
00000010
00000001
00000000
,
00000010
00000000
00001000
00000000
00010000
00001000
00010000
00000000
,
00100000
00000000
10000000
00000000
01000000
10000000
01000000
00000000
,
00010000
00000000
00001000
00000000
00010000
00001000
00010000
00000000
,
00001000
00000000
00000100
00000000
00000001
00000020
00000031
00000000
,
00000010
00000100
00001000
00000000
00000010
00000100
00000001
00000000
,
00000100
00001000
00010000
00000000
00001000
00010000
01000000
00000000
,
10000000
00100000
01000000
00000000
00010000
00100000
01000000
00000000
,
00100000
00001000
00010000
00000000
00001000
00010000
00000010
00000000
,
00001000
00001000
00000001
00000000
00000001
00000001
00000100
00000000
,
00000100
00000100
00000010
00000000
00000010
00000010
00010000
00000000
,
00010000
00010000
00000100
00000000
00000100
00000100
00001000
00000000
,
00001000
00001000
00000001
00000001
00001000
00000001
00001001
00000000
;

//---------------dance-double - ----------------
#NOTES:
     dance-double:
     :
     Hard:
     8:
     :
00000000
00000000
00000000
00000000
,
00000000
00000000
00000000
00000000
,
00000000
00000000
00000000
00000000
,
00000000
00000000
00000000
00000000
,
00000000
00000000
00000000
00000000
,
00010000
00100000
01000000
10000000
01000000
00100000
00001000
00010000
,
00000100
00000010
00000001
00001000
00000100
00000010
00000001
00000000
,
00001100
00000000
00000101
00000000
00000100
00001000
00020000
00000000
,
00001000
00001000
00031000
00011000
,
00010000
01000000
10000000
00100000
00010000
00001000
00010000
01000000
,
20000000
00000000
00000000
30000000
,
00100000
00010000
00001000
00000010
00001000
00010000
00001000
00000100
,
00000002
00000000
00000000
00000003
,
00002002
00000000
00000000
00000000
00003003
00000000
00000001
00000100
,
00001000
00010000
01000000
10000000
01000000
00010000
00001000
00000100
,
00000001
00000001
00000100
00000100
00001000
00001000
00010000
00010000
,
01000000
01000000
10000000
10000000
01000000
01000000
00010000
00010000
,
00001000
00000000
00000000
00000010
00000000
00000000
00000001
00000000
00000000
00000000
00000200
00000000
00000000
00000000
00000000
00000000
,
00000000
00000000
00000000
00000300
00000001
00000100
00000001
00000010
,
00001000
00000000
00010000
01000000
10000000
00000000
00100000
00020000
,
00000000
00032000
00000000
00003020
00000000
00000001
00000031
00000000
,
00000010
00000001
00000100
00001000
00000100
00000001
00000010
00001000
,
00010000
00100000
10000000
01000000
00010000
01000000
10000000
00100000
,
01000000
00001000
00010000
00100000
01000000
00010000
10000000
01000000
,
00100000
00001000
00000010
00000001
00000010
00000100
00001000
00000000
,
00000001
00000100
00010000
00000100
00000010
00001000
00000100
00010000
,
00001000
01000000
00010000
00100000
01000000
10000000
00100000
00001000
,
00000010
00001000
00000100
00000010
00000001
00001000
00000100
00001000
,
00000010
00000100
00000001
00001000
00000100
00010000
00001000
00000000
,
00100000
01000000
00001000
00010000
01000000
10000000
00100000
00010000
,
00100000
01000000
00001000
00010000
00000010
00010000
00100000
01000000
,
00001000
00010000
00001000
00000010
00000001
00000100
00000010
00001000
,
00000100
00000010
00000001
00001000
00000010
00000100
00000001
00000000
,
00000020
00000032
00002003
00003200
,
00000302
00002003
00003002
00000203
,
00020300
00032000
02003000
03020000
,
02030000
23000000
30020000
20030000
,
32000000
03200000
20300000
30020000
,
00230000
00302000
00003020
00000032
,
00002003
00003200
00020300
02030000
,
23000000
30020000
10030000
10010000
,
00100000
10000000
00010000
00100000
01000000
10000000
10010000
00000000
,
10000000
01000000
00010000
00001000
00000010
00000100
00000110
00000000
,
00000010
00000001
00001000
00000010
00010000
00001000
00011000
00000000
,
00010000
00000100
00000010
00001000
00000010
00000001
00001001
00000000
,
00000001
00000010
00000001
00000010
00000100
00010000
00000100
00010000
,
00001000
00100000
00001000
00100000
00010000
01000000
00010000
01000000
,
00001000
00000100
00001000
00000100
00000010
00010000
00000010
00010000
,
00001000
00000100
00001000
00000100
00000001
00001000
00001001
00000000
;
