#TITLE:So Many Times;
#ARTIST:Gadjo;
#BANNER:So Many Times.png;
#BACKGROUND:So Many Times-bg.png;
#CDTITLE:./CDTITLES/DANCE DANCE REVOLUTION ULTRAMIX 3.png;
#MUSIC:So Many Times.ogg;
#SAMPLESTART:64.17;
#SAMPLELENGTH:15;
#BPMS:0=125;
#BGCHANGES:4=So Many Times.avi=1=1=0=0=StretchNoLoop==CrossFade==,200.75=so many times-bg.png=1=0=0=1=====;

//---------------dance-single - ----------------
#NOTES:
     dance-single:
     :
     Beginner:
     1:
     :
0000
0000
0000
0000
,
0000
0000
0000
0000
,
0000
0000
0000
0000
,
0000
0000
0000
0000
,
0000
0000
0000
0000
,
0000
0000
1000
0000
,
1001
0000
0000
0000
,
0000
0000
0000
0000
,
1001
0000
0000
0000
,
0000
0000
0000
0000
,
1000
1000
0000
0000
,
1000
0000
0000
0000
,
0001
0001
0000
0000
,
0001
0000
0000
0000
,
0100
0100
0000
0000
,
0100
0000
0000
0000
,
1000
1000
0000
0000
,
1000
0000
0000
0000
,
1000
0000
1000
0000
,
1000
0000
0000
0000
,
0001
0000
0001
0000
,
0001
0000
0000
0000
,
0110
0000
0000
0000
,
0000
0000
0000
0000
,
0110
0000
0000
0000
,
0000
0000
0000
0000
,
1000
1000
0000
0000
,
0001
0001
0000
0000
,
0010
0010
0000
0000
,
0100
0100
0000
0000
,
1000
0000
1000
0000
,
0001
0000
0001
0000
,
2002
0000
0000
3003
,
0000
0000
0000
0000
,
1000
0000
1000
0000
,
0010
0000
1000
0000
,
0001
0000
0001
0000
,
0010
0000
0001
0000
,
0100
0100
0000
0000
,
0100
0100
0000
0000
,
0010
0010
0000
0000
,
0010
0010
0000
0000
,
1001
0000
0000
0000
,
0000
0000
0000
0000
,
0110
0000
0000
0000
,
0000
0000
0000
0000
,
1000
1000
1000
0000
,
1000
1000
1000
0000
,
0001
0001
0001
0000
,
0010
0010
0010
0000
,
1001
0000
0000
0000
;

//---------------dance-single - ----------------
#NOTES:
     dance-single:
     :
     Easy:
     3:
     :
0000
0000
0000
0000
,
0000
0000
0000
0000
,
0000
0000
0000
0000
,
0000
0000
0000
0000
,
0000
0000
0000
0000
,
0000
0000
1000
1000
,
0020
0000
0000
0030
,
0000
0000
0100
0100
,
0200
0000
0000
0300
,
0000
0000
0000
0000
,
0001
0000
1000
0000
,
0020
0000
0000
0030
,
0010
0000
1000
0000
,
0002
0000
0000
0003
,
0001
0000
1000
0000
,
0020
0000
0000
0030
,
1000
0000
0010
0000
,
0200
0000
0000
0300
,
0001
0001
1000
0000
,
0001
0001
1000
0000
,
0010
0010
1000
0000
,
0010
0000
1000
0000
,
0002
0000
0000
0003
,
2000
0000
0000
3000
,
0002
0000
0000
0003
,
0100
0100
0000
0010
,
0100
0100
0000
0010
,
1000
0001
0000
1000
,
1000
0001
0000
1000
,
0010
1000
0000
0001
,
1000
1000
1000
0001
,
1000
1000
1000
0010
,
1000
0020
0000
0030
,
1000
0001
1000
0001
,
1001
0000
0000
0000
,
1000
0001
0100
0010
,
0110
0000
0000
0000
,
0001
1000
0001
1000
,
0000
0000
0000
0000
,
1000
0010
1000
0020
,
0000
0000
0000
0030
,
1000
0100
0010
0001
,
0000
0001
1000
0001
,
0000
0001
0100
0001
,
0000
1000
0010
1000
,
0000
0100
0010
0100
,
2000
3000
0002
0003
,
0000
1000
0001
0100
,
0002
0003
2000
3000
,
0010
0010
1000
0010
,
0110
0000
0000
0000
;

//---------------dance-single - ----------------
#NOTES:
     dance-single:
     :
     Medium:
     5:
     :
0000
0000
0000
0000
,
0000
0000
0000
0000
,
0000
0000
0000
0000
,
0000
0000
0000
0000
,
0000
0000
0000
0000
,
0000
0000
0000
0000
0000
0000
0000
0000
0000
0000
0000
0000
0000
0000
0000
0000
0000
0000
0000
0000
0000
0000
0000
0000
0000
0000
0000
0000
0000
0000
0000
0000
0000
0000
0000
0000
0000
0000
0000
0000
0000
0000
0000
0000
0000
0000
0000
0000
1000
0000
0000
0000
0000
0000
0000
0000
0000
0000
0000
0000
0000
0000
0000
1000
0000
0000
0000
0000
0000
0000
0000
0000
0000
0000
0000
0000
0000
0000
0000
0000
1000
0000
0000
0000
0000
0000
0000
0000
0000
0000
0000
0000
0000
0000
0000
0000
,
0001
1000
0010
1000
,
0100
0000
0000
0000
0000
0000
0000
0000
0000
0000
0000
0000
0000
0000
0000
0000
0000
0000
0000
0000
0000
0000
0000
0000
1000
0000
0000
0000
0000
0000
0000
0000
0000
0000
0000
0000
0000
0000
0000
0000
0000
0000
0000
0000
0000
0000
0000
0000
0001
0000
0000
0000
0000
0000
0000
0000
0000
0000
0000
0000
0000
0000
0000
0001
0000
0000
0000
0000
0000
0000
0000
0000
0000
0000
0000
0000
0000
0000
0000
0000
0001
0000
0000
0000
0000
0000
0000
0000
0000
0000
0000
0000
0000
0000
0000
0000
,
1000
0000
1000
0000
0001
0000
1000
0010
,
0000
0010
0000
0000
0010
0000
0000
0000
0000
0000
0000
0000
0000
0000
0000
0000
,
0100
0000
0000
0220
0000
0000
0000
0000
0000
0000
0000
0000
0330
0000
0000
0000
,
0010
0000
0000
2020
0000
0000
0000
0000
0000
0000
0000
0000
3030
0000
0000
0000
,
1000
0000
0000
2002
0000
0000
0000
0000
0000
0000
0000
0000
3003
0000
0000
0000
,
0001
0000
0000
0202
0000
0000
0000
0000
0300
0000
0000
0000
1003
0000
0000
0000
,
1000
0001
0100
0000
0001
0000
1000
0000
,
0010
0000
0000
0220
0000
0000
0000
0000
0000
0000
0000
0000
0330
0000
0000
0000
,
0001
0100
0001
1000
,
2002
0000
0000
3003
,
0001
0000
0001
0000
1000
0010
0100
0000
,
0001
0000
0001
0000
0001
0010
0100
0010
,
0001
0000
0100
0000
0010
1000
0100
1000
,
0001
0000
0000
2000
0000
0000
0000
0000
0000
0000
0000
0000
3000
0000
0000
0000
,
1000
0000
0000
0200
0000
0000
0000
0000
0300
0000
0000
0000
0000
0000
0000
0000
,
0001
0000
0000
0200
0000
0000
0000
0000
0300
0000
0000
0000
0000
0000
0000
0000
,
1000
0000
0000
0002
0000
0000
0000
0000
0000
0000
0000
0000
0000
0000
0000
0000
,
0003
0000
1000
0100
1000
0100
1000
0000
,
1000
0000
0000
0001
0000
0000
0000
0000
1000
0000
0010
0000
0100
0000
0000
0000
,
0001
0000
0000
1000
0000
0000
0000
0000
0010
0000
1000
0000
0100
0000
0000
0000
,
1000
0000
0001
0000
1000
0001
0200
0000
,
0000
0000
0301
0000
1000
0001
1000
0000
,
0001
0000
0000
1000
0000
0000
0000
0000
0010
0000
0000
0000
0010
0000
0000
0000
,
0010
0000
0010
0000
0010
0100
0010
0000
,
1000
0000
0000
0100
0000
0000
0000
0000
0000
0000
0000
0000
0000
0000
0000
0000
,
1000
0001
1000
0001
1000
0001
1001
0000
,
0100
0001
0010
0000
0001
0010
1000
0000
,
0010
0001
0100
0000
0001
0000
0001
0000
,
2000
3001
0002
1003
,
2000
0000
3001
0000
1000
0010
1000
0000
,
0200
0010
0000
0310
,
1000
0001
1000
0000
0010
0100
0001
0000
,
0200
0000
0010
0310
,
0001
0100
0000
0100
0001
0000
1001
0000
,
0001
1000
0001
0000
1000
0000
0100
0000
,
0001
0000
0100
0000
1000
0001
0010
0000
,
0001
0000
1000
0000
0100
1000
0010
0000
,
0200
0000
0301
1000
,
0200
0000
0000
0300
,
1000
0001
1000
1000
,
0200
0000
0000
0300
,
1000
0010
0100
0000
,
0001
0000
0000
1000
0000
0000
0000
0000
0000
0000
0000
0000
0000
0000
0000
0000
;

//---------------dance-single - ----------------
#NOTES:
     dance-single:
     :
     Hard:
     7:
     :
0000
0000
0000
0000
,
0000
0000
0000
0000
,
0000
0000
0000
0000
,
0000
0000
0000
0000
,
0000
0000
0000
0000
,
0000
0000
0000
0000
0000
0000
0000
0000
0000
0000
0000
0000
0000
0000
0000
0000
0000
0000
0000
0000
0000
0000
0000
0000
0000
0000
0000
0000
0000
0000
0000
0000
0000
0000
0000
0000
0000
0000
0000
0000
0000
0000
0000
0000
0000
0000
0000
0000
0000
0000
0000
0000
0000
0000
0000
0000
0000
0000
0000
0000
0000
0000
0000
0000
0000
0000
0000
0000
0000
0000
0000
0000
0000
0000
0000
0000
0000
0000
0000
0000
0000
0000
0000
0000
0000
0000
0000
0000
0000
0000
0000
0000
0000
0000
0000
0000
1000
0000
0000
0000
0000
0000
0000
0000
0000
0000
0000
0000
0000
0000
0000
0000
0000
0000
0000
0000
0000
0000
0000
0000
0000
0000
0000
0000
0000
0000
0001
0000
0000
0000
0000
0000
0000
0000
0000
0000
0000
0000
0000
0000
0000
0000
0000
0000
0000
0000
0000
0000
0000
0000
0000
0000
0000
0000
0000
0000
0000
0000
0000
0000
0010
0000
0000
0000
0000
0000
0000
0000
0000
0000
0000
0000
0000
0000
0000
0000
0000
0000
0000
0000
0000
0000
0000
0000
0000
0000
0000
0000
0000
0000
0000
0000
,
0100
0000
0010
0001
0100
0000
0010
0001
,
0100
0000
0000
0000
0000
0000
0000
0000
0000
0000
0000
0000
0000
0000
0000
0000
0000
0000
0000
0000
0000
0000
0000
0000
0000
0000
0000
0000
0000
0000
0000
0000
0000
0000
0000
0000
0000
0000
0000
0000
0000
0000
0000
0000
0000
0000
0000
0000
0110
0000
0000
0000
0000
0000
0000
0000
0000
0000
0000
0000
0000
0000
0000
0000
0000
0000
0000
0000
0000
0000
0000
0000
0000
0000
0000
0000
0000
0000
0000
0000
0000
0000
0000
0000
0000
0000
0000
0000
0000
0000
0000
0000
0000
0000
0000
0000
1000
0000
0000
0000
0000
0000
0000
0000
0000
0000
0000
0000
0000
0000
0000
0000
0000
0000
0000
0000
0000
0000
0000
0000
0000
0000
0000
0000
0000
0000
0001
0000
0000
0000
0000
0000
0000
0000
0000
0000
0000
0000
0000
0000
0000
0000
0000
0000
0000
0000
0000
0000
0000
0000
0000
0000
0000
0000
0000
0000
0000
0000
0000
0000
0100
0000
0000
0000
0000
0000
0000
0000
0000
0000
0000
0000
0000
0000
0000
0000
0000
0000
0000
0000
0000
0000
0000
0000
0000
0000
0000
0000
0000
0000
0000
0000
,
0010
0000
1000
0001
0100
0000
0010
1000
,
0000
0000
0000
0000
0000
0000
0000
0000
0000
0000
0000
0000
0001
0000
0000
0000
0000
0000
0000
0000
0000
0000
0000
0000
0000
0000
0000
0000
0000
0000
0000
0000
0000
0000
0000
0000
0000
0000
0000
0000
0000
0000
0000
0000
0000
0000
0000
0000
0010
0000
0000
0000
0000
0000
0000
0000
0000
0000
0000
0000
0000
0000
0000
0000
0000
0000
0000
0000
0000
0000
0000
0000
0000
0000
0000
0000
0000
0000
0000
0000
0000
0000
0000
0000
0000
0000
0000
0000
0000
0000
0000
0000
0000
0000
0000
0000
0001
0000
0000
0000
0000
0000
0000
0000
0000
0000
0000
0000
0000
0000
0000
0000
0000
0000
0000
0000
0000
0000
0000
0000
0000
0000
0000
0000
0000
0000
1000
0000
0000
0000
0000
0000
0000
0000
0000
0000
0000
0000
0000
0000
0000
0000
0000
0000
0000
0000
0000
0000
0000
0000
0000
0000
0000
0000
0000
0000
0000
0000
0000
0000
0001
0000
0000
0000
0000
0000
0000
0000
0000
0000
0000
0000
0000
0000
0000
0000
0000
0000
0000
0000
0000
0000
0000
0000
0000
0000
0000
0000
0000
0000
0000
0000
,
0100
0000
0000
0101
0000
0000
0000
0000
0010
0000
0000
0100
0000
0000
1000
0000
,
0010
0000
0000
1010
0000
0000
0000
0000
1000
0000
0000
0001
0000
0100
0000
0000
,
0010
0000
0000
0110
0000
0000
0000
0000
1000
0000
0000
0001
0000
0000
0100
0000
,
0001
0000
0000
1001
0000
0000
0000
0000
0010
0000
0000
0100
0000
0000
1000
0000
,
0001
0010
0100
0000
0110
0000
1100
0000
,
1000
0000
0000
1001
0000
0000
0000
0000
0100
0000
0000
0001
0000
0000
1000
0000
,
0002
0203
0302
1003
,
0001
0000
1000
0000
0000
0000
0010
0000
0000
1000
0000
0000
0100
0000
0010
0000
,
0001
0000
0000
0100
0001
0000
0100
0000
0010
0000
1000
0000
0001
0000
0100
0000
,
0001
0000
0000
1000
0001
0000
0000
1000
0001
0000
0010
0000
1000
0000
0010
0000
,
0001
0000
0000
0100
0010
0000
0000
0000
1000
0001
0000
0100
0000
0000
0001
0000
,
1000
0000
0000
0010
0000
0000
0101
0000
0000
0000
0000
0000
0100
0010
1000
0000
,
0001
0000
0000
0100
0000
0000
0000
0000
0001
0100
0001
0100
0001
0000
0000
0000
,
1000
0000
0000
0100
0000
0000
0000
0000
1000
0010
1000
0010
1000
0000
0100
0000
,
1000
0000
0000
0001
0000
0000
0000
0000
0100
0010
0100
0010
0100
0000
0000
0000
,
0002
0100
0000
1000
0000
0100
0103
0000
,
1010
0000
0000
0001
0000
0000
0000
0000
0001
0100
0000
0000
0010
0000
1000
0000
,
0101
0000
0000
1000
0000
0000
0001
0000
0100
0000
1000
0000
0100
0000
0000
0000
,
0101
0000
0000
1000
0000
0000
0000
0000
0001
0000
0100
0000
1000
0000
0000
0100
,
0001
0000
0000
0100
0010
0000
0000
0000
0100
0000
0001
0000
1000
0000
0000
0000
,
1100
0000
0000
0001
0000
0000
0000
0010
0001
0000
0010
0000
0200
0000
0000
0000
,
0000
0000
0000
0000
1300
0000
0000
0100
1000
0000
0100
0000
1000
0000
0000
0000
,
0001
0000
0000
0100
0000
0000
0000
0000
0000
0000
0000
0000
0000
0000
0000
0000
,
1000
0001
1000
0000
0001
0000
1000
0000
0001
0000
1000
0000
0001
0010
0100
0000
,
1000
0001
0010
0001
0100
0010
1000
0100
,
0010
0001
0100
1000
0100
0001
0010
0100
,
1000
0001
0100
0000
0001
0000
0100
0000
0001
0000
0100
0000
0010
0000
1000
0000
,
0100
0010
0100
0000
0010
0000
0001
0000
1000
0000
0010
0000
1000
0000
0000
0000
,
0010
0000
1000
0100
0010
0100
1000
0000
0010
0000
1000
0000
0001
0000
0100
0000
,
0110
0000
0000
0010
1000
0001
0000
1000
,
0001
0000
0100
0000
0000
0000
0000
0010
1000
0000
0000
1000
0001
0000
0000
0000
,
1000
0001
0100
0000
0000
0000
0100
0001
1000
0000
0100
0000
1001
0000
0000
0000
,
0001
1000
0001
0100
0010
1000
0100
0010
,
0001
0000
0000
1000
0100
0000
0000
0010
0001
0000
0010
0000
0001
0000
1000
0000
,
0001
0100
0010
0100
0100
0010
1000
0100
,
0010
0000
0001
0000
2000
0000
0000
0000
3001
0000
0000
0000
1000
0000
0001
0100
,
0001
0000
1000
0000
0100
0000
0001
0000
0100
0000
1000
0100
1000
0000
0001
0000
,
0100
0010
2000
0000
0001
0000
3001
0000
,
1000
0000
0001
0000
1000
0001
1000
0000
0010
0000
1000
0000
0100
0000
0000
0000
,
1000
0001
1000
0010
1000
0010
0100
0001
,
1000
0000
0000
0101
0000
0000
0000
0000
0000
0000
0000
0000
0000
0000
0000
0000
;

//---------------dance-double - ----------------
#NOTES:
     dance-double:
     :
     Beginner:
     1:
     :
00000000
00000000
00000000
00000000
,
00000000
00000000
00000000
00000000
,
00000000
00000000
00000000
00000000
,
00000000
00000000
00000000
00000000
,
00000000
00000000
00000000
00000000
,
00000000
00000000
00001000
00000000
,
00011000
00000000
00000000
00000000
,
00000000
00000000
00000000
00000000
,
00011000
00000000
00000000
00000000
,
00000000
00000000
00000000
00000000
,
01000000
01000000
00000000
00000000
,
01000000
00000000
00000000
00000000
,
00010000
00010000
00000000
00000000
,
00010000
00000000
00000000
00000000
,
00100000
00100000
00000000
00000000
,
00100000
00000000
00000000
00000000
,
00001000
00001000
00000000
00000000
,
00001000
00000000
00000000
00000000
,
00010000
00000000
00010000
00000000
,
00010000
00000000
00000000
00000000
,
00000100
00000000
00000100
00000000
,
00000100
00000000
00000000
00000000
,
00000110
00000000
00000000
00000000
,
00000000
00000000
00000000
00000000
,
00001001
00000000
00000000
00000000
,
00000000
00000000
00000000
00000000
,
00000200
00000000
00000000
00000300
,
00000000
00000000
00000000
00000000
,
00000002
00000000
00000000
00000003
,
00000000
00000000
00000000
00000000
,
00000100
00000000
00000100
00000000
,
00000010
00000000
00000010
00000000
,
00000220
00000000
00000000
00000330
,
00000000
00000000
00000000
00000000
,
00000001
00000000
00000001
00000000
,
00000100
00000000
00000001
00000000
,
00001000
00000000
00001000
00000000
,
00000100
00000000
00001000
00000000
,
00000010
00000010
00000000
00000000
,
00010000
00010000
00000000
00000000
,
00001000
00001000
00000000
00000000
,
01000000
01000000
00000000
00000000
,
01100000
00000000
00000000
00000000
,
00000000
00000000
00000000
00000000
,
01100000
00000000
00000000
00000000
,
00000000
00000000
00000000
00000000
,
00010000
00010000
00010000
00000000
,
01000000
01000000
01000000
00000000
,
00010000
00010000
00010000
00000000
,
00100000
00100000
00100000
00000000
,
01100000
00000000
00000000
00000000
;

//---------------dance-double - ----------------
#NOTES:
     dance-double:
     :
     Easy:
     4:
     :
00000000
00000000
00000000
00000000
,
00000000
00000000
00000000
00000000
,
00000000
00000000
00000000
00000000
,
00000000
00000000
00000000
00000000
,
00000000
00000000
00000000
00000000
,
00000000
00000000
00000001
00001000
,
00000200
00000000
00000000
00000300
,
00000000
00000000
00000100
00010000
,
00002000
00000000
00000000
00003000
,
00000000
00000000
00001000
00010000
,
00000100
00010000
00001000
00100000
,
02000000
00000000
00000000
03000000
,
10000000
10000000
00010000
00010000
,
02000000
00000000
00000000
03000000
,
00100000
00000000
00100000
00000000
,
10000000
10000000
00000000
00000000
,
00010000
00000000
00010000
00000000
,
01000000
01000000
00000000
00000000
,
00001000
00000000
00001000
00000000
,
00010000
00000000
00010000
00000000
,
00000010
00000100
00000001
00000000
,
00000200
00000000
00000000
00000300
,
00000110
00000010
00000000
00000000
,
00001001
00000001
00000000
00000000
,
00002000
00000000
00000000
00003000
,
00000010
00010000
00001000
01000000
,
00100000
00100000
00000000
00100000
,
10000000
00010000
10000000
00010000
,
00100000
00100000
00000000
00100000
,
00001000
00010000
00001000
00010000
,
00000100
00000100
00000000
00000100
,
00001000
00001000
00000000
00001000
,
00000002
00000000
00000000
00000003
,
00000100
00000100
00000100
00000100
,
00000010
00010000
00001000
00010000
,
00000100
00010000
00001000
00010000
,
00002000
00000000
00000000
00003000
,
01000000
01000000
00000000
01000000
,
00010000
00010000
10000000
00000000
,
10000000
10000000
00010000
00000000
,
01000000
01000000
00001000
00000000
,
00020000
00000000
00000000
00030000
,
00000100
00000000
00000100
00000000
,
00010000
00000000
00010000
00000000
,
00001000
01000000
00100000
10000000
,
10010000
00000000
10000000
10000000
,
00010000
00000000
00010000
00000000
,
10000000
00000000
10000000
00000000
,
00010000
01000000
00010000
01000000
,
00100000
01000000
00100000
01000000
,
10010000
00000000
00000000
00000000
;

//---------------dance-double - ----------------
#NOTES:
     dance-double:
     :
     Medium:
     6:
     :
00000000
00000000
00000000
00000000
,
00000000
00000000
00000000
00000000
,
00000000
00000000
00000000
00000000
,
00000000
00000000
00000000
00000000
,
00000000
00000000
00000000
00000000
,
00000000
00000000
00000000
00000000
00000000
00000000
00000000
00000000
00000000
00000000
00000000
00000000
00000000
00000000
00000000
00000000
00000000
00000000
00000000
00000000
00000000
00000000
00000000
00000000
00000000
00000000
00000000
00000000
00000000
00000000
00000000
00000000
00000000
00000000
00000000
00000000
00000000
00000000
00000000
00000000
00000000
00000000
00000000
00000000
00000000
00000000
00000000
00000000
00000001
00000000
00000000
00000000
00000000
00000000
00000000
00000000
00000000
00000000
00000000
00000000
00000000
00000000
00000000
00000001
00000000
00000000
00000000
00000000
00000000
00000000
00000000
00000000
00000000
00000000
00000000
00000000
00000000
00000000
00000000
00000000
00000001
00000000
00000000
00000000
00000000
00000000
00000000
00000000
00000000
00000000
00000000
00000000
00000000
00000000
00000000
00000000
,
00001000
00000010
00001000
00000001
,
00000100
00000000
00000000
00000000
00000000
00000000
00000000
00000000
00000000
00000000
00000000
00000000
00000000
00000000
00000000
00000000
00000000
00000000
00000000
00000000
00000000
00000000
00000000
00000000
00000010
00000000
00000000
00000000
00000000
00000000
00000000
00000000
00000000
00000000
00000000
00000000
00000000
00000000
00000000
00000000
00000000
00000000
00000000
00000000
00000000
00000000
00000000
00000000
00010000
00000000
00000000
00000000
00000000
00000000
00000000
00000000
00000000
00000000
00000000
00000000
00000000
00000000
00000000
00010000
00000000
00000000
00000000
00000000
00000000
00000000
00000000
00000000
00000000
00000000
00000000
00000000
00000000
00000000
00000000
00000000
00010000
00000000
00000000
00000000
00000000
00000000
00000000
00000000
00000000
00000000
00000000
00000000
00000000
00000000
00000000
00000000
,
00001000
00000000
01000000
00000000
00010000
00000000
10000000
01000000
,
00000000
01000000
00000000
00000000
01000000
00000000
00000000
00000000
00000000
00000000
00000000
00000000
00000000
00000000
00000000
00000000
,
10000000
00000000
00000000
22000000
00000000
00000000
00000000
00000000
00000000
00000000
00000000
00000000
33000000
00000000
00000000
00000000
,
00100000
00000000
00000000
02200000
00000000
00000000
00000000
00000000
00000000
00000000
00000000
00000000
03300000
00000000
00000000
00000000
,
01000000
00000000
00000000
02020000
00000000
00000000
00000000
00000000
00000000
00000000
00000000
00000000
03030000
00000000
00000000
00000000
,
00010000
00000000
00000000
00022000
00000000
00000000
00000000
00000000
00030000
00000000
00000000
00000000
00013000
00000000
00000000
00000000
,
00001000
00010000
00000100
00000000
00001000
00000000
00000001
00000000
,
00000100
00000000
00000000
00000220
00000000
00000000
00000000
00000000
00000000
00000000
00000000
00000000
00000330
00000000
00000000
00000000
,
00001000
00000001
00001000
00000100
,
00002200
00000000
00000000
00003300
,
00000010
00000000
00000010
00000000
00001000
00000001
00000100
00000000
,
00000010
00000000
00000010
00000000
00001000
00000010
00000100
00000010
,
00001000
00000000
00000100
00000000
00010000
00001000
01000000
00100000
,
10000000
00000000
00000000
00020000
00000000
00000000
00000000
00000000
00000000
00000000
00000000
00000000
00030000
00000000
00000000
00000000
,
10000000
00000000
00000000
02000000
00000000
00000000
00000000
00000000
03000000
00000000
00000000
00000000
00000000
00000000
00000000
00000000
,
00100000
00000000
00000000
00020000
00000000
00000000
00000000
00000000
00030000
00000000
00000000
00000000
00000000
00000000
00000000
00000000
,
01000000
00000000
00000000
00200000
00000000
00000000
00000000
00000000
00000000
00000000
00000000
00000000
00000000
00000000
00000000
00000000
,
00300000
00000000
01000000
00010000
01000000
00010000
01000000
00000000
,
00001000
00000000
00000000
00010000
00000000
00000000
00000000
00000000
00000010
00000000
00001000
00000000
00000001
00000000
00000000
00000000
,
00000100
00000000
00000000
00000001
00000000
00000000
00000000
00000000
00001000
00000000
00000001
00000000
00000100
00000000
00000000
00000000
,
00000001
00000000
00001000
00000000
00000001
00000010
00000200
00000000
,
00000000
00000000
00001300
00000000
00000010
00001000
00000010
00000000
,
00001000
00000000
00000000
00000100
00000000
00000000
00000000
00000000
00010000
00000000
00000000
00000000
00010000
00000000
00000000
00000000
,
00010000
00000000
00010000
00000000
00010000
00001000
00010000
00000000
,
00001000
00000000
00000000
01000000
00000000
00000000
00000000
00000000
00000000
00000000
00000000
00000000
00000000
00000000
00000000
00000000
,
00010000
10000000
00010000
10000000
00010000
10000000
10010000
00000000
,
00100000
10000000
00010000
00000000
10000000
00100000
01000000
00000000
,
00010000
10000000
01000000
00000000
00100000
00000000
00100000
00000000
,
00002000
00013000
00000200
00001300
,
00000002
00000000
00001003
00000000
00000010
00000100
00000010
00000000
,
00002000
00000001
00000000
00003001
,
00000100
00000010
00001000
00000000
00000001
00000010
00000100
00000000
,
00000020
00000000
00000001
00000031
,
00000100
00000010
00000000
00000010
00001000
00000000
00011000
00000000
,
00010000
00001000
01000000
00000000
00100000
00000000
10000000
00000000
,
00010000
00000000
01000000
00000000
00010000
10000000
00100000
00000000
,
10000000
00000000
01000000
00000000
00010000
01000000
00100000
00000000
,
02000000
00000000
03100000
10000000
,
00020000
00000000
00000000
00030000
,
10000000
00100000
01000000
01000000
,
00020000
00000000
00000000
00030000
,
10000000
00010000
01000000
00000000
,
00001000
00000000
00000000
00010000
00000000
00000000
00000000
00000000
00000000
00000000
00000000
00000000
00000000
00000000
00000000
00000000
;

//---------------dance-double - ----------------
#NOTES:
     dance-double:
     :
     Hard:
     8:
     :
00000000
00000000
00000000
00000000
,
00000000
00000000
00000000
00000000
,
00000000
00000000
00000000
00000000
,
00000000
00000000
00000000
00000000
,
00000000
00000000
00000000
00000000
,
00000000
00000000
00000000
00000000
00000000
00000000
00000000
00000000
00000000
00000000
00000000
00000000
00000000
00000000
00000000
00000000
00000000
00000000
00000000
00000000
00000000
00000000
00000000
00000000
00000000
00000000
00000000
00000000
00000000
00000000
00000000
00000000
00000000
00000000
00000000
00000000
00000000
00000000
00000000
00000000
00000000
00000000
00000000
00000000
00000000
00000000
00000000
00000000
00001000
00000000
00000000
00000000
00000000
00000000
00000000
00000000
00000000
00000000
00000000
00000000
00000000
00000000
00000000
00010000
00000000
00000000
00000000
00000000
00000000
00000000
00000000
00000000
00000000
00000000
00000000
00000000
00000000
00000000
00000000
00000000
00100000
00000000
00000000
00000000
00000000
00000000
00000000
00000000
00000000
00000000
00000000
00000000
00000000
00000000
00000000
00000000
,
10000000
00000000
01000000
00100000
00010000
00000000
00100000
00010000
,
01000000
00000000
00000000
00000000
00000000
00000000
00000000
00000000
00000000
00000000
00000000
00000000
00000000
00000000
00000000
00000000
00000000
00000000
00000000
00000000
00000000
00000000
00000000
00000000
01100000
00000000
00000000
00000000
00000000
00000000
00000000
00000000
00000000
00000000
00000000
00000000
00000000
00000000
00000000
00000000
00000000
00000000
00000000
00000000
00000000
00000000
00000000
00000000
00010000
00000000
00000000
00000000
00000000
00000000
00000000
00000000
00000000
00000000
00000000
00000000
00000000
00000000
00000000
10000000
00000000
00000000
00000000
00000000
00000000
00000000
00000000
00000000
00000000
00000000
00000000
00000000
00000000
00000000
00000000
00000000
01000000
00000000
00000000
00000000
00000000
00000000
00000000
00000000
00000000
00000000
00000000
00000000
00000000
00000000
00000000
00000000
,
10000000
00000000
01000000
00010000
00001000
00000000
00000010
00000001
,
00000000
00000000
00000000
00000000
00000000
00000000
00000100
00000000
00000000
00000000
00000000
00000000
00000000
00000000
00000000
00000000
00000000
00000000
00000000
00000000
00000000
00000000
00000000
00000000
00000001
00000000
00000000
00000000
00000000
00000000
00000000
00000000
00000000
00000000
00000000
00000000
00000000
00000000
00000000
00000000
00000000
00000000
00000000
00000000
00000000
00000000
00000000
00000000
00000010
00000000
00000000
00000000
00000000
00000000
00000000
00000000
00000000
00000000
00000000
00000000
00000000
00000000
00000000
00000001
00000000
00000000
00000000
00000000
00000000
00000000
00000000
00000000
00000000
00000000
00000000
00000000
00000000
00000000
00000000
00000000
00001000
00000000
00000000
00000000
00000000
00000000
00000000
00000000
00000000
00000000
00000000
00000000
00000000
00000000
00000000
00000000
,
00000001
00000000
00000000
00000101
00000000
00000000
00000000
00000000
00000001
00000000
00000000
00000100
00000000
00000000
00001000
00000000
,
00010000
00000000
00000000
00011000
00000000
00000000
00000000
00000000
00100000
00000000
00000000
10000000
00000000
01000000
00000000
00000000
,
00100000
00000000
00000000
01100000
00000000
00000000
00000000
00000000
00010000
00000000
00000000
01000000
00000000
00000000
00100000
00000000
,
10000000
00000000
00000000
10100000
00000000
00000000
00000000
00000000
01000000
00000000
00000000
00010000
00000000
00000000
00100000
00000000
,
00001000
00010000
00000100
00000000
00010100
00000000
00001010
00000000
,
00001000
00000000
00000000
00001001
00000000
00000000
00000000
00000000
00000001
00000000
00000000
00000100
00000000
00000000
00000010
00000000
,
00002000
00003002
00002003
00003100
,
00000010
00000000
00000001
00000000
00000000
00000000
00001000
00000000
00000000
00000010
00000000
00000000
00000100
00000000
00000001
00000000
,
00000100
00000000
00000000
00000001
00001000
00000000
00000010
00000000
00000100
00000000
00000001
00000000
00000100
00000000
00000010
00000000
,
00001000
00000000
00000000
00000000
00000001
00000000
00000000
00001000
00000001
00000000
00000100
00000000
00000010
00000000
00001000
00000000
,
00000001
00000000
00000000
00000100
00000010
00000000
00000000
00000000
00000100
00000001
00000000
00001000
00000000
00000000
00000010
00000000
,
00001000
00000000
00000000
00000001
00000000
00000000
00001100
00000000
00000000
00000000
00000000
00000000
00010000
00001000
01000000
00000000
,
00010000
00000000
00000000
01000000
00000000
00000000
00000000
00000000
00100000
10000000
00100000
10000000
00100000
00000000
00000000
00000000
,
01000000
00000000
00000000
00010000
00000000
00000000
00000000
00000000
00100000
00010000
00100000
00010000
00100000
00000000
00000000
00000000
,
00010000
00000000
00000000
10000000
00000000
00000000
00000000
00000000
00100000
10000000
00100000
10000000
00100000
00000000
00000000
00000000
,
20000000
01000000
00000000
00010000
00000000
01000000
31000000
00000000
,
10000000
01000000
00010000
00000000
00001000
00000100
00000001
00000000
,
00000010
00000001
00000100
00000000
00000001
00000100
00001000
00000000
,
00010000
01000000
00100000
00000000
00010000
10000000
01000000
00000000
,
00100000
00010000
01000000
00000000
00100000
00100000
00100000
00000000
,
10000000
00010000
10000000
00000000
00010000
00100000
01000000
00000000
,
10000000
00100000
10000000
00000000
00010000
01000000
00001000
00000000
,
00010000
00000000
00000000
00001000
00000000
00000000
00000000
00000000
00000000
00000000
00000000
00000000
00000000
00000000
00000000
00000000
,
00010000
00001000
00010000
00000000
00000010
00000000
00001000
00000000
00000001
00000000
00001000
00000000
00000001
00000010
00000100
00000000
,
00000010
00000001
00000100
00000010
00001000
00000100
00000010
00000001
,
00000100
00001000
00010000
01000000
10000000
00100000
01000000
00010000
,
10000000
00010000
01000000
00000000
00010000
00000000
10000000
00000000
01000000
00000000
00010000
00000000
00001000
00000000
00000010
00000000
,
00000100
00000010
00000100
00000000
00000010
00000000
00000001
00000000
00000100
00000000
00000010
00000000
00001000
00000000
00000000
00000000
,
00000001
00000000
00000100
00000010
00001000
00000010
00000100
00000000
00000001
00000000
00001000
00000000
00000001
00000000
00000010
00000000
,
00000011
00000000
00000000
00000001
00000100
00000010
00000000
00001000
,
00000001
00000000
00000100
00000000
00000000
00000000
00000000
00000001
00001000
00000000
00000000
00001000
00000001
00000000
00000000
00000000
,
00000100
00000001
00001000
00000000
00000000
00000000
00001000
00000001
00000100
00000000
00000010
00000000
00000110
00000000
00000000
00000000
,
00001000
00000100
00010000
00001000
01000000
00100000
10000000
01000000
,
00100000
00000000
00000000
00010000
01000000
00000000
00000000
01000000
00010000
00000000
00100000
00000000
00010000
00000000
10000000
00000000
,
01000000
00100000
00010000
10000000
01000000
00100000
00010000
01000000
,
00100000
00000000
10000000
00000000
00020000
00000000
00000000
00000000
00030000
00000000
10000000
00000000
01000000
00000000
00100000
01000000
,
00100000
00000000
00010000
00000000
01000000
00000000
00001000
00000000
00010000
00000000
00001000
00010000
00001000
00000000
00010000
00000000
,
00000100
00001000
00000002
00000000
00000100
00000000
00000103
00000000
,
00000001
00000000
00001000
00000000
00000001
00001000
00000001
00000000
00000010
00000000
00000001
00000000
00000100
00000000
00000010
00000000
,
00001000
00000100
00001000
00000001
00001000
00000010
00001000
00000100
,
00010000
00000000
00000000
00001010
00000000
00000000
00000000
00000000
00000000
00000000
00000000
00000000
00000000
00000000
00000000
00000000
;
