#TITLE:Rock Lobster;
#ARTIST:B-52's;
#BANNER:Rock Lobster.png;
#BACKGROUND:Rock Lobster-bg.png;
#CDTITLE:./CDTITLES/DANCE DANCE REVOLUTION ULTRAMIX 3.png;
#MUSIC:Rock Lobster.ogg;
#SAMPLESTART:1.255;
#SAMPLELENGTH:15;
#DISPLAYBPM:170:186;
#BPMS:0=183.28,4=184.18,68=183.3,76=181.5,82=176.5,84=178,112=178.4,132=180.1,164=181,166=181.8,168=183.6,170=185.7,174=188.6,176=190.1,182=187.5,187=185.9,211=183.2,242=179,272=175.6,275=178.4,300=182.6,308=180;
#BGCHANGES:4=Rock Lobster.avi=1=1=0=0,318=Rock Lobster-bg.png=1=0=0=1;

//---------------dance-single - ----------------
#NOTES:
     dance-single:
     :
     Beginner:
     1:
     :
0000
0000
0000
0000
,
0000
0000
0000
0000
,
0000
0000
0000
0000
,
0000
0000
0000
0000
,
0000
0000
0000
0000
,
1000
0000
0000
0000
,
0001
0000
0000
0000
,
1000
0000
0000
0000
,
0001
0000
0000
0000
,
0100
0000
0000
0000
,
0100
0000
0000
0000
,
0100
0000
0100
0000
,
0100
0000
0000
0000
,
1000
0000
0000
0000
,
0001
0000
0000
0000
,
1000
0000
0000
0000
,
0001
0000
0000
0000
,
0010
0000
0000
0000
,
1000
0000
0000
0000
,
0100
0000
0000
0000
,
0001
0000
0000
0000
,
0010
0000
0010
0000
,
1000
0000
1000
0000
,
0001
0000
0000
0000
,
0001
0000
0000
0000
,
0100
0000
0000
0000
,
0100
0000
0000
0000
,
1000
0000
1000
0000
,
0001
0000
0001
0000
,
0100
0000
0000
0000
,
0100
0000
0000
0000
,
0010
0000
0010
0000
,
0010
0000
0000
0000
,
1000
0000
0000
0000
,
0100
0000
0000
0000
,
0001
0000
0000
0000
,
0100
0000
0000
0000
,
0010
0000
0000
0000
,
0010
0000
0000
0000
,
0100
0000
0100
0000
,
0100
0000
0100
0000
,
1000
0000
0000
0000
,
0000
0000
0000
0000
,
0001
0000
0000
0000
,
0000
0000
0000
0000
,
1001
0000
0000
0000
,
0000
0000
0000
0000
,
1001
0000
0000
0000
,
0000
0000
0000
0000
,
1001
0000
0000
0000
,
0100
0000
0000
0000
,
1001
0000
0000
0000
,
0010
0000
0000
0000
,
1000
0000
1000
0000
,
1000
0000
0000
0000
,
0001
0000
0001
0000
,
0001
0000
0000
0000
,
0100
0000
0100
0000
,
0100
0000
0000
0000
,
0010
0000
0010
0000
,
0010
0000
0000
0000
,
1000
0000
0100
0000
,
1000
0000
0000
0000
,
0001
0000
0100
0000
,
0001
0000
0000
0000
,
0100
0000
0000
0000
,
0010
0000
0000
0000
,
0100
0000
0000
0000
,
0010
0000
0000
0000
,
1000
0000
0000
0000
,
0001
0000
0001
0000
,
0001
0000
0000
0000
,
1000
0000
0000
0000
,
0001
0000
0000
0000
,
1000
0000
1000
0000
,
1000
0000
0000
0000
,
0001
0000
0000
0000
,
0100
0000
0000
0000
,
0010
0000
0000
0000
,
1001
0000
0000
0000
;

//---------------dance-single - ----------------
#NOTES:
     dance-single:
     :
     Easy:
     4:
     :
0000
0000
0000
0000
,
0000
0000
0000
0000
,
0000
0000
0000
0000
,
0000
0000
0000
0000
,
0000
0000
0000
0000
,
1000
0000
1000
0000
,
0001
0000
0001
0000
,
1000
0000
1000
0000
,
0001
0000
0001
0000
,
1000
0000
1000
0000
,
0001
0000
0001
0000
,
0100
0000
0100
0000
,
0200
0000
0300
0000
,
0001
0010
0100
1000
,
0002
0000
0003
0000
,
1000
0010
0100
0001
,
2000
0000
3000
0000
,
0002
0000
2003
0000
,
3002
0000
2003
0000
,
3010
0000
0010
0000
,
0200
0000
0300
0000
,
0001
0000
0100
0000
,
0010
0000
1000
0000
,
0100
0000
0010
0000
,
0002
0000
0003
0000
,
1000
0000
1000
0000
,
0100
0000
0100
0000
,
0010
0000
0010
0000
,
0001
0000
0001
0000
,
0100
0000
0100
0000
,
0010
0000
0010
0000
,
1000
0000
1000
0000
,
2002
0000
3003
0000
,
2000
0000
0010
0000
,
0001
0000
3100
0000
,
0002
0000
0010
0000
,
1000
0000
0103
0000
,
1000
0010
0001
0100
,
0001
0010
1000
0100
,
1000
0001
1000
0001
,
1000
0001
1000
0001
,
0100
0000
0001
0000
,
0100
0000
1000
0000
,
0100
0000
0001
0000
,
0100
0000
1000
0000
,
0010
0010
0010
0000
,
1000
0000
1001
0000
,
0100
0100
0100
0000
,
0001
0000
2002
3003
,
0010
0010
0010
0000
,
0001
0000
1001
0000
,
0100
0100
0100
0000
,
1000
0000
2002
3003
,
0010
0000
0100
0000
,
1000
0000
0010
0000
,
0100
0000
0001
0000
,
0010
0000
0100
0000
,
1000
0000
0010
0000
,
0100
0000
0001
0000
,
0010
0000
0100
0000
,
1000
0000
0001
0000
,
1000
0001
1000
0001
,
1000
1000
0001
0001
,
1000
0001
1000
0001
,
1000
1000
0001
0001
,
0200
0000
0000
0300
,
0000
0000
0000
0010
,
0200
0000
0000
0300
,
0000
0000
0000
0000
,
1000
0000
0100
0000
,
0001
0000
0100
0000
,
1000
0000
0100
0000
,
0001
0000
0100
0000
,
1000
0000
0100
0000
,
1000
0000
0100
0000
,
0001
0000
0100
0000
,
0001
0000
0100
0000
,
1000
0000
0001
0000
,
1000
1000
0001
0001
,
1001
0000
0000
0000
;

//---------------dance-single - ----------------
#NOTES:
     dance-single:
     :
     Medium:
     5:
     :
0000
0000
0000
0000
,
0000
0000
0000
0000
,
0000
0000
0000
0000
,
0000
0000
0000
0000
,
0000
0000
0000
0000
,
0010
1000
0100
0001
,
0100
0000
1000
0000
0001
1000
0001
0000
,
0010
0001
0100
1000
,
0100
0000
0001
0000
1000
0001
1000
0000
,
0100
1000
0010
0001
,
0010
0000
1000
0000
0001
1000
0001
0000
,
0100
0001
0010
1000
,
0010
0000
0001
0000
1000
0001
1000
0000
,
0002
0100
0100
0103
,
0100
0001
1000
0200
0000
0000
0300
0000
,
2000
0100
0100
3100
,
0100
1000
0001
0200
0000
0000
0300
0000
,
0002
0000
2003
0000
,
3002
0000
2003
0000
,
3001
0000
0010
0000
0100
1000
0001
2000
,
0000
0000
0000
0000
0000
3000
0000
0000
,
0002
1000
1000
1003
,
2000
0001
0001
3001
,
0100
0000
0100
0000
0010
1000
0001
2000
,
0000
0000
0000
0000
0000
3000
0000
0000
,
0001
0010
0001
0010
,
0100
1000
0100
1000
,
0010
1000
0010
2000
,
3002
0000
0000
0000
0203
0000
0000
0000
0302
0000
0000
0000
0203
0000
0000
0300
,
0001
1000
0001
1000
,
0010
0100
0010
0100
,
0001
0000
1000
0000
0100
1000
0001
2000
,
0000
0000
0000
0000
0000
3000
0000
0000
,
0002
0000
0020
0030
,
2000
3000
0200
0303
,
2000
0000
0020
0030
,
0002
0003
0200
3300
,
1000
0100
0010
0001
,
1000
0100
0010
0001
,
1000
0100
1000
0100
,
1000
0100
1000
0100
,
2000
0100
0100
3100
,
0100
1000
0001
0200
0000
0000
0300
0000
,
0002
0100
0100
0103
,
0100
0001
1000
0200
0000
0000
0300
0000
,
1000
0001
0020
0000
,
0100
0130
1100
0101
,
0001
1000
0020
0000
,
0100
0130
2002
3003
,
1000
0001
0200
0000
,
0010
0310
1010
0011
,
0001
1000
0020
0000
,
0100
0130
2002
3003
,
0010
0001
0100
1000
,
0010
0001
0100
1000
,
0010
0000
0001
0000
0100
0100
0100
0000
,
0010
0000
1000
0000
0100
0100
0100
0000
,
1000
0000
0001
0000
0010
0010
0010
0000
,
0001
0000
1000
0000
0010
0010
0010
0000
,
1000
0000
0100
0000
0010
0001
0010
0000
,
0001
0000
0100
0000
0010
1000
0010
0000
,
1000
0010
0100
0001
,
0010
0100
1000
0010
,
0100
0001
0010
0100
,
1000
0010
0100
0001
,
0020
0000
0000
0230
0000
0000
2300
0000
,
0000
3000
0000
0000
0000
0000
1000
0000
,
0020
0000
0000
0230
0000
0000
0302
0000
,
0000
0003
0000
0000
0000
0000
0010
0000
,
1001
0000
0000
0100
0000
0000
0100
0000
,
0002
0023
0230
2300
,
3001
0000
0000
0100
0000
0000
0100
0000
,
0001
0000
0000
1000
0000
0000
0000
0000
,
1001
0000
0000
0100
0000
0000
0100
0000
,
2000
3020
0230
0302
,
1003
0000
0000
0100
0000
0000
0100
0000
,
2000
3002
2003
3002
,
1003
0000
0000
0100
0000
0000
0100
0000
,
2000
3002
2003
3002
,
0103
0000
0000
0000
;

//---------------dance-single - ----------------
#NOTES:
     dance-single:
     :
     Hard:
     7:
     :
0000
0000
0000
0000
,
0000
0000
0000
0000
,
0000
0000
0000
0000
,
0000
0000
0000
0000
,
0000
0000
0000
0000
,
0100
1000
0100
1000
0001
0000
0100
0000
,
0001
0000
1000
0000
0001
1000
0001
0000
,
0010
0001
0010
0001
1000
0000
0010
0000
,
1000
0000
0001
0000
1000
0001
1000
0000
,
0010
0100
0010
0100
0001
0000
0010
0000
,
0100
0000
1000
0000
0100
1000
0100
0000
,
0010
0100
0010
0100
1000
0000
0010
0000
,
0100
0000
0001
0000
0100
0001
0100
0000
,
0001
0000
1000
0000
0001
0000
1000
0100
,
0010
0100
0010
0002
0000
0000
0003
0000
,
1000
0000
0001
0000
1000
0000
0001
0100
,
0010
0100
0010
2000
0000
0000
3000
0000
,
0002
0000
2003
0000
,
3002
0000
0203
0000
,
0310
0000
1000
0000
0001
0100
0010
2000
,
0000
0000
0000
0000
0000
3000
0000
0000
,
0100
1000
0100
1000
0100
1000
0100
1000
,
0001
0100
0001
0100
0001
0100
0001
0100
,
0010
0000
1000
0000
0001
1000
0001
0020
,
0000
0000
0000
0000
0000
0030
0000
0000
,
0001
1000
0001
1000
,
0010
0100
0010
0100
,
0001
1000
0001
2000
,
3002
0023
0230
2300
,
3001
0100
0001
0100
0001
0100
0001
0100
,
0010
1000
0010
1000
0010
1000
0010
1000
,
0001
0000
1000
0000
0001
1000
0001
0020
,
0000
0000
0000
0000
0000
0030
0000
0000
,
0002
0000
0023
0000
,
0230
0000
2300
0000
,
3002
0000
0023
0000
,
0230
0000
2300
0000
,
3002
0023
0230
2300
,
3002
0023
0230
2300
,
0001
0100
0001
0100
,
0001
0100
0001
3100
,
1000
0000
0001
0000
1000
0000
0001
0010
,
0100
1000
0001
0200
0000
0000
0300
0000
,
0001
0000
1000
0000
0001
0000
1000
0010
,
0100
0001
1000
0200
0000
0000
0300
0000
,
1000
1000
0001
0001
1001
0000
0000
1100
,
0000
0101
0000
0000
1010
0000
0011
0000
,
1000
1000
0001
0001
1001
0000
0000
0010
,
0010
0100
0000
0000
2002
0000
3003
0000
,
1000
1000
0001
0001
1001
0000
0000
1010
,
0000
0011
0000
0000
1100
0000
0101
0000
,
1000
1000
0001
0001
1001
0000
0000
0010
,
0010
0100
0000
0000
2002
0000
3003
0000
,
1000
1000
0100
0000
1000
0100
1000
0000
,
0001
0001
0100
0000
0001
0100
0001
0000
,
1000
1000
0010
0000
1000
0010
1000
0000
,
0001
0001
0010
0000
0001
0010
0001
0000
,
1000
0100
1000
0000
1000
0001
1000
0000
,
0001
0100
0001
0000
0001
1000
0001
0000
,
1000
0100
0010
0000
0001
0010
0100
0000
,
1000
0100
0010
0001
0010
0100
1000
0000
,
0010
1000
0001
1000
0010
1000
0001
1000
,
0010
1000
0001
1000
0010
1000
0001
1000
,
0001
0100
0001
1000
0001
0100
0001
1000
,
0001
0100
0001
1000
0001
0100
0001
1000
,
0010
0000
0010
1000
0000
1000
0002
0000
,
0000
0003
0000
0000
0000
0000
1000
0001
,
0010
0000
0010
0001
0000
0001
2000
0000
,
0000
3000
0000
0000
0000
0000
0010
0000
,
1001
0000
0000
0110
0000
0000
1001
0000
,
0001
0001
0010
0010
0100
0100
1000
1000
,
0001
0000
0000
0110
0000
0000
1001
0000
,
0020
0000
0000
0130
0000
0000
0000
0000
,
1001
0000
0000
0110
0000
0000
1001
0000
,
1000
1000
0010
0010
0100
0100
0001
0001
,
1000
0000
0000
0110
0000
0000
1001
0000
,
2000
3002
2003
3002
,
1003
0000
0000
0110
0000
0000
1001
0000
,
0100
1000
0100
1000
0001
0100
0001
0000
,
1001
0000
0000
0000
;

//---------------dance-double - ----------------
#NOTES:
     dance-double:
     :
     Beginner:
     1:
     :
00000000
00000000
00000000
00000000
,
00000000
00000000
00000000
00000000
,
00000000
00000000
00000000
00000000
,
00000000
00000000
00000000
00000000
,
00000000
00000000
00000000
00000000
,
00000001
00000000
00000000
00000000
,
00000100
00000000
00000000
00000000
,
00000010
00000000
00000000
00000000
,
00001000
00000000
00000000
00000000
,
00000100
00000000
00000000
00000000
,
00010000
00000000
00000000
00000000
,
00001000
00000000
00000000
00000000
,
01000000
00000000
00000000
00000000
,
00010000
00000000
00000000
00000000
,
00100000
00000000
00000000
00000000
,
01000000
00000000
00000000
00000000
,
10000000
00000000
00000000
00000000
,
00100000
00000000
00000000
00000000
,
10000000
00000000
00000000
00000000
,
01000000
00000000
00000000
00000000
,
00010000
00000000
00000000
00000000
,
00001000
00000000
00010000
00000000
,
00001000
00000000
00010000
00000000
,
00001000
00000000
00000000
00000000
,
00000100
00000000
00000000
00000000
,
00000001
00000000
00000000
00000000
,
00000010
00000000
00000000
00000000
,
00001000
00000000
00010000
00000000
,
00001000
00000000
00010000
00000000
,
01000000
00000000
00000000
00000000
,
10000000
00000000
00000000
00000000
,
00100000
00000000
00100000
00000000
,
00100000
00000000
00000000
00000000
,
01000000
00000000
00000000
00000000
,
00010000
00000000
00000000
00000000
,
00100000
00000000
00000000
00000000
,
00001000
00000000
00000000
00000000
,
00010000
00000000
00000000
00000000
,
00001000
00000000
00000000
00000000
,
00010000
00000000
00001000
00000000
,
00010000
00000000
00001000
00000000
,
00020000
00000000
00000000
00030000
,
00000000
00000000
00000000
00000000
,
00002000
00000000
00000000
00003000
,
00000000
00000000
00000000
00000000
,
00022000
00000000
00000000
00033000
,
00000000
00000000
00000000
00000000
,
00000220
00000000
00000000
00000330
,
00000000
00000000
00000000
00000000
,
00001001
00000000
00000000
00000000
,
00000100
00000000
00000000
00000000
,
00001001
00000000
00000000
00000000
,
00000100
00000000
00000000
00000000
,
00000001
00000000
00001000
00000000
,
00000001
00000000
00000000
00000000
,
00001000
00000000
00000001
00000000
,
00001000
00000000
00000000
00000000
,
00000100
00000000
00000100
00000000
,
00000100
00000000
00000000
00000000
,
00010000
00000000
00010000
00000000
,
00010000
00000000
00000000
00000000
,
00001000
00000000
00001000
00000000
,
00001000
00000000
00000000
00000000
,
01000000
00000000
01000000
00000000
,
01000000
00000000
00000000
00000000
,
00100000
00000000
00000000
00000000
,
10000000
00000000
00000000
00000000
,
01000000
00000000
00000000
00000000
,
00010000
00000000
00000000
00000000
,
00001000
00000000
00000000
00000000
,
00010000
00000000
00001000
00000000
,
00010000
00000000
00000000
00000000
,
00000100
00000000
00000000
00000000
,
00001000
00000000
00000000
00000000
,
00000001
00000000
00001000
00000000
,
00000001
00000000
00000000
00000000
,
00000100
00000000
00000000
00000000
,
00001000
00000000
00000000
00000000
,
00010000
00000000
00000000
00000000
,
00011000
00000000
00000000
00000000
;

//---------------dance-double - ----------------
#NOTES:
     dance-double:
     :
     Easy:
     4:
     :
00000000
00000000
00000000
00000000
,
00000000
00000000
00000000
00000000
,
00000000
00000000
00000000
00000000
,
00000000
00000000
00000000
00000000
,
00000000
00000000
00000000
00000000
,
00000100
00000000
00000001
00000000
,
00000010
00000000
00001000
00000000
,
00010000
00000000
00100000
00000000
,
10000000
00000000
01000000
00000000
,
10000000
00000000
00100000
00000000
,
00010000
00000000
00001000
00000000
,
00000010
00000000
00000100
00000000
,
00010000
00000000
00001000
00000000
,
00020000
00000000
02030000
00000000
,
23000000
00000000
30000000
00000000
,
02000000
00000000
23000000
00000000
,
30200000
00000000
00300000
00000000
,
20000000
00000000
30020000
00000000
,
20030000
00000000
30020000
00000000
,
01030000
00000000
00010000
00000000
,
02000000
00000000
03000000
00000000
,
00002000
00000000
00023000
00000000
,
00030200
00000000
00002300
00000000
,
00003010
00000000
00000010
00000000
,
00002002
00000000
00003003
00000000
,
00000001
00000000
00000001
00000000
,
00000100
00000000
00000100
00000000
,
00001000
00000000
00001000
00000000
,
00010000
00000000
00010000
00000000
,
01000000
00000000
01000000
00000000
,
10000000
00000000
10000000
00000000
,
00100000
00000000
00010000
00000000
,
00011000
00000000
00000000
00000000
,
00001000
00000000
00010000
00000000
,
00001000
00000000
01000000
00000000
,
00001000
00000000
00010000
00000000
,
00001000
00000000
01000000
00000000
,
00001000
00001000
00001000
00010000
,
00001000
00001000
00001000
00010000
,
00001000
00010000
00001000
00010000
,
00001000
00010000
00001000
00010000
,
00001000
00000000
00000100
00000000
,
00000001
00000000
00000010
00000000
,
00001000
00000000
00000010
00000000
,
00000001
00000000
00000100
00000000
,
00000001
00000001
00000000
00000000
,
00001000
00001000
00000000
00001001
,
00000100
00000100
00000000
00000000
,
00010000
00010000
00022000
00033000
,
00010000
00010000
00000000
00000000
,
01000000
01000000
00000000
10010000
,
00010000
00010000
00000000
00000000
,
10000000
10000000
20020000
30030000
,
10000000
00000000
01000000
00000000
,
00100000
00000000
00010000
00000000
,
00001000
00000000
00000100
00000000
,
00000010
00000000
00000001
00000000
,
00000001
00000000
00000100
00000000
,
00000010
00000000
00001000
00000000
,
00010000
00000000
01000000
00000000
,
00100000
00000000
10000000
00000000
,
00100000
00000000
10000000
00000000
,
01000000
00000000
00010000
00000000
,
01000000
00000000
10000000
00000000
,
00100000
00000000
00010000
00000000
,
00001000
00000000
00000010
00000000
,
00000001
00000000
00000100
00000000
,
00001000
00000000
00000100
00000000
,
00000001
00000000
00000010
00000000
,
00002002
00000000
00003003
00001001
,
00000001
00001000
00000001
00001000
,
00000220
00000000
00000330
00000110
,
00000000
00001000
00000000
00010000
,
00022000
00000000
00033000
00011000
,
00001000
00010000
00001000
00010000
,
00022000
00000000
00033000
00011000
,
00010000
00000000
01000000
00000000
,
20020000
00000000
30030000
10010000
,
00010000
10000000
00010000
10000000
,
10010000
00000000
00000000
00000000
;

//---------------dance-double - ----------------
#NOTES:
     dance-double:
     :
     Medium:
     6:
     :
00000000
00000000
00000000
00000000
,
00000000
00000000
00000000
00000000
,
00000000
00000000
00000000
00000000
,
00000000
00000000
00000000
00000000
,
00000000
00000000
00000000
00000000
,
00000001
00001000
00000001
00000100
,
00001000
00000000
00010000
00000000
01000000
10000000
01000000
00000000
,
10000000
00010000
10000000
01000000
,
00010000
00000000
00001000
00000000
00000100
00000001
00000100
00000000
,
00000001
00001000
00000001
00000010
,
00001000
00000000
00010000
00000000
00100000
10000000
00100000
00000000
,
10000000
00010000
10000000
00100000
,
00010000
00000000
00001000
00000000
00000010
00000001
00000010
00000000
,
00000100
00010000
00001000
01000000
,
00001000
00001000
00020000
00002000
00000000
00000000
00033000
00000000
,
01000000
00001000
00010000
00001000
,
00010000
00010000
00002000
00020000
00000000
00000000
00033000
00000000
,
00002000
00000000
00003200
00000000
,
00000302
00000000
00000023
00000000
,
00001030
00000000
00000010
00000000
00000001
00000100
00001000
00020000
,
00000000
00000000
00000000
00000000
00000000
00030000
00000000
00000000
,
02000000
10000000
10000000
13000000
,
00200000
00010000
00010000
00310000
,
00100000
00000000
10000000
00000000
01000000
00010000
00001000
00000200
,
00000000
00000000
00000000
00000000
00000000
00000300
00000000
00000000
,
00001000
00000100
00000010
00000001
,
00001000
00000100
00000010
00000001
,
00001000
00001000
00000001
00000001
,
00002000
00003002
00002003
00003002
,
00000103
00001000
00010000
01000000
,
00010000
00001000
00000100
00001000
,
00010000
00000000
01000000
00000000
00010000
00001000
00010000
00002000
,
00000000
00000000
00000000
00000000
00000000
00003000
00000000
00000000
,
00020000
00000000
02030000
00000000
,
23000000
00000000
30200000
00000000
,
00320000
00000000
00230000
00000000
,
20300000
00000000
32000000
00000000
,
13000000
01000000
00100000
00010000
,
10000000
01000000
00100000
00010000
,
01010000
10000000
11000000
00010000
,
01010000
10000000
11000000
00010000
,
20000000
01000000
00010000
31000000
,
00010000
00001000
00010000
00000200
00000000
00000000
00000300
00001000
,
00000002
00000100
00001000
00000103
,
00001000
00010000
00001000
02000000
00000000
00000000
03000000
00000000
,
00010000
10000000
00010000
01000000
,
00001000
00010000
00011000
00011000
,
00001000
00000100
00000001
00000010
,
00000100
00001000
00002002
00003003
,
00001000
00000001
00001000
00000100
,
00010000
00001000
00011000
00011000
,
00010000
01000000
10000000
00100000
,
01000000
00010000
20020000
30030000
,
10000000
01000000
00010000
00000000
01000000
10000000
00100000
00000000
,
01000000
00001000
00010000
00000000
00001000
00010000
01000000
00000000
,
00100000
00010000
00001000
00000000
00000010
00000100
00001000
00000000
,
00000001
00000100
00000010
00000000
00000100
00000001
00000010
00000000
,
00000100
00010000
00001000
00000000
00010000
01000000
00100000
00000000
,
00010000
10000000
01000000
00000000
00100000
00001000
01000000
00000000
,
00100000
00010000
00001000
00000000
00010000
00001000
00000010
00000000
,
00000001
00000100
00000010
00000000
00001000
00000100
00000010
00000000
,
00000100
00010000
00001000
01000000
,
00001000
00010000
00000010
00010000
,
00001000
00100000
00001000
00010000
,
00000010
00010000
00001000
00010000
,
02000000
00000000
00000000
23000000
00000000
00000000
30200000
00000000
,
00000000
00300000
00000000
00000000
00000000
00000000
00010000
00001000
,
00000200
00000000
00000000
00000302
00000000
00000000
00000023
00000000
,
00000000
00000030
00000000
00000000
00000000
00000000
00000100
00000000
,
00001001
00000000
00000001
00000100
00000000
00000100
00000001
00000000
,
00000002
00000023
00000230
00002300
,
00003001
00000000
00001000
00000100
00000000
00000100
00001000
00000000
,
00010100
00000000
00000000
00011000
00000000
00000000
00000000
00000000
,
10010000
00000000
00010000
01000000
00000000
01000000
00010000
00000000
,
00020000
00230000
02300000
23000000
,
30010000
00000000
10000000
01000000
00000000
01000000
10000000
00000000
,
20000000
30020000
20030000
30020000
,
10030000
00000000
00010000
01000000
00000000
01000000
00010000
00000000
,
02000000
03002000
00023000
00032000
,
00013000
00000000
00000000
00000000
;

//---------------dance-double - ----------------
#NOTES:
     dance-double:
     :
     Hard:
     8:
     :
00000000
00000000
00000000
00000000
,
00000000
00000000
00000000
00000000
,
00000000
00000000
00000000
00000000
,
00000000
00000000
00000000
00000000
,
00000000
00000000
00000000
00000000
,
00001000
00000000
00000001
00000000
00001000
00000000
00000001
00000010
,
00000100
00001000
00000010
00000200
00000000
00000000
00000300
00001000
,
00010000
00000000
00001000
00000000
00010000
00000000
00001000
00010000
,
01000000
10000000
00100000
02000000
00000000
00000000
03000000
00000000
,
00010000
00000000
10000000
00000000
00010000
00000000
10000000
00100000
,
01000000
00010000
00100000
02000000
00000000
00000000
03000000
00010000
,
00001000
00000000
00010000
00000000
00001000
00000000
00010000
00001000
,
00000100
00000001
00000010
00000200
00000000
00000000
00000300
00000000
,
00010000
00000000
00001000
00000000
00010000
00000000
00001000
00000100
,
00000001
00000100
00001000
00020000
00000000
00000000
00030000
00010000
,
00001000
00000000
00010000
00000000
00001000
00000000
00010000
01000000
,
10000000
01000000
00010000
00002000
00000000
00000000
00003000
00000000
,
00020000
00000000
02030000
00000000
,
23000000
00000000
30200000
00000000
,
10300000
00000000
01000000
00000000
00010000
00001000
00000100
00000002
,
00000000
00000000
00000000
00000000
00000000
00000003
00000000
00000000
,
00000010
00000100
00010000
00001000
00000100
00000001
00000010
00000100
,
00010000
00001000
00000100
00000001
00000010
00000100
00010000
00001000
,
00000100
00000000
00000001
00000000
00001000
00000100
00010000
00002000
,
00000000
00000000
00000000
00000000
00000000
00003000
00000000
00000000
,
00010000
01000000
00100000
00010000
,
01000000
00100000
00010000
00001000
,
00000100
00000010
00001000
00000100
,
00000010
00001000
00010000
01000000
,
10000000
00100000
01000000
00001000
00010000
01000000
10000000
00100000
,
01000000
00001000
00010000
01000000
10000000
00100000
01000000
00001000
,
00010000
00000000
00001000
00000000
00010000
00001000
00000100
00000002
,
00000000
00000000
00000000
00000000
00000000
00000003
00000000
00000000
,
00002000
00000000
00003002
00000000
,
00000203
00000000
00002300
00000000
,
00023000
00000000
02030000
00000000
,
23000000
00000000
30020000
00000000
,
20030000
30200000
00320000
00032000
,
00003020
00000032
00002003
00003100
,
00001001
00000100
00001001
00000100
,
00001001
00000100
00001001
00000100
,
00000001
00000000
00000101
00000000
00001100
00000000
00000100
00010000
,
00001000
00010000
00001000
02000000
00000000
00000000
03000000
00010000
,
10000000
00000000
11000000
00000000
01010000
00000000
01000000
00001000
,
00010000
00001000
00010000
00000200
00000000
00000000
00000300
00000000
,
00010000
00001000
00010000
01000000
00100000
00000000
00000000
00010000
,
10000000
00010000
00000000
00000000
00110000
00000000
11000000
00000000
,
00010000
10000000
01000000
00100000
00001000
00000000
00000000
00010000
,
00001000
00010000
00000000
00000000
00022000
00000000
00033000
00000000
,
00001000
00000100
00000010
00001000
00000001
00000000
00000000
00001000
,
00000001
00001000
00000000
00000000
00001010
00000000
00000101
00000000
,
00001000
00000100
00000010
00000001
00000100
00000000
00000000
00001000
,
00010000
00001000
00000000
00000000
00022000
00000000
00033000
00000000
,
00010000
00010000
00001000
00001000
01000000
01000000
00010000
00000000
,
10000000
10000000
00100000
00100000
01000000
01000000
00001000
00000000
,
00010000
00010000
00000100
00000100
00000010
00000010
00000001
00000000
,
00000100
00000100
00000010
00000010
00010000
00010000
00001000
00000000
,
00010000
00010000
01000000
01000000
00100000
00100000
00001000
00001000
,
01000000
01000000
00100000
00100000
10000000
10000000
01000000
01000000
,
00100000
00100000
00001000
00001000
00010000
00010000
00000010
00000010
,
00000100
00000001
00001000
00000100
00000010
00000001
00001000
00000010
,
00010000
00000100
00001000
00000010
00010000
00000100
00001000
00000010
,
00010000
00000100
00001000
00000010
00010000
00000100
00010000
00001000
,
00100000
00010000
01000000
00001000
00100000
00010000
01000000
00001000
,
00100000
00010000
01000000
00001000
00100000
01000000
10000000
00010000
,
20000000
00000000
00000000
30020000
00000000
00000000
02030000
00000000
,
00000000
03000000
00000000
00000000
00000000
00000000
00010000
10000000
,
00020000
00000000
00000000
20030000
00000000
00000000
32000000
00000000
,
00000000
03000000
00000000
00000000
00000000
00000000
00100000
00000000
,
10010000
00000000
01000000
10000000
00000000
00010000
01000000
00000000
,
00010000
00100000
00001000
00010000
00100000
00010000
00001000
00000000
,
00011000
00000000
00010000
00001000
00000000
00001000
00010000
00000000
,
00001000
00000100
00000001
00000020
00000000
00000000
00000030
00000000
,
00001001
00000000
00000100
00000001
00000000
00001000
00000100
00000000
,
00001000
00000010
00010000
00001000
00000010
00001000
00010000
00000000
,
00011000
00000000
00001000
00010000
00000000
00010000
00001000
00000000
,
00020000
00032000
00023000
00032000
,
00013000
00000000
00000000
00010100
00000000
00000000
01001000
00000000
,
00010000
00000010
00010000
00001000
00100000
00001000
00010000
00000000
,
00011000
00000000
00000000
00000000
;
