#TITLE:Right On Time;
#ARTIST:Robbie Danzie;
#BANNER:Right On Time.png;
#BACKGROUND:Right On Time-bg.png;
#CDTITLE:./CDTITLES/GUITARFREAKS & drummania.PNG;
#MUSIC:Right On Time.ogg;
#SAMPLESTART:57.807;
#SAMPLELENGTH:15;
#DISPLAYBPM:135;
#BPMS:0=136;

//---------------dance-single - ----------------
#NOTES:
     dance-single:
     :
     Beginner:
     1:
     :
0000
0000
0000
0000
,
0000
0000
0000
0000
,
0000
0000
0000
0000
,
0000
0000
0000
0000
,
0000
0000
0000
1000
,
1000
0000
1000
0000
,
0001
0000
0001
0000
,
1000
0000
1000
0000
,
0002
0000
0000
0003
,
0001
0000
0001
0000
,
1000
0000
1000
0000
,
0001
0000
0001
0000
,
1000
0000
1000
0000
,
0200
0000
0000
0300
,
0100
0000
0000
0000
,
0010
0000
0000
0000
,
0020
0000
0000
0030
,
0010
0000
0000
0000
,
1000
0000
0000
0000
,
0001
0000
0001
0000
,
0001
0000
0000
0000
,
1000
0000
0000
0000
,
1000
0000
0000
0000
,
0001
0000
0001
0000
,
1001
0000
0000
0000
,
0010
0000
0100
0000
,
0010
0000
0000
0000
,
0100
0000
0010
0000
,
0100
0000
0000
0000
,
0001
0000
1000
0000
,
0001
0000
1000
0000
,
0010
0000
0010
0000
,
0100
0000
0000
0000
,
1000
0000
1000
0000
,
0001
0000
0001
0000
,
1000
0000
1000
0000
,
0010
0010
0010
0000
,
0001
0000
0001
0000
,
1000
0000
1000
0000
,
0001
0000
0001
0000
,
0200
0000
0000
0300
,
0100
0000
0100
0000
,
0001
0000
0001
0000
,
1000
0000
0001
0000
,
1000
1000
1000
0000
,
0010
0000
0010
0000
,
0100
0000
0100
0000
,
0010
0000
0010
0000
,
0002
0000
0000
0003
,
0001
0000
0000
0000
,
1000
0000
0000
0000
,
1001
0000
0000
0000
,
1001
0000
0000
0000
,
1001
0000
0000
0000
;

//---------------dance-single - ----------------
#NOTES:
     dance-single:
     :
     Easy:
     2:
     :
0000
0000
0000
0000
,
0000
0000
0000
0000
,
0000
0000
0000
0000
,
0000
0000
0000
0000
,
0000
0000
0000
0001
,
0001
0000
1000
0000
,
0001
0001
0001
0000
,
1000
0000
0001
0000
,
1000
1000
1000
0000
,
0010
0000
0100
0000
,
0010
0010
0010
0000
,
1000
0000
1000
0000
,
0002
0003
2000
3000
,
0200
0000
0000
0300
,
2000
0000
0000
3000
,
0002
0000
0000
0003
,
0020
0000
0000
0030
,
0001
0000
1000
0000
,
0100
0000
1000
0000
,
0010
0000
0100
0000
,
2002
0000
3003
0000
,
1000
0000
0001
0000
,
0100
0000
0001
0000
,
0010
0000
0100
0000
,
2002
0000
3003
0000
,
0020
0000
0230
0000
,
0310
0010
0010
0000
,
1000
0000
0001
0000
,
0100
0000
0010
0000
,
2000
0000
3002
0000
,
1003
1000
1000
0000
,
0010
0000
0100
0000
,
2002
0000
3003
0000
,
0010
0000
0010
0000
,
0001
1000
0001
0000
,
0100
0000
0100
0000
,
0001
0001
0001
0000
,
0010
0000
0010
0000
,
1000
0001
1000
0000
,
0100
0000
0100
0000
,
0002
0000
0000
0003
,
1000
0000
0001
0000
,
0010
0100
0010
0000
,
0001
0000
1000
0000
,
0001
0001
0001
0000
,
0001
0000
1000
0000
,
0100
0010
0100
0000
,
1000
0000
0001
0000
,
2000
0000
0002
3003
,
1001
0000
0000
0000
,
0110
0000
0000
0000
,
1001
0000
0000
0000
,
0110
0000
0000
0000
,
1001
0000
0000
0000
;

//---------------dance-single - ----------------
#NOTES:
     dance-single:
     :
     Medium:
     4:
     :
0000
0000
0000
0000
,
0000
0000
0000
0000
,
0000
0000
0000
0000
,
0000
0000
0000
0000
,
0000
0000
0000
1000
,
0010
1000
0100
1000
,
0001
0000
1000
0010
1000
0000
0000
0000
,
0010
0001
0100
0001
,
1001
0000
0001
0010
0001
0000
0000
0000
,
0010
0100
0010
0001
,
0010
0000
0100
0010
0100
0000
0000
0000
,
0010
0001
1000
0001
,
2000
3100
0002
0013
,
2002
0000
0000
3003
,
0220
0000
0000
0330
,
1002
1000
1000
1003
,
0220
0000
0000
0330
,
0001
1000
0100
0000
,
0001
1000
0010
0000
,
1000
0001
0100
0001
,
0202
0000
0303
0000
,
1000
0001
0010
0000
,
1000
0001
0100
0000
,
0001
1000
0010
1000
,
2020
0000
3030
0000
,
0020
1000
0230
0001
,
0310
0010
0010
0000
,
1000
1000
0001
0001
,
1000
0100
0010
0000
,
2000
0010
3002
0100
,
1003
1000
1000
0000
,
0010
1000
0001
0100
,
2002
0000
3003
0000
,
0100
0001
1000
0010
,
1010
1001
1100
0000
,
0100
1000
0001
0010
,
0011
1001
0101
0000
,
0010
0001
1000
0100
,
1100
1001
1010
0000
,
0010
1000
0001
0100
,
2002
0000
3003
1001
,
0010
0001
1000
0100
,
0011
1001
0101
0000
,
0010
1000
0001
0100
,
1010
1001
1100
0000
,
0010
0100
0001
1000
,
0110
1001
0110
0000
,
1000
1000
0001
0001
,
2000
0000
0002
3003
,
2002
0000
0000
3003
,
0022
0000
0000
0033
,
2200
0000
0000
3300
,
1000
0010
1000
0000
0001
0100
0001
0000
,
1001
0000
0000
0000
;

//---------------dance-single - ----------------
#NOTES:
     dance-single:
     :
     Hard:
     7:
     :
0000
0000
0000
0000
,
0000
0000
0000
0000
,
0000
0000
0000
0000
,
0000
0000
0000
0000
,
0000
0000
0000
0000
0000
0000
0001
0010
,
0001
0000
1000
0100
1000
0000
0001
0100
,
0001
0000
1000
0010
1000
0000
0001
0010
,
0001
0000
1000
0100
1000
0001
0100
0001
,
0101
0000
1100
0000
0101
0000
0100
0100
,
0100
0000
0010
0100
0001
0000
0010
0100
,
1000
0000
0010
0100
0001
0000
0010
0100
,
1000
0000
0010
0100
0001
0010
0100
1000
,
0010
0000
0000
0000
1000
0000
0000
0000
0001
0000
0000
0000
1000
0100
1000
0100
,
1000
0000
0000
0000
0000
0000
0000
0010
,
1001
0000
0000
0000
0000
0000
0000
0000
0000
0000
0000
0000
0000
0100
0001
0100
,
0002
1000
1000
1003
,
0001
0000
0001
0000
1000
0000
0001
0100
0001
0000
1000
0000
0001
0100
0001
0100
,
0001
1000
0010
0001
,
1000
0100
0001
1000
,
0010
0000
1000
0000
0100
0000
0010
0001
,
0010
0000
0100
2000
0000
0000
0000
0000
,
3001
0010
1000
0001
0100
0000
1000
0000
,
0010
0001
1000
0100
0001
0000
1000
0000
,
0100
1000
0010
0100
0001
0010
0100
0100
,
1000
0000
0000
0000
0001
0000
0001
0000
1000
0100
1000
0000
0100
1000
0100
0000
,
1000
0000
0100
1000
0000
0100
0000
0000
,
0011
0000
0101
0000
1010
0000
0001
0100
,
0010
0100
0001
2000
0000
3200
0000
0000
,
2300
0000
3001
0000
,
0100
0001
0100
1000
0000
0100
0010
0000
,
1000
0000
1000
0000
1000
0000
0001
0100
,
0001
0010
0001
0100
0000
0000
0000
0000
,
0100
1000
0100
0000
0001
0010
0001
0100
0001
0000
0000
0000
0001
0000
1000
0000
,
0100
0000
0001
0100
1000
0000
0010
0100
,
0001
0000
0010
0100
1000
0000
0001
0100
,
0010
0000
1000
0001
0100
0010
1000
0001
,
0101
0000
1100
0000
0101
0000
1000
0001
,
0100
0000
1000
0100
0001
0000
0010
0100
,
1000
0000
0010
0100
0001
0000
1000
0100
,
0010
0000
0001
0010
0100
1000
0001
0100
,
0001
0000
0001
0000
0000
0000
0100
0000
0000
0000
0000
0000
0100
0001
0100
0001
,
0100
0000
1000
0100
0001
0000
0001
0100
,
1000
0000
0001
0010
1000
0000
0001
0100
,
1000
0000
1000
0010
0001
1000
0100
0001
,
0101
0000
1100
0000
0101
0000
0001
0100
,
1000
0000
1000
0100
0001
0000
1000
0010
,
0001
0000
1000
0100
0001
0000
0001
0010
,
1000
0000
0001
0100
1000
0001
0010
1000
,
0020
0000
0000
0000
0000
0000
0000
0000
0130
0000
0000
0000
0010
0100
0010
0100
,
0010
0000
0000
0000
,
0220
0000
0000
0330
,
2002
0000
0000
3003
,
1000
0001
1000
0000
0100
0000
1000
0001
1000
0000
0100
0000
1000
0001
1000
0001
,
1000
0000
0000
0000
;

//---------------dance-double - ----------------
#NOTES:
     dance-double:
     :
     Beginner:
     1:
     :
00000000
00000000
00000000
00000000
,
00000000
00000000
00000000
00000000
,
00000000
00000000
00000000
00000000
,
00000000
00000000
00000000
00000000
,
00000000
00000000
00000000
00010000
,
00010000
00000000
00010000
00000000
,
10000000
00000000
00010000
00000000
,
10000000
00000000
10000000
00000000
,
02000000
00000000
00000000
03000000
,
01000000
00000000
01000000
00000000
,
00010000
00000000
00010000
00000000
,
00001000
00000000
00001000
00000000
,
00010000
00000000
00010000
00000000
,
00002000
00000000
00000000
00003000
,
00001000
00000000
00000000
00000000
,
00000010
00000000
00000000
00000000
,
00000200
00000000
00000000
00000300
,
00000100
00000000
00000000
00000000
,
00000010
00000000
00000000
00000000
,
00000001
00000000
00000001
00000000
,
00000001
00000000
00000000
00000000
,
00001000
00000000
00000000
00000000
,
00001000
00000000
00000000
00000000
,
00000001
00000000
00000001
00000000
,
00001001
00000000
00000000
00000000
,
00000001
00000000
00000100
00000000
,
00001000
00000000
00000000
00000000
,
00010000
00000000
00001000
00000000
,
00010000
00000000
00000000
00000000
,
00001000
00000000
00010000
00000000
,
01000000
00000000
10000000
00000000
,
00010000
00000000
00010000
00000000
,
10000000
00000000
00000000
00000000
,
00010000
00000000
00010000
00000000
,
10000000
00000000
10000000
00000000
,
00100000
00000000
00100000
00000000
,
01000000
01000000
01000000
00000000
,
00010000
00000000
00010000
00000000
,
10000000
00000000
10000000
00000000
,
01000000
00000000
01000000
00000000
,
00020000
00000000
00000000
00030000
,
00010000
00000000
00010000
00000000
,
00001000
00000000
00001000
00000000
,
00010000
00000000
00001000
00000000
,
00010000
00010000
00010000
00000000
,
00001000
00000000
00001000
00000000
,
00000100
00000000
00000100
00000000
,
00000001
00000000
00000001
00000000
,
00002000
00000000
00000000
00003000
,
00001000
00000000
00000000
00000000
,
00000000
00000000
00000000
00000000
,
00001001
00000000
00000000
00000000
,
00001001
00000000
00000000
00000000
,
00001001
00000000
00000000
00000000
;

//---------------dance-double - ----------------
#NOTES:
     dance-double:
     :
     Easy:
     3:
     :
00000000
00000000
00000000
00000000
,
00000000
00000000
00000000
00000000
,
00000000
00000000
00000000
00000000
,
00000000
00000000
00000000
00000000
,
00000000
00000000
00000000
10000000
,
10000000
00000000
00010000
00000000
,
01000000
01000000
01000000
00000000
,
00001000
00000000
00010000
00000000
,
00000100
00000100
00000100
00000000
,
00000010
00000000
00000001
00000000
,
00001000
00001000
00001000
00000000
,
00000100
00000000
00000100
00000000
,
00020000
00030000
00002000
00003000
,
02000000
00000000
00000000
03000000
,
00020000
00000000
00000000
00030000
,
20000000
00000000
00000000
30000000
,
02000000
00000000
00000000
03000000
,
10000000
00000000
01000000
00000000
,
00010000
00000000
00001000
00000000
,
00010000
00000000
00000100
00000000
,
00002002
00000000
00003003
00000000
,
00000001
00000000
00000100
00000000
,
00001000
00000000
00010000
00000000
,
00001000
00000000
01000000
00000000
,
20020000
00000000
30030000
00000000
,
00100000
00000000
01000000
00000000
,
00010000
00010000
00010000
00000000
,
00001000
00000000
00010000
00000000
,
00000010
00000000
00000100
00000000
,
00000010
00000000
00000100
00000000
,
00001000
00001000
00001000
00000000
,
00010000
00000000
00100000
00000000
,
20020000
00000000
30030000
00000000
,
00100000
00000000
00100000
00000000
,
00010000
10000000
01000000
00000000
,
00010000
00000000
00010000
00000000
,
00001000
00010000
00000100
00000000
,
00000010
00000000
00000010
00000000
,
00001000
00000001
00000100
00000000
,
00001000
00000000
00001000
00000000
,
00010000
00000000
00000000
00000000
,
10000000
00000000
00010000
00000000
,
01000000
01000000
00001000
00000000
,
00010000
00000000
00000100
00000000
,
00000010
00000010
00000001
00000000
,
00001000
00000000
00000001
00000000
,
00000100
00000100
00001000
00000000
,
00010000
00000000
00001000
00000000
,
00020000
00000000
00002000
00033000
,
00011000
00000000
00000000
00000000
,
01100000
00000000
00000000
00000000
,
10010000
00000000
00000000
00000000
,
00011000
00000000
00000000
00000000
,
00001001
00000000
00000000
00000000
;

//---------------dance-double - ----------------
#NOTES:
     dance-double:
     :
     Medium:
     5:
     :
00000000
00000000
00000000
00000000
,
00000000
00000000
00000000
00000000
,
00000000
00000000
00000000
00000000
,
00000000
00000000
00000000
00000000
,
00000000
00000000
00000000
00010000
,
00001000
01000000
00010000
10000000
,
00010000
00000000
01000000
00001000
00010000
00000000
00000000
00000000
,
00010000
00000100
00001000
00000001
,
00001000
00000000
00000100
00010000
00001000
00000000
00000000
00000000
,
00000001
00000100
00001000
00010000
,
01000000
00000000
10000000
01000000
00100000
00000000
00000000
00000000
,
00001000
00100000
00001000
01000000
,
00002000
00013000
00020000
00031000
,
00022000
00000000
00000000
00033000
,
00002020
00000000
00000000
00003030
,
00000102
00000100
00000100
00000103
,
00002200
00000000
00000000
00003300
,
00000001
00001000
00000100
00000000
,
00010000
00001000
00100000
00000000
,
00010000
10000000
00100000
10000000
,
02020000
00000000
03030000
00000000
,
10000000
00010000
01000000
00000000
,
00001000
00010000
00000010
00000000
,
00001000
00000001
00000010
00000001
,
00002200
00000000
00000000
00003300
,
00020000
00000100
00032000
00100000
,
00013000
00010000
00010000
00000000
,
00001000
00100000
00010000
10000000
,
01000000
01000000
00100000
00000000
,
00002000
01000000
00023000
00000010
,
00031000
00001000
00001000
00000000
,
00000010
00001000
00000001
00000100
,
00002002
00000000
00003003
00000000
,
00001000
00010000
00001000
00100000
,
00110000
10010000
01010000
00000000
,
00010000
00001000
00010000
00000010
,
00001010
00001001
00001100
00000000
,
00010000
00001000
01000000
00010000
,
01010000
10010000
00110000
00000000
,
10000000
00010000
01000000
00001000
,
00022000
00000000
00033000
00011000
,
00001000
00010000
00000010
00001000
,
00001010
00001001
00001100
00000000
,
00010000
00001000
01000000
00010000
,
00110000
10010000
01010000
00000000
,
10000000
01000000
00010000
00001000
,
00000110
00001001
00000110
00000000
,
00000001
00000100
00001000
00010000
,
00002000
00000000
00020000
00033000
,
00022000
00000000
00000000
00033000
,
00220000
00000000
00000000
00330000
,
22000000
00000000
00000000
33000000
,
10000000
01000000
00010000
00000000
00001000
00000100
00000001
00000000
,
00001001
00000000
00000000
00000000
;

//---------------dance-double - ----------------
#NOTES:
     dance-double:
     :
     Hard:
     7:
     :
00000000
00000000
00000000
00000000
,
00000000
00000000
00000000
00000000
,
00000000
00000000
00000000
00000000
,
00000000
00000000
00000000
00000000
,
00000000
00000000
00000000
00000001
,
00001000
00000000
00000010
00001000
00000100
00000000
00000010
00000001
,
00000100
00000000
00000001
00000100
00001000
00000000
00010000
01000000
,
10000000
00000000
00010000
01000000
00100000
10000000
01000000
00100000
,
01100000
00000000
01010000
00000000
11000000
00000000
00100000
00100000
,
00100000
00000000
00100000
00010000
01000000
00000000
00100000
10000000
,
01000000
00000000
10000000
01000000
00010000
00000000
00001000
00000100
,
00000001
00000000
00001000
00000100
00000010
00000001
00000100
00000010
,
00001000
00000000
00000000
00000000
00000000
00000000
00000000
00000000
00000100
00000000
00000000
00000000
00010000
00001000
00010000
00001000
,
00010000
00000000
00000000
00000000
00000000
00000000
00000000
00100000
,
10010000
00000000
00000000
00000000
00000000
00000000
00000000
00000000
00000000
00000000
00000000
00000000
00000000
00001000
00010000
00001000
,
00020000
00000100
00000100
00030100
,
00010000
00000000
00000100
00000000
00010000
00000000
00001000
00010000
00001000
00000000
00010000
00000000
00001000
00010000
00001000
00010000
,
00001000
00000000
00000010
00000000
00010000
00000000
00001000
00010000
,
00001000
00000000
00100000
00000000
00010000
00000000
10000000
01000000
,
10000000
00000000
00100000
00000000
00010000
00000000
00001000
00010000
,
00001000
00000000
00010000
00002000
00000000
00000000
00000000
00000000
,
00013000
00001000
00000100
00000001
00001000
00000000
00000010
00000000
,
00000100
00001000
00010000
01000000
00100000
00000000
00010000
00000000
,
10000000
01000000
00100000
00010000
00100000
01000000
10000000
01000000
,
00010000
00000000
00000000
00000000
00001000
00000000
00010000
00000000
00001000
00010000
00001000
00000000
00010000
00001000
00010000
00000000
,
00001000
00000000
00010000
00000100
00000000
00000010
00000000
00000000
,
00000011
00000000
00001100
00000000
00010100
00000000
00010000
01000000
,
00100000
01000000
10000000
00020000
00000000
20030000
00000000
00000000
,
30200000
00000000
10300000
00000000
,
10000000
01000000
10000000
01000000
00000000
01000000
00010000
00000000
,
00001000
00000000
00001000
00000000
00001000
00000000
00010000
00000010
,
00010000
00001000
00010000
00000010
00000000
00000000
00000000
00000000
,
00000001
00000100
00000001
00000000
00001000
00000100
00001000
00000100
00001000
00000000
00000000
00000000
00000001
00000000
00000100
00000000
,
00001000
00000000
00001000
00010000
01000000
00000000
10000000
01000000
,
00010000
00000000
00010000
00001000
00000100
00000000
00000001
00000100
,
00001000
00000000
00010000
01000000
10000000
00100000
10000000
01000000
,
11000000
00000000
01010000
00000000
01001000
00000000
00010000
00001000
,
00000010
00000000
00001000
00010000
01000000
00000000
00010000
00001000
,
00000100
00000000
00001000
00010000
00100000
00000000
00010000
00001000
,
00000100
00000000
00000001
00000010
00001000
00010000
01000000
10000000
,
01000000
00000000
01000000
00000000
00000000
00000000
00010000
00000000
00000000
00000000
00000000
00000000
00001000
00010000
00001000
00010000
,
00001000
00000000
00000010
00010000
00001000
00000000
00100000
00001000
,
00010000
00000000
00000100
00010000
00001000
00000000
01000000
00001000
,
00010000
00000000
00000010
00010000
00001000
01000000
00001000
00010000
,
00011000
00000000
00101000
00000000
00110000
00000000
10000000
01000000
,
00010000
00000000
00001000
01000000
00010000
00000000
00100000
00001000
,
00010000
00000000
00001000
00000100
00000001
00000000
00001000
00000001
,
00000100
00000000
00000010
00010000
00001000
00100000
00001000
01000000
,
00010000
00000000
00000000
00000000
00000000
00000000
00000000
00000000
00001000
00000000
00000000
00000000
00010000
00001000
00010000
00001000
,
00010000
00000000
00000000
00000000
,
00000110
00000000
00000000
00000000
,
00022000
00000000
00000000
00033000
,
00010000
00001000
00010000
00000000
00000100
00000000
00010000
00001000
00010000
00000000
00000100
00000000
00010000
00001000
00010000
00001000
,
00010000
00000000
00000000
00000000
;
