#TITLE:Raise Your Hands;
#ARTIST:Midihead;
#BANNER:Raise Your Hands.png;
#BACKGROUND:Raise Your Hands-bg.png;
#CDTITLE:./CDTITLES/DANCE DANCE REVOLUTION ULTRAMIX 3.png;
#MUSIC:Raise Your Hands.ogg;
#SAMPLESTART:43.625;
#SAMPLELENGTH:15;
#DISPLAYBPM:134;
#BPMS:0=135;

//---------------dance-single - ----------------
#NOTES:
     dance-single:
     :
     Beginner:
     1:
     :
0000
0000
0000
0000
,
0000
0000
0000
0000
,
0000
0000
0000
0000
,
0000
0000
0000
0000
,
0000
0000
0000
0000
,
1000
0000
0000
0000
,
0001
0000
0000
0000
,
0001
0000
0000
0000
,
0010
0000
0000
0000
,
0100
0000
0000
0000
,
0000
0000
0000
0000
,
1000
0000
0000
0000
,
0000
0000
0000
0000
,
0010
0000
0000
0000
,
0000
0000
0000
0000
,
0100
0000
0000
0000
,
0000
0000
0000
0000
,
0001
0000
0000
0000
,
0001
0000
0000
0000
,
1000
0000
0000
0000
,
0100
0000
0000
0000
,
1000
0000
0000
0000
,
0010
0000
0000
0000
,
0100
0000
0000
0000
,
0001
0000
1000
0000
,
1000
0000
0000
0000
,
0001
0000
0000
0000
,
0100
0000
0000
0000
,
0001
0000
1000
0000
,
1000
0000
0000
0000
,
0100
0000
0000
0000
,
0100
0000
0000
0000
,
1000
0000
0000
0000
,
0200
0000
0000
0300
,
0100
0000
0000
0000
,
0000
0000
0000
0000
,
1000
0000
0000
0000
,
0000
0000
0000
0000
,
0100
0000
0000
0000
,
0000
0000
0000
0000
,
1000
0000
0000
0000
,
0010
0000
0000
0000
,
0100
0000
0000
0000
,
0001
0000
0000
0000
,
0010
0000
0001
0000
,
0001
0000
0000
0000
,
0010
0000
0000
0000
,
0100
0000
0000
0000
,
1000
0000
0001
0000
,
0001
0000
0000
0000
,
0001
0000
0000
0000
,
1000
0000
0000
0000
,
0010
0000
1000
0000
,
1000
0000
0000
0000
,
0100
0000
0000
0000
,
0100
0000
0000
0000
,
1000
0000
0010
0000
,
0020
0000
0000
0030
;

//---------------dance-single - ----------------
#NOTES:
     dance-single:
     :
     Easy:
     3:
     :
0000
0000
0000
0000
,
0000
0000
0000
0000
,
0000
0000
0000
0000
,
0000
0000
0000
0000
,
0000
0000
0000
0000
,
1000
0000
1000
0000
,
0010
0000
0010
0000
,
0100
0000
0100
0000
,
0001
0000
0001
0000
,
1000
1000
0001
0000
,
0001
0001
1000
0000
,
0010
0010
0100
0000
,
0100
0100
0010
0000
,
1000
0001
1000
0000
,
0010
0100
0010
0000
,
1000
0100
0010
0000
,
0001
0010
0100
1000
,
0001
0000
0001
0000
,
1000
0000
1000
0000
,
0010
0000
1000
0000
,
0100
1000
0100
0100
,
0010
0000
0001
0000
,
0010
0001
1000
0000
,
0010
1000
0001
0000
,
0001
0100
0010
1000
,
2000
0000
0000
3000
,
1000
0000
0100
0000
,
0010
0000
0001
0000
,
0100
0000
0100
0010
,
0020
0000
0000
0030
,
0010
0000
0000
0000
,
1000
0000
0000
0000
,
0001
0000
0100
0000
,
0002
0000
0000
0003
,
0001
0000
0010
0000
,
0200
0000
0000
0300
,
0100
0000
0100
0000
,
0020
0000
0000
0030
,
0010
0000
0001
0000
,
2000
0000
0000
3000
,
1000
0000
0000
0000
,
1000
0000
0001
0000
,
0100
0000
0010
0000
,
1000
0000
0100
0000
,
0010
0000
0100
1000
,
0010
0000
0100
0100
,
0001
0000
0010
0010
,
0001
0000
0001
0100
,
0100
0000
0001
1000
,
1001
0000
0001
0000
,
1000
0010
1000
0000
,
0001
0100
0001
0000
,
1000
0000
1000
0001
,
0002
0000
0000
0003
,
0001
0000
0000
0000
,
1000
0000
0000
0000
,
0010
0000
1000
1000
,
2002
0000
0000
3003
;

//---------------dance-single - ----------------
#NOTES:
     dance-single:
     :
     Medium:
     5:
     :
0000
0000
0000
0000
,
0000
0000
0000
0000
,
0000
0000
0000
0000
,
0000
0000
0000
0000
,
0000
0000
0000
0000
,
2000
0000
0000
3010
0000
0000
0100
0000
,
0020
0000
0000
0130
0000
0000
0001
0000
,
0200
0000
0000
0301
0000
0000
1000
0000
,
0002
0000
0000
0103
0000
0000
0001
0000
,
1000
0000
0001
0010
0010
0000
0100
0000
,
1000
0000
0010
0010
1000
0000
0001
0000
,
1000
0000
0010
1000
0001
0000
0100
0001
,
1000
0000
0001
0100
0000
0001
0000
0000
,
0100
0000
0001
0100
0010
0000
1000
0000
,
0100
0000
1000
0001
0010
0000
0001
0000
,
0010
0000
0001
0010
0100
0000
1000
0001
,
1000
0000
0001
0100
0000
0100
0000
0000
,
0001
0000
0001
0000
1000
0000
0010
0100
,
0010
0000
1000
0001
1000
0001
0001
0000
,
0001
0000
0010
0001
0100
0000
0100
1000
,
0010
0100
0001
1000
,
0100
0000
0010
0100
1000
0000
0100
1000
,
0001
0000
0010
0001
1000
0001
0001
0000
,
0100
0000
1000
0001
0010
0000
0001
0100
,
0002
0003
0110
1001
,
0110
0000
0001
1000
0000
0010
0100
0100
,
0010
0000
0000
1000
0000
1000
0001
0001
,
1000
0000
0000
0100
0000
0100
0010
0100
,
1000
0000
0000
0001
1001
0000
0110
0000
,
1001
0000
0000
1000
0000
0010
0100
0001
,
0010
0000
0000
0100
0000
1000
0100
0010
,
0001
0000
0000
0001
0000
1000
0010
0010
,
1000
0000
0100
2000
0000
0000
3000
0000
,
0002
0000
0100
0003
,
0020
0000
0001
0030
,
0002
0000
0010
0003
,
2000
0000
0100
3000
,
0200
0000
1000
0300
,
0020
0000
0100
0030
,
0200
0000
0010
0300
,
2000
0001
0001
3001
,
0001
0000
1000
0001
0000
0010
0100
1000
,
0001
0000
0010
0001
0000
0001
0010
0001
,
0100
0000
0001
1000
0000
0010
0100
0100
,
0001
0000
1000
0001
1001
0000
1001
0000
,
1001
0000
1000
0001
1000
0000
0010
0100
,
0010
0000
1000
0001
1000
0000
0001
0100
,
0001
0000
1000
0010
1000
0000
0001
1000
,
0002
0003
0011
1001
,
0011
0000
1000
0100
0100
0000
0010
0001
,
0001
0000
0100
0001
1000
0000
0010
1000
,
0001
0000
0100
0010
1000
0000
0001
1000
,
2000
3000
1001
1001
,
1000
0000
0001
0100
1000
0000
1000
0100
,
0001
0000
0001
0010
0001
0100
0010
1000
,
0001
0000
0100
0010
1000
0000
0001
0100
,
0010
0000
0011
0110
,
2200
0000
0000
3300
;

//---------------dance-single - ----------------
#NOTES:
     dance-single:
     :
     Hard:
     6:
     :
0000
0000
0000
0000
,
0000
0000
0000
0000
,
0000
0000
0000
0000
,
0000
0000
0000
0000
,
0000
0000
0000
0000
,
2000
0000
0000
3001
0000
1000
0010
1000
,
0002
0000
0000
1003
0000
0001
0100
0001
,
0200
0000
0000
0310
0000
0100
0001
1000
,
0020
0000
0030
1000
0000
1000
0100
1000
,
0010
0000
1000
0010
0100
0001
1000
0100
,
1000
0000
0001
0100
0010
1000
0001
0010
,
0001
0000
1000
0100
1000
0010
0100
0001
,
1000
0000
0001
2000
0000
0010
0000
0000
,
3100
0000
0100
1000
0010
1000
0100
0010
,
0001
0000
1000
0010
0100
0001
0100
0001
,
1000
0000
0001
1000
0100
0010
0100
1000
,
0001
0000
1000
0200
0000
0001
0000
0000
,
1300
0000
0001
1000
0001
0000
0100
0001
,
0100
0000
0010
1000
0100
0010
0001
1000
,
0001
0000
0010
0100
0010
0000
0001
1000
,
1000
1020
1000
1030
,
0001
0000
0010
0001
1000
0000
0100
1000
,
0010
0000
1000
0001
0100
0100
0010
1000
,
0001
0000
0100
0001
0010
0010
0100
1000
,
0200
0300
1100
1010
,
0020
0000
0000
0000
0030
1000
0100
0010
,
0002
0000
0000
0103
0000
0100
0010
1000
,
0002
0000
0000
0013
0000
0010
0100
1000
,
0020
0000
1030
1000
,
0200
0000
0000
0300
0000
0100
0001
0100
,
2000
0000
0000
3000
0000
1000
0010
0001
,
0020
0000
0000
0030
0000
0100
0001
0100
,
0010
0000
0100
0002
0000
0000
0003
0000
,
1020
0100
0001
0130
,
0210
1000
0010
0301
,
2001
0100
0010
3001
,
2010
0000
0000
0000
0000
0000
0001
0000
0001
0000
0000
0001
0000
3000
0001
0000
,
0002
0000
0200
0303
,
2000
0000
0010
0000
0002
0000
3003
0100
,
0200
0000
1000
0300
,
0010
0010
1000
1000
,
0100
0000
1000
0001
0000
0100
0010
1000
,
1001
0000
1000
0010
0000
0010
0100
0010
,
0110
0000
0001
0100
0000
0001
0010
0001
,
0011
0000
0001
1000
1010
0000
1001
0000
,
1100
0000
0001
1000
1000
0000
0010
0100
,
0100
0000
0001
0010
0001
0001
1000
0010
,
1010
0000
0010
0100
0100
0000
0001
0100
,
0010
1000
1001
0101
,
0110
0000
0001
1000
0001
0000
0010
0100
,
0010
0000
0001
1000
0001
0100
0010
1000
,
1010
0000
0001
1000
0010
0010
1000
0001
,
2002
3003
1001
0010
,
2020
0000
0000
3030
,
1001
0000
1000
0001
0010
0100
0010
0001
,
0011
0000
0010
0100
1000
0100
0010
0001
,
0101
0000
0010
0010
0110
0000
1001
0000
,
0220
0000
0000
0330
;

//---------------dance-double - ----------------
#NOTES:
     dance-double:
     :
     Beginner:
     1:
     :
00000000
00000000
00000000
00000000
,
00000000
00000000
00000000
00000000
,
00000000
00000000
00000000
00000000
,
00000000
00000000
00000000
00000000
,
00000000
00000000
00000000
00000000
,
10000000
00000000
00000000
00000000
,
00010000
00000000
00000000
00000000
,
01000000
00000000
00000000
00000000
,
00100000
00000000
00000000
00000000
,
10000000
00000000
00000000
00000000
,
00000000
00000000
00000000
00000000
,
01000000
00000000
00000000
00000000
,
00000000
00000000
00000000
00000000
,
00010000
00000000
00000000
00000000
,
00000000
00000000
00000000
00000000
,
00001000
00000000
00000000
00000000
,
00000000
00000000
00000000
00000000
,
00000100
00000000
00000000
00000000
,
00000001
00000000
00000000
00000000
,
00000010
00000000
00000000
00000000
,
00000001
00000000
00000000
00000000
,
00001000
00000000
00000000
00000000
,
00000100
00000000
00000000
00000000
,
00000010
00000000
00000000
00000000
,
00000010
00000000
00000100
00000000
,
00000100
00000000
00000000
00000000
,
00001000
00000000
00000000
00000000
,
00000010
00000000
00000000
00000000
,
00000100
00000000
00000010
00000000
,
00000010
00000000
00000000
00000000
,
00000100
00000000
00000000
00000000
,
00001000
00000000
00000000
00000000
,
00010000
00000000
00000000
00000000
,
02000000
00000000
00000000
03000000
,
01000000
00000000
00000000
00000000
,
00000000
00000000
00000000
00000000
,
10000000
00000000
00000000
00000000
,
00000000
00000000
00000000
00000000
,
01000000
00000000
00000000
00000000
,
00000000
00000000
00000000
00000000
,
00010000
00000000
00000000
00000000
,
00001000
00000000
00000000
00000000
,
00010000
00000000
00000000
00000000
,
01000000
00000000
00000000
00000000
,
10000000
00000000
00010000
00000000
,
00010000
00000000
00000000
00000000
,
10000000
00000000
00000000
00000000
,
01000000
00000000
00000000
00000000
,
00010000
00000000
00001000
00000000
,
00001000
00000000
00000000
00000000
,
00000100
00000000
00000000
00000000
,
00000001
00000000
00000000
00000000
,
00000010
00000000
00000100
00000000
,
00000100
00000000
00000000
00000000
,
00001000
00000000
00000000
00000000
,
00000001
00000000
00000000
00000000
,
00000100
00000000
00000001
00000000
,
00000002
00000000
00000000
00000003
;

//---------------dance-double - ----------------
#NOTES:
     dance-double:
     :
     Easy:
     3:
     :
00000000
00000000
00000000
00000000
,
00000000
00000000
00000000
00000000
,
00000000
00000000
00000000
00000000
,
00000000
00000000
00000000
00000000
,
00000000
00000000
00000000
00000000
,
00100000
00000000
00100000
00000000
,
01000000
00000000
01000000
00000000
,
00010000
00000000
00010000
00000000
,
01000000
00000000
01000000
00000000
,
00100000
00100000
10000000
00000000
,
01000000
01000000
00010000
00000000
,
00001000
00000100
00000001
00000000
,
00000010
00000100
00001000
00000000
,
00000010
00001000
00000001
00000000
,
00001000
00000010
00000100
00000000
,
00000001
00000010
00000100
00000000
,
00001000
00000010
00000100
00001000
,
00010000
00000000
00010000
00000000
,
00001000
00000000
00001000
00000000
,
00010000
00000000
00001000
00000000
,
00010000
01000000
10000000
01000000
,
00100000
00000000
00010000
00000000
,
01000000
00010000
00010000
00000000
,
01000000
00010000
10000000
00000000
,
00100000
01000000
00100000
10000000
,
20000000
00000000
00000000
30000000
,
10000000
00000000
01000000
00000000
,
00010000
00000000
00001000
00000000
,
00001000
00000000
00000100
00000001
,
00000002
00000000
00000000
00000003
,
00000001
00000000
00000000
00000000
,
00000010
00000000
00000000
00000000
,
00000100
00000000
00001000
00000000
,
00000200
00000000
00000000
00000300
,
00000100
00000000
00000010
00000000
,
00000002
00000000
00000000
00000003
,
00000001
00000000
00000100
00001000
,
00020000
00000000
00000000
00030000
,
00010000
00000000
01000000
01000000
,
20000000
00000000
00000000
30000000
,
10000000
00000000
00010000
00000000
,
00010000
00000000
10000000
00000000
,
00100000
00000000
01000000
00000000
,
00010000
00000000
00100000
00000000
,
01000000
00000000
01000000
00010000
,
00001000
00000000
00001000
00000100
,
00000001
00000000
00001000
00000100
,
00000010
00000000
00000010
00000001
,
00000001
00000000
00000100
00001000
,
00011000
00000000
00010000
00000000
,
01000000
10000000
10000000
00000000
,
00010000
00100000
00010000
00000000
,
01000000
00000000
00010000
00100000
,
00200000
00000000
00000000
00300000
,
00100000
00000000
00000000
00000000
,
01000000
00000000
00010000
00000000
,
00001000
00000000
00001000
00010000
,
00022000
00000000
00000000
00033000
;

//---------------dance-double - ----------------
#NOTES:
     dance-double:
     :
     Medium:
     5:
     :
00000000
00000000
00000000
00000000
,
00000000
00000000
00000000
00000000
,
00000000
00000000
00000000
00000000
,
00000000
00000000
00000000
00000000
,
00000000
00000000
00000000
00000000
,
00000002
00000000
00000000
00000103
00000000
00000000
00000010
00000000
,
00002000
00000000
00000000
00003100
00000000
00000000
00000100
00000000
,
00002000
00000000
00000000
00003001
00000000
00000000
00000001
00000000
,
00000200
00000000
00000000
00001300
00000000
00000000
00010000
00000000
,
01000000
00000000
10000000
01000000
01000000
00000000
00100000
00000000
,
00010000
00000000
00100000
00100000
00010000
00000000
01000000
00000000
,
00001000
00000000
00010000
00001000
00010000
00000000
00001000
00000100
,
00000001
00000000
00001000
00000100
00000000
00000010
00000000
00000000
,
00000100
00000000
00001000
00000001
00000100
00000000
00000010
00000000
,
00000100
00000000
00000001
00000100
00001000
00000000
00010000
00000000
,
01000000
00000000
10000000
00100000
01000000
00000000
01000000
00010000
,
00100000
00000000
01000000
10000000
00000000
01000000
00000000
00000000
,
01000000
00000000
10000000
00000000
00100000
00000000
00100000
10000000
,
00100000
00000000
01000000
00010000
10000000
01000000
00010000
00000000
,
00001000
00000000
00000100
00000001
00000100
00000001
00000001
00000000
,
00001000
00000010
00000100
00000100
,
00000001
00000000
00000001
00000100
00001000
00000000
00010000
01000000
,
10000000
00000000
00100000
10000000
10000000
00010000
00010000
00000000
,
01000000
00000000
00100000
10000000
01000000
00000000
10000000
00100000
,
02000000
03000000
00100000
10000000
,
10100000
00000000
00100000
10000000
00000000
01000000
00100000
01000000
,
01000000
00000000
00000000
01000000
00000000
00010000
00001000
00010000
,
00001000
00000000
00000100
00000001
00000000
00001000
00000001
00001000
,
00000100
00000000
00000000
00000010
00001000
00000000
00001001
00000000
,
00001001
00000000
00001000
00000001
00000000
00000100
00001000
00010000
,
01000000
00000000
00000000
10000000
00000000
10000000
01000000
00100000
,
00010000
00000000
00000000
00100000
00000000
01000000
00100000
00100000
,
00010000
00000000
00000000
02000000
00000000
00000000
03000000
00000000
,
00020000
00000000
00130000
00000000
,
00200000
00000000
00301000
00000000
,
00020000
00000000
00031000
00000000
,
00000200
00000000
00000301
00000000
,
00002000
00000000
00003010
00000000
,
00000200
00000000
00000301
00000000
,
00000002
00000000
00000013
00000000
,
00000002
00000100
00000100
00000103
,
00000010
00000000
00001000
00000100
00000000
00000010
00000100
00000010
,
00000001
00000000
00000100
00000010
00000000
00001000
00000100
00000010
,
00000001
00000000
00000100
00000100
00000000
00000001
00001000
00001000
,
00000100
00000000
00000010
00000100
00000110
00000000
00001001
00000000
,
00000110
00000000
00000001
00000100
00001000
00000000
00010000
01000000
,
10000000
00000000
10000000
00010000
10000000
00000000
00100000
01000000
,
00100000
00000000
10000000
01000000
10000000
00000000
00010000
10000000
,
02000000
03000000
01100000
10010000
,
01100000
00000000
10000000
01000000
01000000
00000000
01000000
00010000
,
00010000
00000000
00001000
00000100
00000001
00000000
00000100
00000001
,
00000001
00000000
00001000
00000100
00000010
00000000
00000010
00000001
,
00000002
00000003
00000101
00000101
,
00000100
00000000
00000001
00000100
00001000
00000000
00010000
00001000
,
00010000
00000000
00010000
01000000
10000000
01000000
00100000
00010000
,
10000000
00000000
01000000
00100000
00010000
01000000
00001000
00010000
,
00000000
00000000
00010000
00011000
,
00022000
00000000
00000000
00033000
;

//---------------dance-double - ----------------
#NOTES:
     dance-double:
     :
     Hard:
     7:
     :
00000000
00000000
00000000
00000000
,
00000000
00000000
00000000
00000000
,
00000000
00000000
00000000
00000000
,
00000000
00000000
00000000
00000000
,
00000000
00000000
00000000
00000000
,
00200000
00000000
00000000
00310000
00000000
01000000
00100000
01000000
,
00020000
00000000
00000000
01030000
00000000
00100000
01000000
10000000
,
02000000
00000000
00000000
03010000
00000000
00100000
01000000
00010000
,
00002000
00000000
00003000
00000200
00000000
00000000
00000300
00000000
,
00000001
00000000
00000001
00001000
00000010
00000100
00000001
00001000
,
00000100
00000000
00000010
00000001
00000100
00001000
00010000
01000000
,
10000000
00000000
10000000
00100000
01000000
00010000
01000000
00010000
,
10000000
00000000
00010000
02000000
00000000
00100000
03000000
00000000
,
01000000
00000000
01000000
00010000
00100000
01000000
01000000
00010000
,
00010000
00000000
00001000
00000100
00000001
00000001
00000010
00000100
,
00001000
00000000
00000010
00010000
00001000
00100000
00010000
01000000
,
00010000
00000000
10000000
02000000
00000000
00100000
00000000
00000000
,
13000000
00000000
00010000
00100000
10000000
00000000
10000000
00100000
,
00010000
00000000
00100000
00001000
00010000
00000100
00010000
00001000
,
00010000
00000000
00001000
00000100
00000001
00000000
00000100
00000000
,
00000010
00002001
00000001
00003001
,
00000010
00000000
00001000
00000100
00000010
00000000
00000001
00000010
,
00000100
00000000
00001000
00000001
00000010
00000001
00001000
00000100
,
00000010
00000000
00000001
00000100
00000010
00001000
00000100
00010000
,
00002000
00003000
00011000
01001000
,
00020000
00000000
00000000
00000000
00030000
10000000
00010000
00100000
,
00020000
00000000
00000000
01030000
00000000
01000000
00100000
01000000
,
00200000
00000000
00000000
10300000
00000000
10000000
01000000
00010000
,
00002000
00000000
00003100
00000001
,
00002002
00000000
00000000
00003003
00000000
00001000
00000010
00001000
,
00000200
00000000
00000000
00000300
00000000
00001000
00000100
00000100
,
00002000
00000000
00000000
00003000
00000000
00000010
00001000
00000001
,
00000100
00000000
00000010
00020000
00000000
00000000
00030000
00000000
,
00002000
00100000
00010000
01003000
,
00020000
01000000
00100000
10030000
,
02000000
00010000
10000000
03010000
,
00002000
00000000
00000000
00000000
00000000
00000000
00010000
00000000
00010000
00000000
00000000
00010000
00003000
00000000
00010000
00000000
,
00020000
00000000
00000020
00030030
,
00002000
00000000
00000000
00000000
00000000
00000000
00000000
00000002
00000000
00000000
00000000
00000000
00003003
00000000
00000000
00000000
,
00000200
00000000
00000010
00000300
,
00000001
00000001
00000010
00000010
,
00000011
00000000
00001000
00000100
00000000
00000100
00000010
00000001
,
00000011
00000000
00001000
00000010
00000000
00001000
00000001
00001000
,
00001001
00000000
00000100
00000010
00000000
00001000
00000100
00001000
,
00001100
00000000
00010000
00001000
00011000
00000000
00101000
00000000
,
00110000
00000000
00010000
01000000
01000000
00000000
00100000
10000000
,
10000000
00000000
00010000
00100000
00010000
00010000
10000000
01000000
,
11000000
00000000
01000000
00010000
00010000
00000000
00010000
00001000
,
00010000
00000100
00001100
00000110
,
00001001
00000000
00000100
00000010
00000100
00000000
00000001
00001000
,
00000001
00000000
00000010
00001000
00000100
00000010
00000100
00001000
,
00001100
00000000
00001000
00000100
00010000
00001000
01000000
00010000
,
20000000
30000000
01100000
00100000
,
20200000
00000000
00000000
30300000
,
10100000
00000000
10000000
10000000
00100000
10000000
00100000
00010000
,
00001000
00000000
00000010
00000001
00000100
00000001
00001000
00000010
,
00000020
00000000
00000000
00000030
00001010
00000000
00001100
00000000
,
00002002
00000000
00000000
00003003
;
