#TITLE:PARADE OF THE WOODEN SOLDIERS;
#ARTIST:Leon Jessel;
#BANNER:PARADE OF THE WOODEN SOLDIERS.png;
#BACKGROUND:PARADE OF THE WOODEN SOLDIERS-bg.png;
#CDTITLE:./CDTITLES/KEYBOARDMANIA.png;
#MUSIC:PARADE OF THE WOODEN SOLDIERS.ogg;
#SAMPLESTART:1.925;
#SAMPLELENGTH:15;
#BPMS:0=125;

//---------------dance-single - ----------------
#NOTES:
     dance-single:
     :
     Beginner:
     1:
     :
0000
0000
0000
0000
,
0000
0000
0000
0000
,
0000
0000
0000
0000
,
0001
0000
0001
0000
,
1000
0000
1000
0000
,
0010
0000
0010
0000
,
0100
0100
0100
0000
,
0001
0000
0001
0000
,
1000
0000
1000
0000
,
0010
0000
0010
0000
,
0100
0100
0100
0000
,
0100
0000
0000
0000
,
0001
0000
0000
0000
,
1000
0000
1000
0000
,
1000
0000
0000
0000
,
0001
0000
0001
0000
,
0001
0000
0000
0000
,
0010
0000
0010
0000
,
0010
0000
0000
0000
,
0100
0000
0000
0000
,
1001
0000
0000
0000
,
0010
0000
0010
0000
,
0010
0000
0000
0000
,
1000
0000
1000
0000
,
0001
0000
0001
0000
,
1000
1000
1000
0000
,
0010
0000
0010
0000
,
0100
0000
0000
0000
,
0001
0000
0001
0000
,
0001
0000
0000
0000
,
1000
0000
1000
0000
,
1000
0000
0000
0000
,
0010
0000
0010
0000
,
0010
0000
0000
0000
,
0100
0000
0100
0000
,
0100
0100
0100
0000
,
0001
0000
0001
0000
,
0001
0000
0000
0000
,
1000
0000
1000
0000
,
0100
0100
0100
0000
,
0010
0000
0010
0000
,
0001
0001
0001
0000
,
1000
0000
1000
0000
,
0000
0000
1001
0000
,
0000
0000
0000
0000
,
0000
1000
1000
1000
,
0000
0001
0000
1001
;

//---------------dance-single - ----------------
#NOTES:
     dance-single:
     :
     Easy:
     2:
     :
0000
0000
0000
0000
,
0000
0000
0000
0000
,
0000
0000
0000
0000
,
1000
0000
0001
0000
,
1000
0001
1000
0000
,
0100
0000
0010
0000
,
0100
0010
0100
0000
,
1000
0000
0100
0000
,
1000
0100
1000
0000
,
0001
0000
0100
0000
,
0001
0100
0001
0000
,
1000
1000
1000
1000
,
0001
0001
0001
0001
,
1000
0000
0010
0000
,
0100
0001
0100
0000
,
0001
0000
1000
0000
,
0001
1000
0001
0000
,
0100
0000
0010
0000
,
0100
0010
0100
0000
,
0010
0000
1000
0000
,
0010
1000
0010
0000
,
1000
0000
0001
0000
,
1000
1000
0001
0000
,
0001
0000
0010
0000
,
0100
0100
0010
0000
,
0001
1000
0001
1000
,
0001
0000
0100
0000
,
0010
0100
0010
0000
,
1000
0000
0100
0000
,
1000
0100
1000
0000
,
0001
0000
0100
0000
,
0001
0100
0001
0000
,
1000
0000
0001
0000
,
1000
0001
1000
0000
,
1001
0000
1001
0000
,
0001
0001
0001
0000
,
1000
0000
0001
0000
,
0010
0100
0010
0000
,
0100
0000
0010
0000
,
0100
0010
0100
0000
,
1000
1000
0001
0001
,
1000
0001
1000
0001
,
1000
1000
0001
0001
,
0000
0000
2002
0000
,
0000
0000
0000
0000
,
3003
1000
1000
0200
,
0300
2000
3000
0002
,
0000
0000
0000
0003
;

//---------------dance-single - ----------------
#NOTES:
     dance-single:
     :
     Medium:
     4:
     :
0000
0000
0000
0000
,
0000
0000
0000
0000
,
0000
0000
0000
0000
,
1000
1000
0001
0001
,
0010
0001
0100
1000
,
0010
0010
0100
0100
,
0010
0100
1001
0000
,
0001
0001
1000
1000
,
0010
1000
0100
0001
,
0010
0010
0100
0100
,
0010
0100
1001
0000
,
1000
1000
0001
0001
,
1000
1000
0001
0001
,
0010
0100
0010
0100
,
1000
0000
0001
0000
1000
1000
1000
0000
,
0100
0010
0100
0010
,
0001
0000
1000
0000
0001
0001
0001
0000
,
0100
0010
0100
0010
,
1000
0000
0001
0000
1000
1000
1000
0000
,
0001
0001
1000
1000
,
1000
0110
1001
0000
,
0002
0000
2003
0000
,
3010
1000
0100
0001
,
0020
0000
2030
0000
,
3100
0001
0010
1000
,
0001
1000
0001
1001
,
0100
0010
0100
0010
,
0001
0000
1000
0000
0001
0001
0001
0000
,
0010
0100
0010
0100
,
1000
0000
0001
0000
1000
1000
1000
0000
,
0100
0010
0100
0010
,
0001
0000
1000
0000
0001
0001
0001
0000
,
1000
1000
0001
0001
,
1001
0000
0000
0100
0010
0000
0000
0000
,
1100
0000
0101
0000
,
0100
0010
1001
0000
,
0001
0001
1000
1000
,
0010
1000
0100
0001
,
0010
0010
0100
0100
,
0010
0100
1001
0000
,
1000
1000
0001
0001
,
0010
0001
0100
1000
,
0010
0100
0010
1001
,
0000
0000
0220
0000
,
0000
0000
0000
0000
,
0330
0100
1000
1100
,
0000
0101
0000
1001
;

//---------------dance-single - ----------------
#NOTES:
     dance-single:
     :
     Hard:
     8:
     :
0000
0000
0000
0000
,
0000
0000
0000
0000
,
0000
0000
0000
0000
0000
0000
0000
0000
0000
0000
0000
0000
0000
0000
1000
0001
,
1000
0000
0001
0000
1000
0000
0010
1000
0010
0000
1000
0000
0100
0000
0010
0001
,
0010
0000
0001
0000
0010
0000
0100
0000
1000
0001
1000
0001
1000
0000
0001
1000
,
0001
0000
1000
0000
0001
0000
0100
0001
0100
0000
0001
0000
1000
0000
0001
1000
,
0002
0000
0000
0000
2003
0000
0000
0000
3002
0000
0000
0000
0003
0000
1000
0100
,
1000
0000
0100
0000
0010
0000
0001
0010
0001
0000
0010
0000
0100
0000
1000
0100
,
1000
0000
0100
0000
0010
0000
0001
0000
1000
0001
1000
0001
1000
0000
0001
0100
,
0001
0000
0100
0000
0010
0000
1000
0010
1000
0000
0010
0000
0100
0000
0001
0100
,
0002
2003
3002
0003
,
0001
0000
0100
0000
0001
0100
0001
0100
0010
0000
1000
0000
0010
1000
0010
1000
,
0010
0000
1000
0000
0001
0100
0001
0100
0010
0000
1000
0000
1000
0000
0000
0000
,
1000
0100
1000
0000
0010
0000
1000
0000
0100
1000
0010
0000
1000
0000
0100
0000
,
1000
0000
0000
0010
1000
0000
0100
0000
1000
0000
0010
0000
1000
0000
0000
0000
,
0100
0001
0100
0000
1000
0000
0100
0000
0001
0100
1000
0000
0100
0000
0001
0000
,
0100
0000
0000
1000
0100
0000
0001
0000
0100
0000
1000
0000
0100
0000
0000
0000
,
0001
0100
0001
0000
0010
0000
0001
0000
0100
0001
0010
0000
0001
0000
0100
0000
,
0001
0000
0000
0010
0001
0000
0100
0000
0001
0000
0010
0000
0001
0000
0000
0000
,
0200
0302
0023
2030
,
3001
0000
0001
0000
1000
0001
1000
0001
1000
0000
0001
0000
1000
0000
0000
0000
,
2000
0000
3001
0010
0200
0000
1300
0001
,
0010
0100
1000
0100
0010
0001
1001
0001
,
0200
0000
0310
1000
0002
0000
0103
0010
,
2000
0000
3000
0010
0100
0001
1001
0000
,
0002
0000
0203
0000
2300
0000
3020
0030
,
1000
0100
1000
0000
0010
0000
1000
0000
0100
1000
0010
0000
1000
0000
0100
0000
,
1000
0000
0000
0010
1000
0000
0100
0000
1000
0000
0010
0000
1000
0000
0000
0000
,
0100
1000
0100
0000
0001
0000
0100
0000
1000
0100
0001
0000
0100
0000
1000
0000
,
0100
0000
0000
0001
0100
0000
1000
0000
0100
0000
0001
0000
0100
0000
0000
0000
,
0001
0010
0001
0000
0100
0000
0001
0000
0010
0001
0100
0000
0001
0000
0010
0000
,
0001
0000
0000
0100
0001
0000
0010
0000
0001
0000
0100
0000
0001
0000
0000
0000
,
1000
0000
0000
0100
0010
0000
0001
0000
1000
0000
0001
0000
1000
0000
0001
0000
,
1000
0000
0000
0000
0000
0000
0100
0000
0010
0000
0000
0000
0000
0000
1000
0100
,
1000
0000
0000
0000
0000
0000
0001
0100
0001
0000
0000
0000
0000
0000
1000
0001
,
1000
0000
0001
1000
0001
0000
0100
0000
0010
0000
0000
0000
0000
0000
1000
0001
,
1000
0000
0001
0000
1000
0000
0010
1000
0010
0000
1000
0000
0100
0000
0010
0001
,
0010
0000
0001
0000
0010
0000
0100
0000
1000
0001
1000
0001
1000
0000
0001
1000
,
0001
0000
1000
0000
0001
0000
0100
0001
0100
0000
0001
0000
1000
0000
0001
1000
,
0002
0000
0000
0000
2003
0000
0000
0000
3002
0000
0000
0000
0003
0000
1000
0100
,
1000
0000
0100
0000
0010
0000
0001
0010
0001
0000
0010
0000
0100
0000
1000
0100
,
1000
0000
0100
0000
0010
0000
0001
0000
1000
0001
1000
0001
1000
0000
0001
0100
,
0001
0000
0100
0000
0010
0000
1000
0010
1000
0000
0010
0000
0100
0000
0000
0000
,
0000
0000
0000
0000
0001
0010
0100
1000
,
0100
0000
0010
0000
0001
0000
0010
0000
0100
1000
0100
0010
0001
0010
0100
1000
,
0100
0020
0032
2003
,
3000
0110
0000
1001
;

//---------------dance-double - ----------------
#NOTES:
     dance-double:
     :
     Beginner:
     1:
     :
00000000
00000000
00000000
00000000
,
00000000
00000000
00000000
00000000
,
00000000
00000000
00000000
00000000
,
00000001
00000000
00000001
00000000
,
00000100
00000000
00000100
00000000
,
00001000
00000000
00001000
00000000
,
00010000
00010000
00010000
00000000
,
01000000
00000000
01000000
00000000
,
10000000
00000000
10000000
00000000
,
01000000
00000000
01000000
00000000
,
00010000
00010000
00010000
00000000
,
00010000
00000000
00000000
00000000
,
00001000
00000000
00000000
00000000
,
00000100
00000000
00000100
00000000
,
00000001
00000000
00000000
00000000
,
00001000
00000000
00001000
00000000
,
00000010
00000000
00000000
00000000
,
00000100
00000000
00000100
00000000
,
00001000
00000000
00000000
00000000
,
00010000
00000000
00000000
00000000
,
00011000
00000000
00000000
00000000
,
00010000
00000000
00010000
00000000
,
01000000
00000000
00000000
00000000
,
10000000
00000000
10000000
00000000
,
00100000
00000000
00100000
00000000
,
10000000
10000000
10000000
00000000
,
01000000
00000000
01000000
00000000
,
00010000
00000000
00000000
00000000
,
00001000
00000000
00001000
00000000
,
00000010
00000000
00000000
00000000
,
00000001
00000000
00000001
00000000
,
00001000
00000000
00000000
00000000
,
00000001
00000000
00000001
00000000
,
00000100
00000000
00000000
00000000
,
00001000
00000000
00001000
00000000
,
00010000
00010000
00010000
00000000
,
01000000
00000000
01000000
00000000
,
00010000
00000000
00000000
00000000
,
00001000
00000000
00001000
00000000
,
00010000
00010000
00010000
00000000
,
00001000
00000000
00001000
00000000
,
00000100
00000100
00000100
00000000
,
00000001
00000000
00000001
00000000
,
00000000
00000000
00001001
00000000
,
00000000
00000000
00000000
00000000
,
00000000
00010000
00010000
00010000
,
00000000
00001000
00000000
00011000
;

//---------------dance-double - ----------------
#NOTES:
     dance-double:
     :
     Easy:
     2:
     :
00000000
00000000
00000000
00000000
,
00000000
00000000
00000000
00000000
,
00000000
00000000
00000000
00000000
,
00000001
00000000
00000100
00000000
,
00000002
00000000
00000000
00000003
,
00000100
00000000
00001000
00000000
,
00001000
00010000
00010000
00000000
,
01000000
00000000
00010000
00000000
,
00020000
00000000
00000000
00030000
,
01000000
00000000
10000000
00000000
,
00100000
10000000
01000000
00000000
,
00010000
00010000
00001000
00001000
,
00010000
00010000
00001000
00001000
,
00010000
00000000
00001000
00000000
,
00000200
00000000
00000000
00000300
,
00000001
00000000
00001000
00000000
,
00000020
00000000
00000000
00000030
,
00001000
00000000
00000001
00000000
,
00000200
00000000
00000000
00000300
,
00001000
00001000
00010000
00010000
,
00002000
00003000
00020000
00030000
,
01000000
00000000
10000000
00000000
,
00010000
00010000
10000000
10000000
,
00010000
00000000
10000000
00000000
,
01000000
00000000
00010000
00000000
,
00001000
00001000
00001000
00001000
,
00011000
00000000
00001000
00000000
,
00000200
00000000
00000000
00000300
,
00000001
00000000
00001000
00000000
,
00000020
00000000
00000000
00000030
,
00000100
00000000
00001000
00000000
,
00020000
00000000
00000000
00030000
,
00010000
00000000
00001000
00000000
,
00010000
01000000
00010000
00000000
,
00011000
00000000
00011000
00000000
,
00001000
00010000
00011000
00000000
,
00010000
00000000
01000000
00000000
,
20000000
00000000
00000000
30000000
,
00100000
00000000
01000000
00000000
,
00020000
00000000
00000000
00030000
,
10000000
10000000
01000000
01000000
,
10000000
01000000
10000000
01000000
,
00010000
00010000
00001000
00001000
,
00000000
00000000
00022000
00000000
,
00000000
00000000
00000000
00000000
,
00033000
00010000
00001000
00000200
,
00000300
00000002
00000003
00002000
,
00000000
00000000
00000000
00003000
;

//---------------dance-double - ----------------
#NOTES:
     dance-double:
     :
     Medium:
     5:
     :
00000000
00000000
00000000
00000000
,
00000000
00000000
00000000
00000000
,
00000000
00000000
00000000
00000000
,
00001000
00001000
00000001
00000001
,
00000100
00001000
00010000
01000000
,
10000000
10000000
00010000
00010000
,
10000000
00100000
01000000
00000000
,
00010000
00010000
10000000
10000000
,
01000000
00010000
00001000
00000100
,
00000001
00000001
00001000
00001000
,
00000001
00000100
00000010
00000000
,
00001000
00000001
00000100
00001000
,
00010000
01000000
10000000
00100000
,
00100000
10000000
01000000
00000000
10000000
00100000
10000000
00000000
,
01000000
10000000
00100000
00000000
,
10000000
01000000
00010000
00000000
01000000
00010000
00001000
00000000
,
00010000
00001000
00000100
00000001
,
00000010
00000001
00000100
00000000
00000001
00000010
00000001
00000000
,
00000100
00000001
00000010
00000000
,
00000002
00002003
00003200
00020300
,
00032000
00000000
00003000
00000000
00010000
00001000
00010000
00000000
,
00022000
00033000
02020000
03030000
,
00010000
01000000
10000000
00100000
,
02200000
03300000
20020000
30030000
,
10000000
00000000
00000000
00000000
00010000
10000000
00010000
00000000
,
10000000
00010000
10000000
10010000
,
00100000
10000000
01000000
00000000
10000000
00100000
10000000
00000000
,
01000000
10000000
00100000
00000000
,
10000000
01000000
00010000
00000000
01000000
00010000
00001000
00000000
,
00010000
00001000
00000100
00000001
,
00000010
00000001
00000100
00000000
00000001
00000010
00000001
00000000
,
00000100
00000001
00000010
00000000
,
00000001
00001000
00000001
00001000
,
00001001
00000000
00000000
00000100
00000100
00000000
00000000
00000000
,
00000110
00000000
00001001
00000000
,
00000010
00000100
00001001
00000000
,
00001000
00001000
00000001
00000001
,
00000100
00001000
00010000
01000000
,
10000000
10000000
00010000
00010000
,
10000000
00100000
01000000
00000000
,
00010000
00010000
10000000
10000000
,
01000000
00010000
00001000
00000100
,
00000001
00000001
00001000
00001000
,
00000000
00000000
00000002
00000103
,
00002000
00013000
02000000
23000000
,
30000000
10000000
01000000
00100000
,
00000000
00101000
00000000
00011000
;

//---------------dance-double - ----------------
#NOTES:
     dance-double:
     :
     Hard:
     7:
     :
00000000
00000000
00000000
00000000
,
00000000
00000000
00000000
00000000
,
00000000
00000000
00000000
00000000
,
10000000
01000000
00010000
01000000
10000000
01000000
00010000
00001000
,
00010000
00001000
00000100
00000001
00000010
00000001
00000100
00000000
,
00000001
00000010
00001000
00010000
00100000
10000000
10000000
00100000
,
00020000
00032000
00023000
00030000
,
00001000
00000100
00000001
00000010
00000001
00000100
00001000
00000100
,
00000001
00000010
00001000
00010000
00100000
10000000
10000000
00000000
,
10000000
01000000
00010000
01000000
10000000
01000000
00010000
00001000
,
00020000
00032000
00023000
00030000
,
00001000
00000100
00000001
00000100
00001000
00010000
00001000
00010000
,
01000000
10000000
01000000
10000000
00100000
00010000
00100000
00010000
,
00001000
00010000
00001000
00000000
00010000
00001000
00000100
00000000
,
00001000
00000000
00000000
00001000
00000100
00000000
00000001
00000000
00000010
00000000
00000001
00000000
00000010
00000000
00000000
00000000
,
00000001
00000100
00001000
00000000
00000100
00001000
00010000
00000000
,
00001000
00000000
00000000
00001000
00000100
00000000
00001000
00000000
00010000
00000000
00001000
00000000
00010000
00000000
00000000
00000000
,
00010000
01000000
10000000
00000000
01000000
10000000
00100000
00000000
,
00010000
00000000
00000000
00010000
00100000
00000000
10000000
00000000
01000000
00000000
10000000
00000000
01000000
00000000
00000000
00000000
,
10000000
10000000
01000000
00010000
00010000
00010000
01000000
00010000
,
00010000
00000000
00001000
00000000
00010000
00001000
00010000
00001000
00010000
00000000
00001000
00000000
00001000
00000000
00000000
00000000
,
00010100
00000000
00001000
00000010
00000100
00000000
00000101
00000001
,
00001000
00000100
00000010
00000001
00000100
00001000
00010000
00001000
,
01001000
00000000
00010000
00100000
01000000
00000000
11000000
10000000
,
00010000
00000000
00000000
00000000
00000000
00000000
01000000
00000000
01000000
00000000
01000000
00000000
01000000
00000000
00010000
01000000
,
00010000
00000000
10000000
01000000
10000000
00000000
00010000
01000000
00010000
00000000
00000000
00000000
10010000
00000000
00000000
00000000
,
10000000
01000000
00010000
01000000
10000000
01000000
00010000
00001000
,
00010000
00000000
00000000
00010000
00001000
00000000
00010000
00000000
00001000
00000000
00000100
00000000
00000001
00000000
00000000
00000000
,
00000001
00000100
00001000
00000100
00000001
00000100
00001000
00010000
,
00001000
00000000
00000000
00001000
00010000
00000000
00001000
00000000
00010000
00000000
01000000
00000000
10000000
00000000
00000000
00000000
,
10000000
01000000
00010000
01000000
10000000
01000000
00010000
00001000
,
00010000
00000000
00000000
00010000
00001000
00000000
00010000
00000000
00001000
00000000
00000100
00000000
00000001
00000000
00000000
00000000
,
00001000
00000000
00000000
00000001
00001000
00000000
00000001
00000000
00001000
00000100
00001000
00000000
00000001
00000100
00000001
00000000
,
00002000
00000000
00003000
00000100
00000100
00000000
00000000
00000000
,
00010100
00000000
00011000
00000000
,
00002000
00023000
02030000
03000000
,
10000000
01000000
00010000
01000000
10000000
01000000
00010000
00001000
,
00010000
00001000
00000100
00000001
00000010
00000001
00000100
00000000
,
00000001
00000010
00001000
00010000
00100000
10000000
10000000
00100000
,
00020000
00032000
00023000
00030000
,
00001000
00000100
00000001
00000010
00000001
00000100
00001000
00000100
,
00000001
00000010
00001000
00010000
00100000
10000000
10000000
00000000
,
00100000
10000000
01000000
00010000
00001000
00000100
00000001
00000000
,
00000000
00000000
00000000
00000000
00000010
00000001
00000100
00000010
,
00001000
00000100
00010000
00001000
00100000
00010000
01000000
00100000
,
10000000
10100000
01010000
00011000
,
00000000
00001100
00000000
00000101
;
