#TITLE:Nari Narien;
#SUBTITLE:(Jay Dabhi remix);
#ARTIST:Jay Dabhi vs.Hisham Abbas;
#BANNER:Nari Narien (Jay Dabhi remix).png;
#BACKGROUND:Nari Narien (Jay Dabhi remix)-bg.png;
#CDTITLE:./CDTITLES/DANCE DANCE REVOLUTION ULTRAMIX 3.png;
#MUSIC:Nari Narien (Jay Dabhi remix).ogg;
#SAMPLESTART:67.5;
#SAMPLELENGTH:15;
#DISPLAYBPM:132;
#BPMS:0=132,148=131.9;

//---------------dance-single - ----------------
#NOTES:
     dance-single:
     :
     Beginner:
     1:
     :
0000
0000
0000
0000
,
0000
0000
0000
0000
,
0000
0000
0000
0000
,
0000
0000
0000
0000
,
0000
0000
0000
0000
,
1000
0000
0000
0000
,
0001
0000
0000
0000
,
0010
0000
0000
0000
,
0010
0000
0000
0000
,
0001
0000
0000
0000
,
0100
0000
0000
0000
,
0001
0000
0000
0000
,
1000
0000
0000
0000
,
0001
0000
0000
0000
,
1000
0000
0000
0000
,
0010
0000
0000
0000
,
0100
0000
0000
0000
,
0001
0000
0001
0000
,
0001
0000
0000
0000
,
1000
0000
1000
0000
,
1000
0000
0000
0000
,
0010
0000
0010
0000
,
0010
0000
0000
0000
,
0100
0000
0100
0000
,
0100
0000
0000
0000
,
0001
0000
0000
0000
,
1000
0000
1000
0000
,
1000
0000
0000
0000
,
0001
0000
1000
0000
,
0001
0000
0000
0000
,
0010
0000
0010
0000
,
0100
0000
0000
0000
,
0100
0000
0100
0000
,
0010
0000
0000
0000
,
1000
0000
0000
0000
,
0001
0000
0001
0000
,
0001
0000
0000
0000
,
1000
0000
0100
0000
,
0100
0000
1000
0000
,
1000
0000
0010
0000
,
0100
0000
0100
0000
,
0001
0000
0001
0000
,
1000
0000
0000
0000
,
0001
0000
0000
0000
,
0010
0000
0000
0000
,
0001
0000
0000
0000
,
1000
0000
1000
0000
,
1000
0000
0000
0000
,
0010
0000
0010
0000
,
0010
0000
0000
0000
,
0100
0000
0000
0000
,
0001
0000
0000
0000
,
1000
0000
0000
0000
,
0001
0000
0000
0000
,
0100
0000
0000
0000
,
1000
0000
0100
0000
;

//---------------dance-single - ----------------
#NOTES:
     dance-single:
     :
     Easy:
     3:
     :
0000
0000
0000
0000
,
0000
0000
0000
0000
,
0000
0000
0000
0000
,
0000
0000
0000
0000
,
0000
0000
0000
0000
,
0001
0001
0100
0000
,
1000
1000
0100
0000
,
0010
1000
0010
0000
,
0100
0001
0100
0000
,
0000
0100
0001
0000
,
0001
0100
1000
0000
,
0000
0100
0001
0000
,
0001
0100
1000
0000
,
0000
0010
1000
0000
,
1000
0010
0100
0000
,
0000
0010
1000
0000
,
1000
0010
0100
0000
,
1001
0000
0000
0000
,
0110
0000
0000
0000
,
1001
0000
0000
0000
,
0110
0000
0000
0000
,
1000
0000
1000
0000
,
0001
0000
0001
0000
,
1000
0001
0100
0000
,
0010
0000
0010
0000
,
0100
0000
0000
0000
,
1000
0100
0001
0000
,
0200
0000
0000
0300
,
0010
0001
0100
0000
,
0020
0000
0000
0030
,
1000
0100
0010
0000
,
0200
0000
0000
0300
,
0001
0010
0100
0000
,
0020
0000
0000
0030
,
1001
0000
0000
0000
,
1000
0001
0001
1000
,
2000
0000
0000
3000
,
0010
0000
0100
0000
,
1001
0000
0001
0000
,
1000
1000
1000
0000
,
0100
0000
0010
0000
,
0001
0001
0001
0000
,
2002
0000
0000
3003
,
0200
0000
0000
0300
,
0010
0100
0001
0000
,
1000
0001
0001
1000
,
1000
0000
0010
0000
,
0010
0000
0100
0000
,
0001
0000
1000
0000
,
0001
0000
0010
0000
,
0220
0000
0000
0330
,
0002
0000
0000
0003
,
1000
0000
0001
0000
,
0001
0000
0010
0000
,
0100
0000
1000
0000
,
0100
0010
0100
0020
,
0000
0000
0000
0030
;

//---------------dance-single - ----------------
#NOTES:
     dance-single:
     :
     Medium:
     5:
     :
0000
0000
0000
0000
,
0000
0000
0000
0000
,
0000
0000
0000
0000
,
0000
0000
0000
0000
,
0000
0000
0000
0000
,
0001
1000
0001
1000
,
0010
1000
0100
0000
0010
0001
0100
0000
,
0010
0100
0010
0100
,
1000
0100
0001
0000
0001
0100
1000
0000
,
0220
0000
0000
0330
,
1000
0001
1001
0000
1001
0000
0000
0000
,
2200
0000
0000
3300
,
0010
0100
0110
0000
0110
0000
0000
0000
,
0202
0000
0000
0303
,
1000
0100
1100
0000
1100
0000
0000
0000
,
0220
0000
0000
0330
,
1000
0001
1001
0000
1001
0000
0000
0000
,
0002
0000
0000
1000
1003
0000
0000
0000
,
2000
0000
0000
0001
3001
0000
0000
0000
,
0020
0000
0000
0100
0130
0000
0000
0000
,
0200
0000
0000
0010
0310
0000
0000
0000
,
2000
0000
0000
3001
0001
0000
0010
0000
,
1000
0100
0010
0000
0100
0000
0010
0000
,
0002
0000
0000
1003
1000
0000
0100
0000
,
0001
0010
0100
0000
0010
0000
0100
0000
,
2000
3000
0002
0003
,
1000
0001
0010
0000
0001
1000
0100
0000
,
2002
0000
0000
3003
,
0100
0010
0001
0000
0010
0100
1000
0000
,
0220
0000
0000
0330
,
0001
1000
0100
0000
1000
0001
0010
0000
,
2002
0000
0000
3003
,
0010
0100
0001
0000
0100
0010
1000
0000
,
0220
0000
0000
0000
0330
0000
1000
0001
,
2002
0000
0000
0000
,
0000
0000
3003
0000
0000
0000
0010
0100
,
0220
0000
0000
0000
,
0000
0330
1000
0001
,
1000
0100
0010
0000
0100
0000
0001
0000
,
0100
0010
0001
1000
,
0010
0100
1000
0000
0100
0000
1000
0000
,
0100
0001
0010
0100
,
1100
0000
0011
0000
,
0101
0000
1010
0000
,
1001
0101
1001
1100
,
1000
0001
1000
0100
0010
0000
0110
0000
,
0220
0330
2002
3003
,
0022
0033
2200
3300
,
0202
0303
2020
3030
,
0001
0010
1000
0010
0001
0000
1001
0000
,
2002
3003
0220
0330
,
2200
3300
0202
0303
,
0001
0100
0001
0000
1000
0100
1000
0000
,
1001
0011
1001
1100
,
0100
0001
0100
0000
0100
1000
0100
0000
,
0101
0101
1100
2200
,
0000
0000
0000
3300
;

//---------------dance-single - ----------------
#NOTES:
     dance-single:
     :
     Hard:
     6:
     :
0000
0000
0000
0000
,
0000
0000
0000
0000
,
0000
0000
0000
0000
,
0000
0000
0000
0000
,
0000
0000
0000
0000
,
0001
0001
0101
0000
1000
1000
1100
0000
,
0010
1000
0001
0000
0010
1000
0100
0000
,
0010
0010
0110
0000
0100
0100
1001
0000
,
0001
1000
0010
0100
0100
0100
0100
0000
,
0000
1001
0010
0100
1001
0000
0000
0000
,
0010
0100
1000
1000
1000
0000
0100
0000
,
0000
0110
0001
1000
0110
0000
0000
0000
,
0010
0100
0001
0001
0001
0000
0100
0000
,
0000
1001
0100
0010
1001
0000
0000
0000
,
0100
0010
0001
0001
0001
0000
0100
0000
,
0000
0110
1000
0001
0110
0000
0000
0000
,
0100
0010
1000
1000
1000
0000
0100
0000
,
0010
0001
0000
0001
0100
0001
0000
0100
,
1000
0100
0000
0100
0010
0100
0000
0010
,
0001
0010
0000
0010
1000
0010
0000
0100
,
0001
0100
0000
0100
0010
0100
0000
1000
,
1001
0000
0000
0001
0011
0000
0000
0000
,
1000
0100
0010
0010
0010
0000
0100
0000
,
0000
1001
0001
1000
1001
0000
0000
0000
,
0001
0010
0100
0100
0100
0000
0010
0000
,
0000
0001
0100
1000
0100
0001
0100
1000
,
0200
0302
2003
3002
,
0203
0320
2030
3020
,
0130
1001
0101
1001
,
0101
1001
0101
1001
,
0200
2300
3002
2003
,
3020
0230
0302
0203
,
0310
1001
1100
1001
,
1100
1001
1100
1001
,
0020
0000
0000
0000
0000
0130
1000
0001
,
1001
0000
0000
0000
0000
0000
0001
0010
,
0002
0000
0000
0000
0000
1003
0100
1000
,
1010
1001
0202
0303
,
1000
1000
1000
0001
1001
0000
0110
0000
,
1000
0001
1000
0001
0200
0000
0020
0000
,
0330
1000
0010
0100
0020
0000
0030
0000
,
0100
0100
0100
0010
0110
0000
1001
0000
,
0001
0010
0001
0000
1000
0010
1000
0000
,
0001
0100
0001
0000
1000
0100
1000
0000
,
0001
0010
0100
1000
0010
0010
0010
0000
,
1000
0000
0000
0000
0000
0000
0000
0000
0001
0000
0000
0000
0000
0000
0000
1000
0000
0000
0000
0000
0000
0000
0000
0000
0001
0000
0000
0000
0000
0000
0000
0000
1000
0000
0000
0000
0000
0000
0000
0001
0000
0000
0000
0000
0000
0000
0000
0000
1000
0000
0000
0000
0000
0000
0000
0000
0001
0000
0000
0000
0000
0000
0000
1000
0000
0000
0000
0000
0000
0000
0000
0000
0001
0000
0000
0000
0000
0000
0000
0000
0000
0000
0000
0000
0000
0000
0000
0000
0000
0000
0000
0000
0000
0000
0000
0000
,
1000
0100
1000
0000
0001
0100
0001
0000
,
0010
0001
0010
0000
0010
1000
0010
0000
,
0100
1000
0100
0000
0001
0100
0001
0000
,
0100
0010
0001
0001
1001
0000
0110
0000
,
0100
1000
0010
0010
0110
0000
1001
0000
,
0001
0010
0100
0100
0110
0000
1001
0000
,
1000
0000
0000
1000
0100
0000
0000
0100
0010
0000
0000
0010
0001
0000
0000
0000
,
0001
0000
0000
0001
1000
0000
0000
1000
0001
0000
0000
0001
1000
0000
0000
0000
,
1000
0000
0000
1000
0100
0000
0000
0100
0010
0000
0000
0010
0001
0000
0000
0000
,
0001
0000
0000
0000
0000
0000
0000
0000
1000
0000
0000
0000
0000
0000
0000
0001
0000
0000
0000
0000
0000
0000
0000
0000
1000
0000
0000
0000
0000
0000
0000
0000
0001
0000
0000
0000
0000
0000
0000
1000
0000
0000
0000
0000
0000
0000
0000
0000
0001
0000
0000
0000
0000
0000
0000
0000
1000
0000
0000
0000
0000
0000
0000
0001
0000
0000
0000
0000
0000
0000
0000
0000
1000
0000
0000
0000
0000
0000
0000
0000
0000
0000
0000
0000
0000
0000
0000
0000
0000
0000
0000
0000
0000
0000
0000
0000
;

//---------------dance-double - ----------------
#NOTES:
     dance-double:
     :
     Beginner:
     1:
     :
00000000
00000000
00000000
00000000
,
00000000
00000000
00000000
00000000
,
00000000
00000000
00000000
00000000
,
00000000
00000000
00000000
00000000
,
00000000
00000000
00000000
00000000
,
00000001
00000000
00000000
00000000
,
00001000
00000000
00000000
00000000
,
00000010
00000000
00000000
00000000
,
00000100
00000000
00000000
00000000
,
00001000
00000000
00000000
00000000
,
00010000
00000000
00000000
00000000
,
00100000
00000000
00000000
00000000
,
10000000
00000000
00000000
00000000
,
00010000
00000000
00000000
00000000
,
01000000
00000000
00000000
00000000
,
00100000
00000000
00000000
00000000
,
00010000
00000000
00000000
00000000
,
00001000
00000000
00000000
00000000
,
00010000
00000000
00000000
00000000
,
00001000
00000000
00000000
00000000
,
00000010
00000000
00000000
00000000
,
00000001
00000000
00000000
00000000
,
00000100
00000000
00000000
00000000
,
00001000
00000000
00000000
00000000
,
00020000
00000000
00000000
00030000
,
00000000
00000000
00000000
00000000
,
00001000
00000000
00001000
00000000
,
00010000
00000000
00000000
00000000
,
01000000
00000000
01000000
00000000
,
10000000
00000000
00000000
00000000
,
00100000
00000000
00100000
00000000
,
10000000
00000000
00000000
00000000
,
01000000
00000000
01000000
00000000
,
00010000
00000000
00000000
00000000
,
00002000
00000000
00000000
00003000
,
00000000
00000000
00000000
00000000
,
00020000
00000000
00000000
00030000
,
00000000
00000000
00000000
00000000
,
00001000
00000000
00001000
00000000
,
00000100
00000000
00000000
00000000
,
00000001
00000000
00000001
00000000
,
00000010
00000000
00000000
00000000
,
00000001
00000001
00000000
00000000
,
00000100
00000100
00000000
00000000
,
00001000
00000000
00001000
00000000
,
00010000
00000000
00000000
00000000
,
01000000
00000000
10000000
00000000
,
10000000
00000000
00000000
00000000
,
00100000
00000000
01000000
00000000
,
01000000
00000000
00000000
00000000
,
00010000
00000000
00000000
00000000
,
10000000
00000000
00000000
00000000
,
01000000
01000000
00000000
00000000
,
00010000
00010000
00000000
00000000
,
00001000
00000000
00001000
00000000
,
00010000
00010000
00010000
00010000
;

//---------------dance-double - ----------------
#NOTES:
     dance-double:
     :
     Easy:
     4:
     :
00000000
00000000
00000000
00000000
,
00000000
00000000
00000000
00000000
,
00000000
00000000
00000000
00000000
,
00000000
00000000
00000000
00000000
,
00000000
00000000
00000000
00000000
,
00001000
00001000
00000001
00001000
,
00000010
00000010
00001000
00000100
,
00000010
00000001
00000001
00000100
,
00001000
00010000
01000000
01000000
,
10000000
10010000
10010000
00000000
,
10000000
01000000
00010000
00001000
,
00000000
00011000
00011000
00000000
,
00001000
00000100
00000001
00000010
,
00000000
00001001
00001001
00000000
,
00000001
00000100
00001000
00010000
,
00000000
00011000
00011000
00000000
,
00010000
01000000
10000000
00100000
,
10000000
01000000
10000000
01000000
,
00010000
01000000
00010000
01000000
,
00010000
00001000
00010000
00001000
,
00000100
00000001
00000100
00000001
,
00002000
00000000
00003020
00000000
,
00000230
00000000
00002300
00000000
,
00023000
00032000
00023000
02030000
,
03020000
00032000
00003200
00002300
,
00020000
00000000
00000000
00033000
,
00010000
01000000
10000000
01000000
,
00010000
00001000
00000100
00000001
,
00000100
00001000
00010000
01000000
,
10000000
00100000
00010000
00001000
,
00000010
00000001
00000010
00001000
,
00010000
00100000
10000000
01000000
,
00010000
00001000
00000010
00000001
,
00000100
00001000
00010000
01000000
,
10000000
00000000
00000000
10010000
,
10010000
00000000
01000000
00010000
,
00001000
00000000
00000000
00011000
,
00002000
00000000
00020000
00033000
,
00001000
00000100
00001000
00000100
,
00000001
00000100
00000001
00000010
,
00000001
00000100
00001000
00010000
,
00001000
00010000
01000000
10000000
,
00200000
00000000
20300000
00000000
,
30020000
00000000
02030000
00000000
,
03002000
00000000
00023000
00000000
,
00030200
00000000
00002300
00000000
,
00003020
00000000
00000230
00000000
,
00000302
00000000
00002003
00000000
,
00003020
00000000
00000230
00000000
,
00002300
00000000
00023000
00000000
,
00031000
00010000
01000000
10000000
,
01000000
00010000
00001000
00000100
,
00000001
00000100
00001000
00010000
,
01000000
10000000
00100000
00010000
,
00001000
00000010
00000001
00000010
,
00001000
00010000
00100000
10010000
;

//---------------dance-double - ----------------
#NOTES:
     dance-double:
     :
     Medium:
     5:
     :
00000000
00000000
00000000
00000000
,
00000000
00000000
00000000
00000000
,
00000000
00000000
00000000
00000000
,
00000000
00000000
00000000
00000000
,
00000000
00000000
00000000
00000000
,
00000001
00001000
00000001
00001000
,
00000100
00001000
00000100
00010000
,
00010000
01000000
10000000
00000000
10000000
01000000
00010000
00000000
,
00010000
01000000
10000000
00000000
10000000
01000000
00010000
00000000
,
00022000
00000000
00000000
00033000
,
00010000
00010000
00001000
00000100
00000001
00000000
00000000
00000000
,
00000220
00000000
00000000
00000330
,
00001000
00000100
00000001
00000100
00001000
00000000
00000000
00000000
,
00022000
00000000
00000000
00033000
,
00001000
00001000
00010000
01000000
10000000
00000000
00000000
00000000
,
02200000
00000000
00000000
03300000
,
00010000
01000000
10000000
01000000
00010000
00000000
00000000
00000000
,
10000000
01000000
00100000
00000000
00001000
00000000
00001000
00000000
,
00010000
00000100
00000010
00000000
00000001
00000000
00000001
00000000
,
00000010
00001000
00010000
00000000
00100000
00000000
00100000
00000000
,
00010000
00001000
00000010
00000000
00000001
00000000
00000001
00000000
,
00000001
00000100
00001000
00000000
00010000
00000000
00010000
00000000
,
00010000
01000000
10000000
00000000
10000000
00000000
10000000
00000000
,
00100000
10000000
01000000
00000000
00100000
00010000
01000000
00000000
,
00100000
10000000
01000000
00000000
01000000
00000000
00010000
00000000
,
00022000
00000000
00000000
00033000
,
00010000
00001000
00010000
00001000
00000100
00000001
00000100
00000001
,
00000200
00000000
00000000
00000300
,
00000001
00000100
00000001
00000100
00001000
00010000
00001000
00010000
,
00002000
00000000
00000000
00003000
,
00001000
00010000
00001000
00010000
01000000
10000000
01000000
10000000
,
02000000
00000000
00000000
03000000
,
10000000
01000000
10000000
01000000
00010000
00001000
00010000
00001000
,
00020000
00000000
00000000
00000000
00000000
00000000
00031000
00000100
,
00000002
00000000
00000000
00000000
,
00000000
00000000
00000000
00000000
00000000
00000000
00000103
00001000
,
00020000
00000000
00000000
00030000
,
00000000
01000000
01000000
10000000
10010000
00000000
00000000
00000000
,
10000000
01000000
00010000
00000000
00010000
01000000
10000000
00000000
,
01000000
01000000
00010000
00010000
,
00001000
00000100
00000001
00000000
00000001
00000100
00001000
00000000
,
00000100
00000100
00000001
00000001
,
00002000
00003000
00000020
00000030
,
00020000
00030000
00000020
00000030
,
00010000
00000100
00010000
00000100
,
00010000
00001000
00010000
00001000
00010000
01000000
10000000
00000000
,
00020000
00030000
20000000
30000000
,
00200000
00300000
02000000
03000000
,
00001000
01000000
00001000
01000000
,
00001000
00010000
00001000
00000100
00000001
00000000
00000101
00000000
,
00000001
00000100
00001000
00000000
00000100
00000000
00000001
00000000
,
00000100
00001000
00010000
00000000
00001000
00000000
00010000
00000000
,
01000000
00100000
01000000
00100000
,
01000000
10000000
01000000
10000000
,
01000000
10000000
01000000
10000000
01000000
00010000
00001000
00000000
,
00010000
00001000
00000100
00001001
;

//---------------dance-double - ----------------
#NOTES:
     dance-double:
     :
     Hard:
     7:
     :
00000000
00000000
00000000
00000000
,
00000000
00000000
00000000
00000000
,
00000000
00000000
00000000
00000000
,
00000000
00000000
00000000
00000000
,
00000000
00000000
00000000
00000000
,
00001000
00000000
00001010
00000000
00000100
00000001
00001001
00000000
,
00000100
00000000
00000110
00000000
00001000
00010000
00011000
00000000
,
01000000
00000000
01001000
00000000
00100000
00010000
10010000
00000000
,
01000000
00000000
01100000
00000000
10010000
10000000
01010000
00010000
,
20020000
00000000
00000000
30030000
,
10000000
01000000
01000000
00010000
00010000
00000000
00021000
00000000
,
00000000
00031000
00001000
00000100
00000100
00000000
00000000
00000000
,
00010000
00000010
00000010
00001000
00001000
00000000
00000210
00000000
,
00000000
00000301
00000001
00001000
00001000
00000000
00000000
00000000
,
00000010
00010000
00010000
00001000
00001000
00000000
00012000
00000000
,
00000000
01003000
01000000
00100000
00100000
00000000
00000000
00000000
,
10000000
00100000
00100000
00010000
00010000
00000000
01200000
00000000
,
00000000
10300000
10000000
01000000
01000000
00000000
01010000
00000000
,
01000000
00100000
00100000
00001000
00001000
00000000
00021000
00000000
,
00030000
00000100
00000100
00000010
00000010
00000000
00001001
00000000
,
00000100
00000001
00000001
00001000
00001000
00000000
00001100
00000000
,
00000001
00000100
00000001
00000000
00000100
00001000
00000100
00000000
,
00001000
00010000
00001000
00000000
00010000
00100000
00010000
00000000
,
10000000
01000000
10000000
00000000
01000000
00010000
01000000
00000000
,
00010000
00001000
00010000
00000000
01000000
10000000
01000000
00000000
,
20020000
00000000
00000000
30030000
,
10000000
01000000
00010000
01000000
10000000
01000000
00010000
00001000
,
00000100
00001000
00010000
01000000
00010000
00001000
00000010
00001000
,
00010000
00100000
00010000
00001000
00000010
00000001
00000100
00001000
,
00000100
00000001
00000010
00001000
00010000
00100000
00010000
00001000
,
00000010
00000001
00001000
00000100
00010000
01000000
00100000
00010000
,
01000000
00100000
00010000
00001000
00010000
00001000
00000010
00000001
,
00000100
00001000
00010000
01000000
10000000
00100000
00010000
00100000
,
10000000
01000000
00010000
00000100
00001000
00000010
00000100
00000010
,
00000220
00000000
00000000
00000330
00000000
00001001
00001001
00000110
,
00001001
00000000
00000001
00001000
00000001
00000100
00001000
00010000
,
00022000
00000000
00000000
00033000
00000000
00011000
00011000
01001000
,
00011000
00000000
00000000
00000000
,
10000000
01000000
00100000
00000000
00010000
01000000
00100000
00000000
,
10000000
01000000
00010000
00001000
00010000
00001000
00011000
00000000
,
00001000
00000100
00000001
00000000
00000010
00000001
00000100
00000000
,
00001000
00000100
00001000
00000100
00000001
00000010
00000011
00000000
,
00001000
00000001
00001000
00000100
00010000
00001000
00010000
00001000
,
00100000
00010000
00100000
00010000
10000000
01000000
10000000
01000000
,
00100000
00010000
10000000
01000000
00100000
00010000
00100000
00001000
,
00010000
00000000
00000000
00000000
00000000
00000000
00000000
00000000
00001000
00000000
00000000
00000000
00000000
00000000
00000000
00010000
00000000
00000000
00000000
00000000
00000000
00000000
00000000
00000000
00001000
00000000
00000000
00000000
00000000
00000000
00000000
00000000
00010000
00000000
00000000
00000000
00000000
00000000
00000000
00001000
00000000
00000000
00000000
00000000
00000000
00000000
00000000
00000000
00010000
00000000
00000000
00000000
00000000
00000000
00000000
00000000
00001000
00000000
00000000
00000000
00000000
00000000
00000000
00010000
00000000
00000000
00000000
00000000
00000000
00000000
00000000
00000000
00001000
00000000
00000000
00000000
00000000
00000000
00000000
00000000
00000000
00000000
00000000
00000000
00000000
00000000
00000000
00000000
00000000
00000000
00000000
00000000
00000000
00000000
00000000
00000000
,
00010000
00001000
00000100
00000000
00000001
00000010
00000001
00000000
,
00001000
00000001
00000100
00000010
00000100
00000010
00000110
00000000
,
00001000
00000001
00000010
00000000
00001000
00000001
00000100
00000000
,
00001000
00010000
01000000
10000000
00100000
10000000
10100000
00000000
,
00100000
10000000
00100000
10000000
01000000
00010000
01000000
00000000
,
00010000
00001000
00010000
00001000
00000010
00000001
00000010
00000000
,
00000001
00000000
00000000
00000001
00000100
00000000
00000000
00000100
00001000
00000000
00000000
00001000
00010000
00000000
00000000
00010000
,
00000010
00000000
00000000
00000010
00001000
00000000
00000000
00001000
00000100
00000000
00000000
00000100
00010000
00000000
00000000
00010000
,
00001000
00000000
00000000
00001000
00100000
00000000
00000000
00100000
00010000
00000000
00000000
00010000
10000000
00000000
00000000
00000000
,
00010000
00000000
00000000
00000000
00000000
00000000
00000000
00000000
10000000
00000000
00000000
00000000
00000000
00000000
00000000
00010000
00000000
00000000
00000000
00000000
00000000
00000000
00000000
00000000
10000000
00000000
00000000
00000000
00000000
00000000
00000000
00000000
00010000
00000000
00000000
00000000
00000000
00000000
00000000
10000000
00000000
00000000
00000000
00000000
00000000
00000000
00000000
00000000
00010000
00000000
00000000
00000000
00000000
00000000
00000000
00000000
10000000
00000000
00000000
00000000
00000000
00000000
00000000
00010000
00000000
00000000
00000000
00000000
00000000
00000000
00000000
00000000
10000000
00000000
00000000
00000000
00000000
00000000
00000000
00000000
00000000
00000000
00000000
00000000
00000000
00000000
00000000
00000000
00000000
00000000
00000000
00000000
00000000
00000000
00000000
00000000
;
