#TITLE:Music to Your Head;
#ARTIST:Slake;
#BANNER:Music to Your Head.png;
#BACKGROUND:Music to Your Head-bg.png;
#CDTITLE:./CDTITLES/BeatmaniaIIDX.png;
#MUSIC:Music to Your Head.ogg;
#SAMPLESTART:18.33;
#SAMPLELENGTH:15;
#DISPLAYBPM:144;
#BPMS:0=144;

//---------------dance-single - ----------------
#NOTES:
     dance-single:
     :
     Beginner:
     1:
     :
0000
0000
0000
0000
,
0000
0000
0000
0000
,
0000
0000
0000
0000
,
0000
0000
0000
0000
,
0000
0000
0000
0000
,
0001
0000
0001
0000
,
1000
0000
1000
0000
,
0001
0000
0001
0000
,
1000
0000
1000
0000
,
0020
0000
0000
0030
,
0010
0010
0000
0000
,
0100
0000
0100
0000
,
0100
0000
0100
0000
,
0001
0000
0001
0000
,
0001
0000
0001
0000
,
1000
0000
1000
0000
,
1000
0000
1000
0000
,
0100
0000
0100
0000
,
0100
0000
0100
0000
,
0010
0000
0010
0000
,
0010
0000
0010
0000
,
0001
0000
0001
0000
,
0001
0000
0001
0000
,
0100
0000
0000
0000
,
0010
0000
0000
0000
,
1000
0000
0000
0000
,
0001
0000
0001
0000
,
0001
0000
0001
0000
,
1000
0000
1000
0000
,
1000
0000
1000
0000
,
0200
0000
0000
0300
,
0000
0100
0000
0100
,
0000
0010
0000
0010
,
0000
0001
0000
0001
,
0000
1000
0000
1000
,
0000
0010
0000
0010
,
0000
0100
0000
0100
,
0000
0000
0000
0000
,
0001
0000
0001
0000
,
1000
0000
1000
0000
,
0010
0000
0010
0000
,
0100
0000
0100
0000
,
0001
0000
0000
0000
,
1000
0000
0000
0000
,
0100
0000
0000
0000
,
0010
0000
0000
0000
,
0001
0000
0000
0000
,
1000
0000
0000
0000
,
0010
0000
0000
0000
,
0100
0000
0000
0000
,
0001
0000
0000
0000
,
1000
0000
0000
0000
,
0100
0000
0000
0000
,
0010
0000
0000
0000
,
0001
0000
0001
0000
,
1000
0000
1000
0000
,
0010
0000
0010
0000
,
0100
0000
0100
0000
,
1001
0000
0000
0000
;

//---------------dance-single - ----------------
#NOTES:
     dance-single:
     :
     Easy:
     3:
     :
0000
0000
0000
0000
,
0000
0000
0000
0000
,
0000
0000
0000
0000
,
0000
0000
0000
0000
,
0000
0000
0000
0000
,
1000
0000
0001
0000
,
0100
0000
0001
0000
,
1000
0000
0100
0000
,
1000
0000
0001
0000
,
0200
0000
0000
0300
,
0010
1000
0001
1000
,
0100
0000
0100
0000
,
0100
0000
0100
0010
,
0001
0000
0001
0000
,
0001
0000
0001
0100
,
0010
0000
0010
0000
,
0010
0000
0010
1000
,
0100
0000
0100
0000
,
0100
0000
0100
1000
,
0001
0000
0001
0000
,
0001
0000
0001
0100
,
0010
0000
0010
0000
,
0010
0000
0010
1000
,
0002
0003
2000
3000
,
0200
0300
0020
0030
,
0002
0003
2000
3000
,
0001
0100
0001
0000
,
1000
0100
1000
0000
,
0001
0010
0001
0000
,
1000
0010
1000
0001
,
2000
0000
0000
3000
,
0000
0100
0000
0100
,
0000
0010
0001
0010
,
0001
1000
0000
0010
,
0000
1000
0010
1000
,
0010
0100
0000
0001
,
0000
0100
0001
0100
,
0002
0000
0000
0003
,
0001
0000
0001
0000
,
1000
0010
1000
0001
,
1000
0000
1000
0000
,
0001
0010
0001
1000
,
0001
0000
0100
0001
,
0100
0000
0010
1000
,
0010
0000
1000
1000
,
0001
0001
0010
0010
,
0010
0000
0100
1000
,
0100
0000
0010
0001
,
0010
0000
0001
0001
,
1000
1000
0010
0010
,
0010
0000
1000
1000
,
0001
0000
0010
0010
,
0100
0000
1000
1000
,
0001
0001
1000
0001
,
1000
0000
0100
0100
,
0010
0000
0001
0001
,
1000
0000
0010
0010
,
0100
0100
0001
1000
,
2002
0000
0000
3003
;

//---------------dance-single - ----------------
#NOTES:
     dance-single:
     :
     Medium:
     5:
     :
0000
0000
0000
0000
,
0000
0000
0000
0000
,
0000
0000
0000
0000
,
0000
0000
0000
0000
,
0000
0000
0000
0000
,
1000
0000
0100
0000
1000
0100
0010
0000
,
0001
0000
0100
0000
0001
0000
0100
0010
,
1000
1000
0001
0001
,
0100
0000
0100
0000
0010
0100
0010
0200
,
0000
0000
0000
0300
,
0001
0000
1000
0000
0000
0010
0100
0000
,
0001
0100
0001
0100
,
0010
0000
1000
0000
0010
1000
0010
1000
,
0001
0010
0001
0010
,
0100
0000
1000
0000
0100
1000
0100
1000
,
0001
0000
0010
0000
0001
0000
0010
0010
,
0001
0000
0100
0000
0001
0000
0100
0100
,
0010
0000
1000
0000
0010
0000
1000
1000
,
0001
0000
0010
0000
0100
0000
0010
0001
,
1000
0000
0100
0000
1000
0000
0001
0010
,
0100
0000
0001
0000
0100
0000
1000
0001
,
0100
0000
0010
0000
0100
0000
0010
1000
,
0100
1000
0001
0010
,
0002
0100
0100
0103
,
2000
0100
0100
3100
,
0002
0103
2000
3100
,
1002
0013
0200
1300
,
0020
0130
0002
1003
,
0020
1030
0200
0310
,
0002
0103
0020
1030
,
2002
0000
0000
3003
,
1000
0000
0100
0000
1000
0000
0100
0100
,
1000
0000
0010
0000
1000
0000
0010
0010
,
0100
0000
0001
0000
0100
0000
0001
0001
,
1000
0000
0100
0000
0010
0000
0100
1000
,
0001
0000
0010
0000
0001
0000
1000
0100
,
0010
0000
1000
0000
0010
0000
0001
1000
,
0020
0000
0000
0030
,
0100
0001
1000
0100
,
1000
0000
0001
0000
0100
0001
1000
0100
,
0010
0001
1000
0010
,
1000
0000
0001
0000
0010
0001
1000
0010
,
0100
0001
1000
0001
,
0100
0001
1000
0001
0010
0000
0001
1000
,
0010
0100
0001
1000
,
0010
1000
0001
1000
0100
0000
1000
0010
,
0100
0010
0100
0001
,
0100
0010
0100
0001
0100
0000
0010
1000
,
0010
0100
0010
0001
,
0010
0100
0010
1000
0010
0000
0100
0001
,
0100
0001
0010
0001
,
1000
0010
1000
0001
0010
0000
0100
1000
,
0010
0100
0001
0010
,
0100
1000
0100
0010
0001
0000
1000
0010
,
0200
0000
0000
0300
,
0002
0000
0000
0003
,
2000
0000
0000
3000
,
0100
0000
1000
0000
0000
0001
1000
0000
,
0020
0000
0000
0030
;

//---------------dance-single - ----------------
#NOTES:
     dance-single:
     :
     Hard:
     8:
     :
0000
0000
0000
0000
,
0000
0000
0000
0000
,
0000
0000
0000
0000
,
0000
0000
0000
0000
,
0000
0000
0000
0000
,
1000
0000
0000
0001
0010
0000
0000
0000
0100
0000
1000
0000
0010
0000
0000
0000
,
1000
0000
0000
0001
0100
0000
0000
0000
0010
0000
0000
0000
1000
0000
0100
0000
,
1000
0001
0100
0000
0001
1000
0100
0000
,
0010
0001
0100
0000
0010
1000
0100
2000
,
0000
0000
0000
3000
,
0001
0000
0000
0001
1000
0000
0100
0000
0000
0000
0010
0000
0000
0100
0000
0000
,
0020
0100
0100
0130
,
0200
1000
1000
1300
,
2000
0001
0001
3001
,
0002
0010
0010
0013
,
0120
0001
0100
1030
,
0210
0001
0010
1300
,
1002
0010
1000
0103
,
2001
0010
0001
3100
,
1001
0000
0001
0000
0100
0000
0000
0001
0000
0000
1000
0000
0001
0000
0000
0100
,
0000
0000
0010
0000
0100
0000
0000
0001
0000
0000
0100
0000
0010
0000
0000
1000
,
0000
0000
0010
0000
0100
0000
0000
0001
0000
0000
0010
0000
0001
0000
0000
1000
,
0000
0000
0100
0000
1000
0000
0000
0010
0000
0000
1000
0000
0100
1000
0000
0001
,
0000
0100
0010
1000
,
0001
0010
0100
1000
,
0002
0203
0320
2030
,
3001
0010
0100
1000
0001
0100
0010
1000
,
0001
0010
0100
1000
0001
0100
0010
1000
,
0001
0010
0100
1000
0001
0100
0010
1000
,
0001
0000
0000
1000
0001
0000
0010
0000
0000
0000
0100
0000
0000
1000
0000
0000
,
0020
0000
0000
0000
0000
0000
0000
0000
0030
0000
0100
0000
0001
1000
0000
1001
,
0000
0000
1000
0000
0001
0000
0000
0100
0000
0000
0001
0000
1000
0000
0000
0100
,
0000
0000
1000
0000
0001
0000
0000
0010
0000
0000
0100
0000
1000
0000
0000
0010
,
0000
0000
0100
0000
0001
0000
0000
0010
0000
0000
1000
0000
0010
0000
0000
0001
,
0000
0000
0100
0000
1000
0000
0000
0100
0000
0000
0001
0000
1000
0000
0000
0010
,
0000
0000
0100
0000
0001
0000
0000
1000
0000
0000
0100
0000
1000
0000
0000
0001
,
0000
0000
0010
0000
0001
0000
0000
0100
0000
0000
0010
0000
0100
0000
0000
0020
,
0000
0000
0000
0030
,
0100
1000
0100
1000
0100
0001
0100
0001
,
0010
0000
0001
0000
0010
0000
1000
0000
0010
0001
1000
0001
0000
0000
0000
0000
,
0010
1000
0010
1000
0010
0001
0010
0001
,
0100
0000
0001
0000
0100
0000
1000
0000
0100
0001
1000
0001
0000
0000
0000
0000
,
0010
0001
0100
0001
0010
0001
0100
0001
,
0010
0100
0001
0100
0010
0100
0001
0100
,
1000
0001
0100
0001
1000
0001
0100
0001
,
1000
0010
0001
0010
1000
0010
0001
0010
,
1000
0100
0010
0100
1000
0100
0010
0100
,
0001
1000
0010
1000
0001
1000
0010
1000
,
0100
0001
1000
0100
0010
1000
0001
0010
,
0100
0001
1000
0100
0010
1000
0001
0010
,
0100
0000
0001
0000
0100
0000
0001
0000
1000
0000
0100
0000
1000
0000
0100
0010
,
0001
0000
0010
0000
0001
0000
0010
0000
0100
0000
1000
0000
0100
0000
1000
0001
,
0100
0000
0001
0000
0100
0000
0001
0000
1000
0000
0010
0000
1000
0000
0010
0100
,
0001
1000
0001
1000
0100
0010
0100
0010
,
0001
0000
0000
0000
0000
0000
0000
0000
0000
0000
0000
0000
0000
0000
0000
0000
0000
0000
0000
0000
0000
0000
0000
0000
0000
0000
0000
0000
0000
0000
1000
0000
0000
0000
0000
0000
0000
0000
0000
0000
0000
0000
0000
0000
0000
0000
0000
0000
0010
0000
0000
0000
0000
0000
0000
0000
0000
0000
0000
0000
0000
0000
0000
0000
1000
0000
0000
0000
0000
0000
0000
0000
0000
0000
0000
0000
0000
0000
0001
0000
0000
0000
0000
0000
0000
0000
0000
0000
0000
0000
0000
0000
0000
0000
0000
0000
1000
0000
0000
0000
0000
0000
0000
0000
0000
0000
0000
0000
0000
0000
0000
0000
0100
0000
0000
0000
0000
0000
0000
0000
0000
0000
0000
0000
0000
0000
1000
0000
0000
0000
0000
0000
0000
0000
0000
0000
0000
0000
0000
0000
0000
0000
0000
0000
0001
0000
0000
0000
0000
0000
0000
0000
0000
0000
0000
0000
0000
0000
0000
0000
0000
0000
0000
0000
0000
0000
0000
0000
0000
0000
0000
0000
0000
0000
0001
0000
0000
0000
0000
0000
0000
0000
0000
0000
0000
0000
0000
0000
0000
0000
0000
0000
,
0100
0000
0000
0000
0000
0000
0000
0000
0000
0000
0000
0000
0000
0000
0000
0000
0000
0000
0000
0000
0000
0000
0000
0000
0000
0000
0000
0000
0000
0000
0100
0000
0000
0000
0000
0000
0000
0000
0000
0000
0000
0000
0000
0000
0000
0000
0000
0000
1000
0000
0000
0000
0000
0000
0000
0000
0000
0000
0000
0000
0000
0000
0000
0000
0100
0000
0000
0000
0000
0000
0000
0000
0000
0000
0000
0000
0000
0000
0010
0000
0000
0000
0000
0000
0000
0000
0000
0000
0000
0000
0000
0000
0000
0000
0000
0000
0100
0000
0000
0000
0000
0000
0000
0000
0000
0000
0000
0000
0000
0000
0000
0000
0001
0000
0000
0000
0000
0000
0000
0000
0000
0000
0000
0000
0000
0000
0100
0000
0000
0000
0000
0000
0000
0000
0000
0000
0000
0000
0000
0000
0000
0000
0000
0000
0010
0000
0000
0000
0000
0000
0000
0000
0000
0000
0000
0000
0000
0000
0000
0000
0000
0000
0000
0000
0000
0000
0000
0000
0000
0000
0000
0000
0000
0000
0100
0000
0000
0000
0000
0000
0000
0000
0000
0000
0000
0000
0000
0000
0000
0000
0000
0000
,
0001
0000
0000
0000
0000
0000
0000
0000
0000
0000
0000
0000
0000
0000
0000
0000
0000
0000
0000
0000
0000
0000
0000
0000
0000
0000
0000
0000
0000
0000
0001
0000
0000
0000
0000
0000
0000
0000
0000
0000
0000
0000
0000
0000
0000
0000
0000
0000
0010
0000
0000
0000
0000
0000
0000
0000
0000
0000
0000
0000
0000
0000
0000
0000
0001
0000
0000
0000
0000
0000
0000
0000
0000
0000
0000
0000
0000
0000
1000
0000
0000
0000
0000
0000
0000
0000
0000
0000
0000
0000
0000
0000
0000
0000
0000
0000
0001
0000
0000
0000
0000
0000
0000
0000
0000
0000
0000
0000
0000
0000
0000
0000
0100
0000
0000
0000
0000
0000
0000
0000
0000
0000
0000
0000
0000
0000
0001
0000
0000
0000
0000
0000
0000
0000
0000
0000
0000
0000
0000
0000
0000
0000
0000
0000
1000
0000
0000
0000
0000
0000
0000
0000
0000
0000
0000
0000
0000
0000
0000
0000
0000
0000
0000
0000
0000
0000
0000
0000
0000
0000
0000
0000
0000
0000
0010
0000
0000
0000
0000
0000
0000
0000
0000
0000
0000
0000
0000
0000
0000
0000
0000
0000
,
1000
0000
0000
1000
0001
0000
0100
0000
0000
0000
1010
0000
0000
1001
0000
0000
,
0202
0000
0000
0000
,
0000
0000
0303
0000
;

//---------------dance-double - ----------------
#NOTES:
     dance-double:
     :
     Beginner:
     1:
     :
00000000
00000000
00000000
00000000
,
00000000
00000000
00000000
00000000
,
00000000
00000000
00000000
00000000
,
00000000
00000000
00000000
00000000
,
00000000
00000000
00000000
00000000
,
10000000
00000000
10000000
00000000
,
01000000
00000000
01000000
00000000
,
00010000
00000000
00010000
00000000
,
00001000
00000000
00001000
00000000
,
00020000
00000000
00000000
00030000
,
00010000
00010000
00000000
00000000
,
00001000
00000000
00001000
00000000
,
00001000
00000000
00001000
00000000
,
00000100
00000000
00000100
00000000
,
00000100
00000000
00000100
00000000
,
00000001
00000000
00000001
00000000
,
00000001
00000000
00000001
00000000
,
00000010
00000000
00000010
00000000
,
00000010
00000000
00000010
00000000
,
00001000
00000000
00001000
00000000
,
00001000
00000000
00001000
00000000
,
00010000
00000000
00010000
00000000
,
00010000
00000000
00010000
00000000
,
01000000
00000000
00000000
00000000
,
00100000
00000000
00000000
00000000
,
00010000
00000000
00000000
00000000
,
01000000
00000000
01000000
00000000
,
01000000
00000000
01000000
00000000
,
00100000
00000000
00100000
00000000
,
00100000
00000000
00100000
00000000
,
00020000
00000000
00000000
00030000
,
00000000
00001000
00000000
00001000
,
00000000
00010000
00000000
00010000
,
00000000
00001000
00000000
00001000
,
00000000
00000010
00000000
00000010
,
00000000
00000001
00000000
00000001
,
00000000
00001000
00000000
00001000
,
00000000
00000000
00000000
00000000
,
00000100
00000000
00000100
00000000
,
00010000
00000000
00010000
00000000
,
00001000
00000000
00001000
00000000
,
00100000
00000000
00100000
00000000
,
00010000
00000000
00000000
00000000
,
10000000
00000000
00000000
00000000
,
01000000
00000000
00000000
00000000
,
00010000
00000000
00000000
00000000
,
00001000
00000000
00000000
00000000
,
00000100
00000000
00000000
00000000
,
00000001
00000000
00000000
00000000
,
00000010
00000000
00000000
00000000
,
00001000
00000000
00000000
00000000
,
00010000
00000000
00000000
00000000
,
00100000
00000000
00000000
00000000
,
10000000
00000000
00000000
00000000
,
01000000
00000000
01000000
00000000
,
00010000
00000000
00010000
00000000
,
00001000
00000000
00001000
00000000
,
00010000
00000000
00010000
00000000
,
00011000
00000000
00000000
00000000
;

//---------------dance-double - ----------------
#NOTES:
     dance-double:
     :
     Easy:
     3:
     :
00000000
00000000
00000000
00000000
,
00000000
00000000
00000000
00000000
,
00000000
00000000
00000000
00000000
,
00000000
00000000
00000000
00000000
,
00000000
00000000
00000000
00000000
,
10000000
00000000
00010000
00000000
,
01000000
00000000
00001000
00000000
,
00010000
00000000
00000100
00000000
,
00001000
00000000
00000001
00000000
,
00000200
00000000
00000000
00000300
,
00000010
00000100
00001000
00010000
,
00001000
00000000
00001000
00000000
,
00001000
00000000
00001000
00100000
,
00010000
00000000
00010000
00000000
,
00010000
00000000
00010000
01000000
,
00100000
00000000
00100000
00000000
,
00100000
00000000
00100000
10000000
,
01000000
00000000
01000000
00000000
,
01000000
00000000
01000000
10000000
,
00010000
00000000
00010000
00000000
,
00010000
00000000
00010000
01000000
,
00001000
00000000
00001000
00000000
,
00001000
00000000
00001000
00010000
,
00000200
00000300
00002000
00003000
,
00000020
00000030
00000200
00000300
,
00000002
00000003
00000020
00000030
,
00001000
00000010
00001000
00000000
,
00010000
00001000
00010000
00000000
,
00001000
00010000
00001000
00000000
,
00100000
00010000
10000000
00010000
,
02000000
00000000
00000000
03000000
,
00000000
00100000
00000000
00100000
,
00000000
00100000
10000000
00100000
,
10000000
00010000
00000000
00010000
,
00000000
00010000
00100000
00010000
,
00100000
00001000
00000000
00001000
,
00000000
00001000
00010000
00001000
,
00020000
00000000
00000000
00030000
,
00000100
00000000
00000100
00000000
,
00001000
00000010
00001000
00000001
,
00001000
00000000
00000100
00000000
,
00010000
00001000
00010000
00000100
,
00010000
00000000
00001000
00010000
,
00001000
00000000
00100000
00010000
,
00100000
00000000
01000000
01000000
,
10000000
10000000
00100000
00100000
,
00100000
00000000
01000000
00010000
,
01000000
00000000
00001000
00010000
,
00001000
00000000
00010000
00010000
,
00001000
00001000
00000100
00000100
,
00000100
00000000
00000001
00000001
,
00001000
00000000
00000010
00000010
,
00000100
00000000
00001000
00001000
,
00010000
00010000
00001000
00010000
,
00001000
00000000
00100000
00100000
,
00010000
00000000
10000000
10000000
,
01000000
00000000
00010000
00010000
,
00001000
00001000
00010000
00001000
,
00022000
00000000
00000000
00033000
;

//---------------dance-double - ----------------
#NOTES:
     dance-double:
     :
     Medium:
     6:
     :
00000000
00000000
00000000
00000000
,
00000000
00000000
00000000
00000000
,
00000000
00000000
00000000
00000000
,
00000000
00000000
00000000
00000000
,
00000000
00000000
00000000
00000000
,
00000001
00000000
00001000
00000000
00000100
00000010
00000001
00000000
,
00001000
00000000
00000100
00000000
00010000
00000000
00001000
00010000
,
00001000
00001000
00010000
00010000
,
01000000
00000000
01000000
00000000
10000000
01000000
10000000
02000000
,
00000000
00000000
00000000
03000000
,
10000000
00000000
00010000
00000000
00000000
01000000
00100000
00000000
,
10000000
00010000
10000000
00010000
,
01000000
00000000
00010000
00000000
01000000
00001000
01000000
00001000
,
00010000
00001000
00010000
00001000
,
00010000
00000000
00000100
00000000
00010000
00000100
00010000
00000100
,
00001000
00000000
00000100
00000000
00001000
00000000
00000010
00000010
,
00000100
00000000
00000001
00000000
00000100
00000000
00000001
00000001
,
00001000
00000000
00000100
00000000
00010000
00000000
00001000
00001000
,
00010000
00000000
00001000
00000000
00100000
00000000
00001000
00100000
,
00010000
00000000
01000000
00000000
00100000
00000000
10000000
00100000
,
01000000
00000000
00010000
00000000
01000000
00000000
00010000
00100000
,
01000000
00000000
00010000
00000000
01000000
00000000
10000000
01000000
,
00010000
00001000
00000100
00001000
,
00020000
00000100
00000100
00030100
,
00002000
00100000
00100000
00103000
,
00020000
00030100
00002000
00103000
,
00021000
00030100
00002000
00003010
,
00000200
00000301
00000020
00001030
,
00020000
00031000
02000000
03010000
,
20000000
31000000
00200000
00310000
,
20020000
00000000
00000000
30030000
,
00010000
00000000
00100000
00000000
00010000
00000000
01000000
01000000
,
00100000
00000000
10000000
00000000
00100000
00000000
10000000
10000000
,
00010000
00000000
00100000
00000000
00001000
00000000
00010000
00010000
,
00001000
00000000
00010000
00000000
00000100
00000000
00010000
00000100
,
00001000
00000000
00000010
00000000
00000100
00000000
00000001
00000100
,
00000010
00000000
00001000
00000000
00000010
00000000
00001000
00000100
,
00000020
00000000
00000000
00000030
,
00000001
00001000
00000001
00001000
,
00000010
00000000
00000100
00000000
00000010
00000100
00000001
00000100
,
00001000
00010000
00001000
00010000
,
00100000
00000000
10000000
00000000
00100000
10000000
00010000
10000000
,
01000000
00010000
00001000
00010000
,
00001000
00010000
00000100
00001000
00000100
00000000
00010000
00000100
,
00001000
00000010
00001000
00000100
,
00000010
00000001
00001000
00000001
00000100
00000000
00000010
00001000
,
00000100
00010000
00001000
00010000
,
00001000
00100000
00001000
00010000
00001000
00000000
00100000
00010000
,
01000000
00010000
00100000
01000000
,
10000000
00100000
10000000
01000000
10000000
00000000
00100000
00010000
,
01000000
00010000
00100000
00001000
,
00010000
00000100
00010000
00001000
00010000
00000000
00000100
00001000
,
00000010
00000100
00000001
00001000
,
00000100
00010000
00000100
00001000
00000100
00000000
00010000
00001000
,
00020000
00000000
00000000
00030000
,
02000000
00000000
00000000
03000000
,
20000000
00000000
00000000
30000000
,
01000000
00000000
00010000
00000000
00000000
00001000
00000100
00000000
,
00000002
00000000
00000000
00000003
;

//---------------dance-double - ----------------
#NOTES:
     dance-double:
     :
     Hard:
     9:
     :
00000000
00000000
00000000
00000000
,
00000000
00000000
00000000
00000000
,
00000000
00000000
00000000
00000000
,
00000000
00000000
00000000
00000000
,
00000000
00000000
00000000
00000000
,
10000000
00000000
00000000
00010000
10000000
00000000
00000000
00000000
00100000
00000000
01000000
00000000
00100000
00000000
00000000
00000000
,
00010000
00000000
00000000
00001000
00010000
00000000
00000000
00000000
00000100
00000000
00000000
00000000
00001000
00000000
00000100
00000000
,
00001000
00000001
00000010
00000000
00000001
00001000
00000100
00000000
,
00001000
00000001
00000100
00000000
00000001
00000100
00001000
00020000
,
00000000
00000000
00000000
00030000
,
00001000
00000000
00000000
00001000
00100000
00000000
00010000
00000000
00000000
00000000
00100000
00000000
00000000
01000000
00000000
00000000
,
20000000
00010000
00010000
30010000
,
02000000
00001000
00001000
03001000
,
00020000
00000100
00000100
00030100
,
00002000
00000001
00000001
00003001
,
00000210
00001000
00000010
00000301
,
00021000
00000100
00001000
00030010
,
02001000
00010000
00100000
03001000
,
20010000
00100000
00010000
31000000
,
10010000
00000000
01000000
00000000
00010000
00000000
00000000
00010000
00000000
00000000
01000000
00000000
01000000
00000000
00000000
00001000
,
00000000
00000000
00010000
00000000
00010000
00000000
00000000
00000100
00000000
00000000
00001000
00000000
00001000
00000000
00000000
00000001
,
00000000
00000000
00000100
00000000
00000100
00000000
00000000
00000001
00000000
00000000
00000010
00000000
00000010
00000000
00000000
00001000
,
00000000
00000000
00010000
00000000
00010000
00000000
00000000
01000000
00000000
00000000
10000000
00000000
00010000
10000000
00000000
00010000
,
00000000
01000000
00100000
01000000
,
00001000
00010000
00000100
00000010
,
00000002
00000203
00020300
02030000
,
03100000
10000000
00010000
00100000
01000000
10000000
00010000
00100000
,
00001000
00010000
01000000
00010000
00001000
00100000
00001000
00010000
,
00001000
00000100
00001000
00010000
00000100
00010000
00001000
00000010
,
00000001
00000000
00000000
00001000
00000001
00000000
00001000
00000000
00000000
00000000
00000010
00000000
00000000
00000100
00000000
00000000
,
00000002
00000000
00000000
00000000
00000000
00000000
00000000
00000000
00000003
00000000
00000010
00000000
00000100
00010000
00000000
00010100
,
00000000
00000000
00010000
00000000
00000010
00000000
00000000
00001000
00000000
00000000
00010000
00000000
01000000
00000000
00000000
00010000
,
00000000
00000000
10000000
00000000
00010000
00000000
00000000
00100000
00000000
00000000
01000000
00000000
00010000
00000000
00000000
00001000
,
00000000
00000000
01000000
00000000
00010000
00000000
00000000
00001000
00000000
00000000
00000010
00000000
00000100
00000000
00000000
00001000
,
00000000
00000000
00000100
00000000
00000001
00000000
00000000
00000010
00000000
00000000
00001000
00000000
00010000
00000000
00000000
00100000
,
00000000
00000000
01000000
00000000
00010000
00000000
00000000
10000000
00000000
00000000
01000000
00000000
00100000
00000000
00000000
10000000
,
00000000
00000000
00010000
00000000
00100000
00000000
00000000
01000000
00000000
00000000
00010000
00000000
00100000
00000000
00000000
00002000
,
00000000
00000000
00000000
00003000
,
00100000
00001000
00010000
00000100
00001000
00000100
00010000
00000010
,
00010000
00000000
00000100
00000000
00001000
00000000
00000010
00000000
00000100
00000001
00001000
00000100
00000000
00000000
00000000
00000000
,
00000010
00000001
00001000
00000100
00010000
00001000
01000000
00010000
,
10000000
00000000
00010000
00000000
00100000
00000000
00001000
00000000
01000000
00001000
00010000
00001000
00000000
00000000
00000000
00000000
,
00010000
00000010
00010000
00000100
00010000
00001000
00010000
00000010
,
00001000
00000001
00001000
00000100
00001000
00000010
00001000
00000001
,
00000100
00001000
00000100
00000001
00000100
00000010
00000100
00000001
,
00001000
00000100
00010000
00001000
00100000
00010000
10000000
00010000
,
01000000
00001000
00100000
00000100
00010000
00000010
00001000
00000001
,
00000100
00000010
00001000
00000100
00010000
00001000
00100000
00010000
,
01000000
00100000
10000000
01000000
00010000
00001000
00000100
00000010
,
00000100
00001000
00010000
01000000
00001000
01000000
00010000
00001000
,
00100000
00000000
00001000
00000000
00010000
00000000
00000100
00000000
00001000
00000000
00000010
00000000
00001000
00000000
00000001
00000100
,
00000010
00000000
00000001
00000000
00000010
00000000
00001000
00000000
00000100
00000000
00010000
00000000
00001000
00000000
00100000
00010000
,
01000000
00000000
00100000
00000000
01000000
00000000
10000000
00000000
01000000
00000000
00100000
00000000
00010000
00000000
00001000
00010000
,
00001000
00010000
00000100
00001000
00000001
00001000
00000010
00000100
,
00001000
00000000
00010000
00000000
00001000
00010000
00000100
00000000
00010000
00000010
00010000
00000000
00001000
00000000
00010000
00000000
,
00001000
00000000
00001000
00000000
00010000
00001000
00100000
00000000
00001000
01000000
00001000
00000000
00010000
00000000
00001000
00000000
,
00100000
00000000
00010000
00000000
00100000
00010000
10000000
00000000
00010000
01000000
00010000
00000000
10000000
00000000
00100000
00000000
,
10000000
00000000
00000000
01000000
00100000
00000000
00010000
00000000
00000000
00000000
01001000
00000000
00000000
00011000
00000000
00000000
,
00020020
00000000
00000000
00000000
,
00000000
00000000
00030030
00000000
;
