#TITLE:Miracle Moon;
#SUBTITLE:(L.E.D.LIGHT STYLE MIX);
#ARTIST:Togo Project feat.Sana;
#BANNER:Miracle Moon (L.E.D.LIGHT STYLE MIX).png;
#BACKGROUND:Miracle Moon (L.E.D.LIGHT STYLE MIX)-bg.png;
#CDTITLE:./CDTITLES/Beatmania.png;
#MUSIC:Miracle Moon (L.E.D.LIGHT STYLE MIX).ogg;
#SAMPLESTART:31.299;
#SAMPLELENGTH:15;
#DISPLAYBPM:0:138;
#BPMS:0=138,52=138.01;
#STOPS:52=1.3;

//---------------dance-single - ----------------
#NOTES:
     dance-single:
     :
     Beginner:
     1:
     :
0000
0000
0000
0000
,
0000
0000
0000
0000
,
0000
0000
0000
0000
,
0000
0000
0000
0000
,
0000
0000
0000
0000
,
1000
0000
0010
0000
,
0001
0000
0010
0000
,
1000
0000
0100
0000
,
0001
0000
0100
0000
,
1000
1000
0000
0000
,
0001
0001
0000
0000
,
1000
1000
0000
0000
,
0001
0001
0000
0000
,
0010
0000
0000
0000
,
0000
0010
0000
0000
,
0000
0010
0000
0010
,
0000
0010
0010
0010
,
0010
0000
0100
0000
,
0000
0010
0000
0010
,
0000
0001
0000
0001
,
0000
1001
0000
0000
,
0100
0000
0000
0010
,
0010
0000
0000
0010
,
0010
0000
0000
0100
,
0000
0001
0000
0100
,
0000
1000
0000
1000
,
0000
0010
0000
0010
,
0000
0001
0000
0001
,
0000
0010
0000
0000
,
0000
0100
0000
0100
,
0000
1000
0000
0000
,
0000
0010
0000
0010
,
0000
0010
0000
0010
,
0000
0100
0000
0100
,
0000
0100
0000
0100
,
0000
0010
0000
0010
,
0000
1000
0000
0001
,
0000
0100
0100
0000
,
0000
0010
0000
0010
,
0000
1000
0000
0001
,
0000
0010
0000
0010
,
0000
0001
0000
1000
,
0000
0010
0010
0000
,
0000
0001
0000
1000
,
0000
0100
0100
0000
,
0000
1000
0000
0001
,
0000
0001
0000
0001
,
0000
0001
0000
0001
,
0000
1000
0000
1000
,
0000
1000
0000
1000
,
0000
0100
0100
0000
,
0000
0100
0100
0000
,
0000
0010
0010
0000
,
0000
0010
0010
0000
,
0000
0010
0000
0010
,
0000
0100
0000
0100
,
0000
0001
0000
1000
,
0000
1001
0000
0000
;

//---------------dance-single - ----------------
#NOTES:
     dance-single:
     :
     Easy:
     3:
     :
0000
0000
0000
0000
,
0000
0000
0000
0000
,
0000
0000
0000
0000
,
0000
0000
0000
0000
,
0000
0000
0000
0000
,
1000
0000
0010
0000
,
0001
0000
0010
0000
,
1000
0000
0100
0000
,
0001
0000
0100
0000
,
1000
1000
0100
0000
,
0001
0001
0010
0000
,
1000
1000
0010
0000
,
0001
0001
0100
0000
,
0010
0000
0000
0000
,
0000
0010
0000
0000
,
0000
0010
0000
0010
,
0000
0010
0010
0010
,
0010
1000
0100
1000
,
0000
0010
0100
0010
,
0000
0001
0100
0001
,
0000
1001
0000
0000
,
0100
1000
0000
0010
,
0010
0001
0000
0010
,
0010
1000
0000
0100
,
0000
0001
0000
0100
,
0000
1000
0001
1000
,
0000
0010
0100
0010
,
0000
0001
1000
0001
,
0000
0020
0000
0030
,
0000
0100
0000
0100
,
0000
2000
0000
3000
,
0000
0010
0000
0010
,
0000
0010
1000
0010
,
0000
0100
0001
0100
,
0000
0100
1000
0100
,
0000
0010
0001
0010
,
0000
1000
0000
0001
,
0000
0100
0100
0010
,
0000
0010
0000
0010
,
0000
1000
0100
0001
,
0100
0010
0000
0010
,
0000
0001
0100
1000
,
0100
0010
0010
0100
,
0000
0001
0010
1000
,
0010
0100
0100
0010
,
0000
1000
0010
0001
,
0100
0001
0100
0001
,
0100
0001
0010
0001
,
0010
1000
0100
1000
,
0100
1000
0010
1000
,
0010
0100
0100
0001
,
0000
0100
0100
1000
,
0000
0010
0010
0001
,
0000
0010
0010
1000
,
0000
0010
0000
0010
,
0000
0100
0000
0100
,
0000
0001
0000
1000
,
0000
1001
0000
0000
;

//---------------dance-single - ----------------
#NOTES:
     dance-single:
     :
     Medium:
     5:
     :
0000
0000
0000
0000
,
0000
0000
0000
0000
,
0000
0000
0000
0000
,
0000
0000
0000
0000
,
0000
0000
0000
0000
,
1001
0000
0100
0100
,
0010
0000
0001
1000
,
1001
0000
0010
0010
,
0100
0000
1000
0001
,
1001
0000
0100
0000
0001
0000
1000
0001
,
0010
0100
1000
0001
,
1001
0000
1000
0000
0001
0000
1000
0100
,
0001
0010
1000
0001
,
1001
1000
0000
0010
,
0100
0101
0000
0001
,
1000
0110
0000
1001
,
0000
1100
0101
1100
,
0101
0000
1000
0010
1000
0000
0001
0000
,
0100
0000
0001
0010
0001
0000
1000
0000
,
0100
0000
1000
0001
1000
0000
0010
0000
,
0100
0000
1100
0000
0000
1001
0000
0000
,
0010
1000
0100
0001
,
0010
0000
0001
1000
0001
0000
0100
0000
,
1000
0010
0001
0010
,
1000
0000
0001
0100
0010
0000
0100
0000
,
0100
0000
0010
1000
0010
0000
0100
0000
,
0001
0000
1000
0100
0010
0000
1000
0000
,
0100
0110
0000
1001
,
0100
0020
0000
0030
,
0000
0000
1000
0000
0000
0001
0100
0000
,
0010
2000
0000
3000
,
0000
0000
0001
0000
0000
1000
0100
0000
,
0010
0000
0001
0100
0001
0000
0100
0000
,
0100
0000
1000
0100
1000
0000
0010
0000
,
0010
1000
0100
0001
,
0100
0000
1000
0000
0000
0010
0000
0100
,
0001
2000
0000
0010
,
3010
0002
0000
0010
,
0013
1001
0000
0001
,
1000
0100
0010
0000
0001
0000
0100
0000
,
1000
1001
0000
1000
,
0001
0100
0010
0000
1000
0000
0100
0000
,
0001
1001
0000
0010
,
0001
1000
0100
0000
0001
0000
0010
0000
,
1000
1001
0000
0010
,
1000
0001
0100
0000
1000
0000
0010
0000
,
0001
1000
1000
0001
,
0100
0010
0100
0000
0001
0000
1000
0000
,
0010
0001
0001
1000
,
0010
0100
0010
0000
1000
0000
0001
0000
,
0100
0010
0010
0100
,
1000
0001
1000
0000
0100
0000
0010
0000
,
0001
0100
0100
0010
,
0001
1000
0001
0000
0010
0000
0100
0000
,
1000
1001
0000
0001
,
0001
0010
0001
0000
0000
0000
1000
0000
,
1000
0000
0010
0000
1000
0000
0000
0000
0000
0000
0000
0000
1000
0000
0000
0100
,
0000
0002
0000
0000
0000
0000
0003
0000
;

//---------------dance-single - ----------------
#NOTES:
     dance-single:
     :
     Hard:
     7:
     :
0000
0000
0000
0000
,
0000
0000
0000
0000
,
0000
0000
0000
0000
,
0000
0000
0000
0000
,
0000
0000
0000
0000
,
1000
0000
0000
0000
0001
0000
0000
0000
0100
0000
0000
0100
0000
0000
0000
0000
,
0010
0000
0000
0000
0100
0000
0000
0000
1000
0000
0000
1000
0000
0000
0000
0000
,
0001
0000
0000
0000
1000
0000
0000
0000
0010
0000
0000
0010
0000
0000
0000
0000
,
0100
0000
0000
0000
0010
0000
0000
0000
0001
0000
0000
0001
0000
0000
0000
0000
,
1001
0000
0000
0000
1000
0000
0100
0000
1000
0000
0000
0001
0000
0000
0100
0000
,
0001
0000
0000
0000
0001
0000
0100
0000
0001
0000
0000
1000
0000
0000
0100
0000
,
1000
0000
0000
0000
0010
0000
0100
0000
0001
0000
0000
1000
0000
0000
0100
0000
,
0010
0110
1001
0110
,
1001
1000
0100
0100
,
0100
1001
0010
0010
,
0010
1001
0100
1001
,
0010
1001
0110
0110
,
1001
0000
0000
0000
0000
0000
1000
0000
0100
0000
0000
0010
0000
0000
0001
0000
,
0100
0000
0000
0001
0000
0000
1000
0000
0010
0000
0000
0100
0000
0000
0001
0000
,
1000
0000
0001
0000
0000
0000
0100
0000
0010
0000
0000
1000
0000
0000
0010
0000
,
0100
0001
2000
0000
0000
3001
0000
0000
,
0001
0000
1000
0000
0000
0000
1000
0000
0100
0000
0000
0010
0000
0000
0001
0000
,
0010
0000
0000
0100
0000
0000
1000
0000
0010
0000
0000
1000
0000
0000
0010
0000
,
0100
0010
0000
1010
0000
1010
0000
0101
,
0000
0101
0000
0011
0000
0011
0000
1100
,
0000
0000
1100
0000
0000
0000
1000
0000
0001
0000
0000
1000
0000
0000
0010
0000
,
0010
0000
0100
0000
0000
0000
0001
0000
1000
0000
0000
0001
0000
0000
0100
0000
,
0100
0010
1000
0100
0000
0010
0000
0001
,
0100
1000
1100
1010
,
1001
0000
0001
0010
0100
1000
0000
0100
,
0000
1000
0001
0000
0011
0000
0101
0000
,
1001
0000
1000
0100
0010
0001
0000
0010
,
0000
0001
1000
0100
1000
0010
0100
0001
,
1000
0000
0001
0100
0001
0010
0100
1000
,
0001
0000
1000
0010
1000
0010
0100
0010
,
0100
0010
1000
0001
1000
0001
0010
0001
,
0010
0000
0001
1000
0010
0000
1000
0001
,
0010
1000
1010
0001
,
0101
0000
1000
0000
0001
0100
0001
0000
,
0100
0000
0001
0000
1000
0010
0100
0000
,
0001
1000
0100
0000
0010
0100
0010
0000
,
0001
0000
0100
0001
1000
0010
1000
0000
,
1010
0000
0100
0000
0010
0100
0010
0000
,
0001
0000
1000
0000
0001
0100
1000
0000
,
0101
0000
0001
0000
1000
0100
1000
0000
,
0010
0000
0001
0100
0010
1000
0100
0000
,
1001
0000
0000
0000
0010
0000
0000
0000
1000
0000
0100
0000
0010
0000
0000
0001
,
0000
0000
0100
0000
0001
0000
0000
0000
0100
0000
0010
0000
0100
0000
0000
0010
,
0000
0000
1000
0000
0100
0000
0000
0000
1000
0000
0001
0000
1000
0000
0000
0010
,
0000
0100
0001
1000
0010
1000
0000
0001
,
0010
0000
1000
0000
1000
0000
0000
0000
0010
0000
1000
0000
0100
0000
0000
0010
,
0000
0000
0100
0000
1000
0000
0000
0000
0001
0000
0010
0000
0100
0000
0000
1000
,
0000
0000
0001
0000
0001
0000
0000
0000
0010
0000
0001
0000
0100
0000
0000
0010
,
0000
0100
0001
1000
0100
1000
0000
1000
,
0100
0000
0001
0000
1000
0000
0000
0000
0010
0000
0100
0000
0001
0000
0000
0100
,
0000
0000
0010
0000
1000
0000
0000
0000
0010
0000
0100
0000
0010
0000
0000
1000
,
0000
0000
0001
0000
1000
0000
0000
0000
0100
0000
0010
0000
0001
0000
0000
1000
,
0000
2002
0000
0000
0000
0000
3003
0000
;

//---------------dance-double - ----------------
#NOTES:
     dance-double:
     :
     Beginner:
     1:
     :
00000000
00000000
00000000
00000000
,
00000000
00000000
00000000
00000000
,
00000000
00000000
00000000
00000000
,
00000000
00000000
00000000
00000000
,
00000000
00000000
00000000
00000000
,
01000000
00000000
01000000
00000000
,
01000000
00000000
00000000
00000000
,
00010000
00000000
00010000
00000000
,
00010000
00000000
00000000
00000000
,
00001000
00000000
00001000
00000000
,
00001000
00000000
00000000
00000000
,
00000100
00000000
00000100
00000000
,
00000100
00000000
00000000
00000000
,
00000001
00000001
00000000
00000000
,
00000000
00001000
00000000
00000000
,
00000000
00000001
00000000
00000000
,
00000000
00000001
00000000
00000001
,
00000000
00000100
00000000
00000100
,
00000000
00001000
00000000
00001000
,
00000000
00010000
00000000
00010000
,
00000000
00001000
00000000
00000000
,
00000000
00010000
00000000
00010000
,
00000000
01000000
00000000
01000000
,
00000000
10000000
00000000
10000000
,
00000000
00100000
00000000
00100000
,
00000000
10000000
00000000
00000000
,
00000000
01000000
00000000
00000000
,
00000000
00010000
00000000
00000000
,
00000000
00001000
00000000
00000000
,
00000000
00000010
00000000
00000000
,
00000000
00000001
00000000
00000000
,
00000000
00000100
00000000
00000000
,
00000000
00001000
00000000
00000000
,
00000000
00010000
00000000
00000000
,
00000000
00100000
00000000
00000000
,
00000000
10000000
00000000
00000000
,
00000000
01000000
00000000
00000000
,
00000000
00010000
00000000
00000000
,
00000000
00001000
00000000
00001000
,
00000000
00001000
00001000
00001000
,
00000000
00000001
00000000
00000001
,
00000000
00000001
00000001
00000001
,
00000000
00000010
00000000
00000010
,
00000000
00000010
00000010
00000010
,
00000000
00000100
00000000
00000100
,
00000000
00000100
00000100
00000100
,
00000000
00010000
00000000
00001000
,
00000000
00020000
00000000
00030000
,
00000000
00010000
00000000
01000000
,
00000000
20000000
00000000
30000000
,
00000000
10000000
00000000
00100000
,
00000000
00020000
00000000
00030000
,
00000000
00010000
00000000
00001000
,
00000000
00020000
00000000
00030000
,
00000000
00010000
00000000
00010000
,
00000000
00010000
00000000
00000000
,
00001000
00000000
00001000
00000000
,
00011000
00000000
00000000
00000000
;

//---------------dance-double - ----------------
#NOTES:
     dance-double:
     :
     Easy:
     2:
     :
00000000
00000000
00000000
00000000
,
00000000
00000000
00000000
00000000
,
00000000
00000000
00000000
00000000
,
00000000
00000000
00000000
00000000
,
00000000
00000000
00000000
00000000
,
00100000
00000000
00010000
00000000
,
00001000
00000000
00010000
00000000
,
00000010
00000000
00001000
00000000
,
00010000
00000000
00001000
00000000
,
00100000
00000000
00010000
00000000
,
10000000
00000000
01000000
00000000
,
00010000
00000000
00100000
00000000
,
00001000
00001000
00010000
00000000
,
00011000
00000000
00000000
00000000
,
00000000
00000100
00000000
00000000
,
00000000
00000010
00000000
00000100
,
00000000
00000001
00000001
00001000
,
00001000
00000100
00000000
00010000
,
00000000
00001000
00000000
00100000
,
00000000
00010000
01000000
00010000
,
00000000
10010000
00000000
00000000
,
00000000
10000000
00000000
00100000
,
01000000
00010000
00000000
01000000
,
00001000
00010000
00000000
00000100
,
00000000
00001000
00000000
00000001
,
00000000
00000100
00000010
00000100
,
00000000
00000010
00010000
00001000
,
00000000
00100000
00000000
00100000
,
00000000
00200000
00000000
00300000
,
00000000
01000000
00000000
01000000
,
00000000
02000000
00000000
03000000
,
00000000
00100000
00000000
00100000
,
00000000
01000000
10000000
00010000
,
00000000
01000000
00001000
00010000
,
00000000
00000010
00001000
00000001
,
00000000
00000100
00000010
00001000
,
00000000
00000100
00000000
00010000
,
00000000
00001000
00000000
00011000
,
00000000
00100000
00000000
00010000
,
00000000
10000000
01000000
00010000
,
00000000
01000000
00000000
00001000
,
00000000
00010000
00001000
00010000
,
00000000
00000010
00000000
00001000
,
00000000
00000001
00000100
00001000
,
00000000
00000100
00000000
00010000
,
00000000
00001000
00010000
00001000
,
00000000
00100000
00100000
00010000
,
00010000
10000000
10000000
00100000
,
00000000
01000000
00000000
00001000
,
00000000
00010000
00001000
00010000
,
00000000
00000010
00000010
00001000
,
00001000
00000001
00000001
00000010
,
00000000
00000100
00000000
00010000
,
00000000
00001000
00010000
00001000
,
00000000
00100000
00000000
00001000
,
00000000
00010000
00000000
00000010
,
00000000
00000100
00000000
00000001
,
00000000
00001001
00000000
00000000
;

//---------------dance-double - ----------------
#NOTES:
     dance-double:
     :
     Medium:
     5:
     :
00000000
00000000
00000000
00000000
,
00000000
00000000
00000000
00000000
,
00000000
00000000
00000000
00000000
,
00000000
00000000
00000000
00000000
,
00000000
00000000
00000000
00000000
,
10010000
00000000
01000000
01000000
,
00100000
00000000
10000000
01000000
,
00010000
00000000
00001000
00000100
,
00000001
00000000
00001000
00000010
,
00001000
00000100
00000001
00000010
,
00000100
00001000
00010000
00100000
,
01000000
10000000
00100000
00010000
,
01000000
10000000
01000000
00010000
,
01010000
00001000
00000000
00000010
,
00000000
00001001
00000000
00000100
,
00000000
00000101
00000000
00001100
,
00000000
00011000
00110000
01100000
,
11000000
00000000
10000000
00100000
10000000
00000000
00010000
00000000
,
01000000
00000000
00010000
00100000
00010000
00000000
10000000
00000000
,
01000000
00010000
00001000
00000010
,
00000100
00000000
00002000
00000000
00000000
00003001
00000000
00000000
,
00000010
00000000
00010000
00001000
00010000
00000000
00001000
00000000
,
01000000
00000000
00100000
10000000
00100000
00000000
01000000
00000000
,
10000000
10000000
00010000
00001000
,
00000001
00000000
00000100
00000001
00000100
00000000
00001000
00000000
,
00010000
00000000
00100000
01000000
00100000
00000000
10000000
00000000
,
00010000
00000000
10000000
01000000
00010000
00000000
00001000
00000000
,
00000010
00000110
00000000
00001001
,
00000000
00000220
00000000
00000330
,
00000000
00001000
00000000
00010000
,
00000000
02200000
00000000
03300000
,
00000000
10000000
00000000
01000000
,
00100000
00002000
00010000
00010000
,
00013000
00000100
00000010
00000001
,
00001000
00000000
00000001
00000010
00000001
00000000
00001000
00000001
,
00001000
00000001
00000100
00001000
,
00010000
00000000
00100000
10000000
00100000
00000000
10000000
00010000
,
10000000
10000000
00100000
00010000
,
00001000
00000110
00000000
00000001
,
00000100
00000001
00000100
00000000
00000010
00000000
00001000
00000000
,
00000100
00010100
00000000
00001000
,
01000000
00010000
00100000
00000000
00010000
00000000
10000000
00000000
,
01000000
00010000
00000010
00010000
,
00000100
00100000
00001000
01000000
,
00001000
00010000
00100000
10000000
,
01000000
00010000
00001000
00000100
,
00000001
00001000
00010000
10000000
,
01000000
00100000
01000000
00000000
00010000
00000000
10000000
00000000
,
10000000
00010000
00001000
00000001
,
00000100
00000010
00000100
00000000
00000001
00000000
00001000
00000000
,
00000001
00000100
00001000
00010000
,
00100000
10000000
01000000
00000000
00010000
00000000
00100000
00000000
,
10000000
01000000
00010000
00001000
,
00000010
00000001
00000100
00000000
00001000
00000000
00000010
00000000
,
00000001
00000101
00000000
00000100
,
00000001
00000100
00001000
00000000
00100000
00000000
01000000
00000000
,
10000000
00000000
00100000
00000000
10000000
00000000
00000000
00000000
00000000
00000000
00000000
00000000
00010000
00000000
00000000
10000000
,
00000000
02000000
00000000
00000000
00000000
00000000
03000000
00000000
;

//---------------dance-double - ----------------
#NOTES:
     dance-double:
     :
     Hard:
     7:
     :
00000000
00000000
00000000
00000000
,
00000000
00000000
00000000
00000000
,
00000000
00000000
00000000
00000000
,
00000000
00000000
00000000
00000000
,
00000000
00000000
00000000
00000000
,
10000000
00000000
00000000
00000000
00010000
00000000
00100000
00000000
01000000
00000000
00000000
10000000
00000000
00000000
00000000
00000000
,
00100000
00000000
00000000
00000000
10000000
00000000
01000000
00000000
00010000
00000000
00000000
00001000
00000000
00000000
00000010
00000000
,
00000001
00000000
00000000
00000000
00001000
00000000
00000010
00000000
00000100
00000000
00000000
00000001
00000000
00000000
00000000
00000000
,
00000010
00000000
00000000
00000000
00000001
00000000
00000100
00000000
00001000
00000000
00000000
00010000
00000000
00000000
00100000
00000000
,
10000000
00000000
00000000
00000000
10000000
00000000
01000000
00000000
10000000
00000000
00000000
00100000
00000000
00000000
01000000
00000000
,
00010000
00000000
00000000
00000000
10000000
00000000
01000000
00000000
00010000
00000000
00000000
00001000
00000000
00000000
00000100
00000000
,
00000001
00000000
00000000
00000000
00000001
00000000
00000100
00000000
00000001
00000000
00000000
00000010
00000000
00000000
00000100
00000000
,
00001000
00000000
00000000
00000000
00000001
00000000
00000100
00000000
00001000
00000000
00000000
00010000
00000000
00000000
00000000
00000000
,
01100000
10000000
01000000
00010000
,
00001000
00000110
00000001
00000100
,
00001000
00011000
00100000
11000000
,
00100000
10010000
01100000
00011000
,
00000110
00000000
00001000
00000001
00000100
00000000
00000001
00000100
,
00001000
00000000
00010000
00100000
10000000
00000000
00100000
10000000
,
00010000
00000000
01000000
00010000
00100000
00000000
00010000
01000000
,
00100000
00000000
02000000
00000000
00000000
03010000
00000000
00000000
,
00011000
00000000
00000010
00001000
00000010
00000000
00000001
00000100
,
00000010
00000000
00000100
00001000
00010000
00000000
01000000
10000000
,
01000000
00000000
10000000
01000000
00100000
00000000
00010000
10000000
,
00010000
00000000
10000000
00100000
01000000
00100000
10000000
00000000
,
00010000
00000000
00000000
01000000
00100000
00000000
10000000
00100000
,
10000000
00000000
01000000
00010000
00001000
00000000
00000100
00000000
,
00001000
00000000
00000001
00000100
00001000
00000000
00010000
01000000
,
10000000
10000000
11000000
10100000
,
10010000
00000000
01000000
00010000
00001000
00000100
00000000
00000001
,
00000000
00000100
00000001
00000000
00000011
00000000
00000101
00000000
,
00001001
00000000
00000100
00001000
00010000
01000000
00000000
10000000
,
00000000
10000000
00010000
00100000
00010000
01000000
00010000
00100000
,
01000000
00000000
00010000
00001000
00010000
01000000
00010000
00001000
,
00010000
00000000
00000010
00001000
00000010
00000001
00000010
00000100
,
00000010
00000100
00000001
00001000
00000001
00000100
00001000
00010000
,
00100000
00000000
10000000
00010000
00100000
00000000
00010000
10000000
,
01000000
11000000
01010000
00011000
,
00001100
00000000
00000101
00000000
00001000
00000100
00001000
00000000
,
00000010
00000000
00010000
00000000
00001000
00100000
00010000
00000000
,
01000000
00000000
01000000
00000000
00010000
01000000
00100000
00000000
,
10000000
00000000
00010000
10000000
01000000
00010000
00001000
00000000
,
00000100
00000000
00000010
00000000
00000001
00001000
00000001
00000000
,
00000100
00000000
00001000
00000000
00000001
00000100
00001000
00000000
,
00011000
00000000
00100000
00000000
01000000
10000000
01000000
00000000
,
00100000
00000000
00010000
10000000
01000000
00100000
00010000
00000000
,
01010000
00000000
00000000
00000000
00100000
00000000
00000000
00000000
00001000
00000000
00010000
00000000
00000100
00000000
00000000
00000010
,
00000000
00000000
00000001
00000000
00000100
00000000
00000000
00000000
00000001
00000000
00000100
00000000
00000001
00000000
00000000
00000100
,
00000000
00000000
00001000
00000000
00010000
00000000
00000000
00000000
01000000
00000000
10000000
00000000
00010000
00000000
00000000
00100000
,
00000000
00010000
10000000
01000000
10000000
01000000
00000000
00010000
,
00001000
00000000
00000010
00000000
00000100
00000000
00000000
00000000
00001000
00000000
00000100
00000000
00001000
00000000
00000000
00000001
,
00000000
00000000
00000010
00000000
00001000
00000000
00000000
00000000
00010000
00000000
00100000
00000000
01000000
00000000
00000000
00010000
,
00000000
00000000
10000000
00000000
00010000
00000000
00000000
00000000
00100000
00000000
00010000
00000000
01000000
00000000
00000000
00100000
,
00000000
10000000
00010000
01000000
00010000
01000000
00000000
10000000
,
01000000
00000000
00010000
00000000
01000000
00000000
00000000
00000000
00100000
00000000
00010000
00000000
10000000
00000000
00000000
01000000
,
00000000
00000000
00010000
00000000
00001000
00000000
00000000
00000000
00010000
00000000
01000000
00000000
00010000
00000000
00000000
00001000
,
00000000
00000000
00000100
00000000
00000001
00000000
00000000
00000000
00001000
00000000
00000001
00000000
00000100
00000000
00000000
00001100
,
00000000
00022000
00000000
00000000
00000000
00000000
00033000
00000000
;
