#TITLE:Midnight Frankenstein;
#ARTIST:Stay Gold Pony Boy;
#BANNER:Midnight Frankenstein.png;
#BACKGROUND:Midnight Frankenstein-bg.png;
#CDTITLE:./CDTITLES/DANCE DANCE REVOLUTION ULTRAMIX 3.png;
#MUSIC:Midnight Frankenstein.ogg;
#SAMPLESTART:54.6;
#SAMPLELENGTH:15;
#DISPLAYBPM:173:199;
#BPMS:0=179.6,4=181.6,40=210,44=184.7,57.5=177.5,60=180.02,92=176.7,115=179.3,123=176.9,132=178.3,148=176.7,155=178.7,171=175.8,188=177.3,210.5=178.8,226.5=177.3,246.5=179.4,255.5=178,260=176,315.5=177.7;

//---------------dance-single - ----------------
#NOTES:
     dance-single:
     :
     Beginner:
     1:
     :
0000
0000
0000
0000
,
0000
0000
0000
0000
,
0000
0000
0000
0000
,
0000
0000
0000
0000
,
0000
0000
0000
0000
,
1000
0000
0000
0000
,
1000
0000
0000
0000
,
0001
0000
0000
0000
,
0001
0000
0000
0000
,
0100
0100
0000
0000
,
0000
0000
0000
0000
,
0010
0000
0010
0000
,
0010
0000
0000
0000
,
0010
0000
0000
0000
,
0100
0000
0000
0000
,
0100
0000
0000
0000
,
0100
0000
0000
0000
,
0001
0000
0000
0000
,
0001
0000
0000
0000
,
1000
0000
0000
0000
,
1000
0000
0000
0000
,
1000
0000
0000
0000
,
1001
0000
0000
0000
,
0010
0000
0000
0000
,
0010
0000
0000
0000
,
1000
1000
0000
0000
,
0000
0000
0000
0000
,
0100
0100
0000
0000
,
0000
0000
0000
0000
,
1000
0000
0000
0000
,
1000
0000
0000
0000
,
0010
0010
0000
0000
,
0010
0000
0000
0000
,
0001
0000
0000
0000
,
0001
0000
0000
0000
,
1001
0000
0000
0000
,
0000
0000
0000
0000
,
0100
0000
0000
0000
,
0100
0000
0000
0000
,
0010
0010
0000
0000
,
1000
0000
0000
0000
,
0001
0000
0000
0000
,
1000
0000
0000
0000
,
0001
0001
0000
0000
,
1000
0000
0000
0000
,
0001
0001
0000
0000
,
0010
0000
0000
0000
,
0001
0001
0000
0000
,
0100
0000
0000
0000
,
0100
0000
0000
0000
,
0100
0000
0000
0000
,
0100
0000
0000
0000
,
0010
0000
0000
0000
,
0010
0010
0000
0000
,
0010
0010
0000
0000
,
0100
0000
0000
0000
,
0100
0000
0000
0000
,
0100
0100
0000
0000
,
1000
0000
0000
0000
,
1000
0000
0000
0000
,
0001
0000
0000
0000
,
0001
0001
0000
0000
,
1000
1000
0000
0000
,
0010
0000
0000
0000
,
0020
0000
0000
0030
,
0000
0000
0000
0000
,
0010
0000
0000
0000
,
0010
0000
0000
0000
,
0001
0000
0000
0000
,
0100
0000
0000
0000
,
1000
0000
0000
0000
,
0010
0000
0000
0000
,
1000
0000
0000
0000
,
0100
0000
0000
0000
,
0001
0000
0000
0000
,
0010
0000
0000
0000
,
0100
0000
0000
0000
,
0001
0000
0000
0000
,
1000
0000
0000
0000
,
1000
0000
0000
0000
0000
0000
0000
1001
;

//---------------dance-single - ----------------
#NOTES:
     dance-single:
     :
     Easy:
     4:
     :
0000
0000
0000
0000
,
0000
0000
0000
0000
,
0000
0000
0000
0000
,
0000
0000
0000
0000
,
0000
0000
0000
0000
,
0020
0000
0000
0000
,
0000
0000
0000
0030
,
0002
0000
0000
0000
,
0000
0000
0000
0003
,
2000
0000
0000
0000
,
0000
0000
0000
3000
,
2002
0000
0000
3003
,
0001
0000
0001
0000
,
1000
0000
1000
0000
,
0002
0000
0000
0003
,
0100
0000
0100
0000
,
0010
0000
0010
0000
,
1000
0000
1000
0000
,
0001
0000
0001
0000
,
1000
0000
1000
0000
,
2000
0000
0000
3000
,
0002
0000
0000
0003
,
1001
0000
0000
0000
,
0010
1000
0010
1000
,
0001
0100
0002
0000
,
1003
0000
0010
0000
,
1000
0000
0100
0000
,
0100
1000
0100
1000
,
0001
0010
0001
0010
,
0001
0000
0100
0000
,
0010
0000
1000
0000
,
0010
1000
0010
1000
,
0001
0100
0001
0100
,
0020
0000
0000
0000
,
0000
0000
0000
0030
,
2002
0000
0000
3003
,
0200
0000
0000
0300
,
0220
0000
0000
0330
,
1001
0000
0000
0000
,
0010
0010
1000
1000
,
0001
0001
0100
0100
,
0001
1000
0001
2000
,
0000
3000
0001
0001
,
0010
0100
0010
0100
,
2000
0000
3010
0010
,
1000
0001
1000
0020
,
0000
0000
0130
0100
,
0001
0001
1000
1000
,
0000
0000
0000
0000
,
0002
0000
0000
2003
,
0000
0000
3001
0000
,
0010
0001
0000
0000
,
0100
1000
0000
0000
,
0010
0200
0000
0000
,
0320
0000
0000
0130
,
0100
0001
0000
0001
,
0000
1000
0000
1000
,
0200
0000
0000
0300
,
0020
0000
0000
0030
,
0001
0000
0001
0000
,
1000
0000
1000
0000
,
0002
0000
0000
0003
,
2000
0000
0000
3000
,
0010
0000
0010
0000
,
0200
0000
0000
0300
,
0100
0000
0100
0000
,
0010
0000
0010
1000
,
1000
0000
1000
0000
,
0001
0000
0001
0010
,
0010
0000
0010
0000
,
0100
0000
0100
1000
,
1000
0000
1000
0000
,
0001
0000
0001
0100
,
0100
0010
0100
0000
,
0001
0000
1000
0000
,
0100
0010
0100
0000
,
1000
0000
0001
0000
,
1000
0001
1000
0000
,
0001
0000
1000
0000
,
2002
0000
0000
0000
0000
3003
0000
1001
;

//---------------dance-single - ----------------
#NOTES:
     dance-single:
     :
     Medium:
     5:
     :
0000
0000
0000
0000
,
0000
0000
0000
0000
,
0000
0000
0000
0000
,
0000
0000
0000
0000
,
0000
0000
0000
0000
,
0001
0000
1000
0000
0001
0010
0001
0000
,
1000
0000
0001
0000
1000
0100
1000
0000
,
0010
1000
0100
1000
,
0010
0000
0100
0000
0010
0100
0010
0000
,
1000
0000
0100
0000
1000
0001
1000
0000
,
0002
0000
0000
0003
,
0100
0100
0100
0200
0000
0000
0300
0000
,
0001
1000
0100
0001
,
0010
0000
0100
0000
1000
0100
1000
0000
,
0010
0010
0010
0020
0000
0000
0030
0000
,
1000
0100
0010
0001
,
1000
0000
0001
0000
0100
0010
0100
0000
,
0010
1000
0010
0100
,
0001
1000
1000
0100
,
1000
0010
0010
0100
,
0001
0100
0010
0100
,
0001
1000
1000
0010
,
0100
0001
0001
1000
,
2002
0000
0000
0003
,
0000
0100
0100
3100
,
0010
1000
0001
1000
,
0001
0100
0001
0000
1000
0000
0100
0000
,
0010
0010
0001
0100
,
0001
0001
1000
0100
,
0010
0100
1000
0100
,
0010
0001
0010
0000
0001
0000
1000
0000
,
0001
0001
1000
0100
,
1000
0010
0100
0001
,
0101
0000
0101
0000
,
1000
0001
1000
0100
,
0010
0010
0001
1000
,
0001
0100
0001
0000
0001
0100
0001
0000
,
2000
0000
0000
0000
,
0010
0010
0010
3010
,
1000
0100
1000
0000
0001
0000
0100
0000
,
0010
0100
0001
1000
,
0100
0000
1000
0000
0010
0100
0001
0000
,
0010
0100
1000
0000
0001
0100
0001
0000
,
0001
0001
1000
0100
,
0010
0000
0010
0000
0001
1000
0001
0000
,
0100
0010
1000
0010
,
1000
0001
1000
0000
0001
0100
0001
0000
,
2002
0000
0000
0000
0000
0000
0000
3003
,
0000
0000
0000
0000
,
0200
0000
0000
0002
0300
0000
2003
0000
,
0000
0002
3000
0000
0200
0000
0303
0000
,
0001
0100
0001
0000
0100
0010
0000
0010
,
0000
0010
0000
1000
0000
0010
0000
0000
,
0010
1000
0010
0000
1000
0001
0000
0001
,
1000
0000
1000
0001
0000
0001
1000
0000
,
0001
0100
0001
0000
1000
0001
0000
0100
,
0000
0100
0000
0001
0000
1000
0000
0000
,
0010
1000
0010
0000
0100
0010
0000
0010
,
0100
0000
0100
0010
0100
0010
0100
0000
,
0001
1000
0100
0000
1000
0001
0000
0100
,
0000
0001
0000
1000
0000
0100
0000
0000
,
0010
0001
0010
0000
0000
0200
0000
0000
,
2300
0000
0000
0002
3000
0100
0003
0000
,
0001
0100
0010
0000
0001
0100
0010
0020
,
0000
0000
0000
0030
,
1000
0000
1000
0000
0001
0000
0000
0100
,
0000
0100
0001
1000
,
0001
0000
0001
0000
0010
0000
0000
0100
,
0000
0100
1000
0001
,
0100
0000
0100
0000
0010
0000
0000
1000
,
0000
1000
0010
0100
,
0001
0000
0001
0000
1000
0000
0000
0001
,
0000
0001
0100
0010
,
1000
0010
0100
0000
0001
0100
0000
0001
,
0000
0010
0001
0000
0100
0001
0100
0000
,
0001
0010
0100
0000
1000
0100
0000
1000
,
0000
0010
1000
0000
0100
1000
0100
0000
,
0010
0001
1000
0000
0010
1000
0000
0001
,
0000
0010
0100
0000
1000
0001
1000
0000
,
0010
0100
0010
0100
0001
1000
0000
1001
;

//---------------dance-single - ----------------
#NOTES:
     dance-single:
     :
     Hard:
     8:
     :
0000
0000
0000
0000
,
0000
0000
0000
0000
,
0000
0000
0000
0000
,
0000
0000
0000
0000
,
0000
0000
0000
0000
,
0001
0001
1000
0001
0100
0010
0100
0001
,
0100
0001
0001
0100
0010
0100
0010
0000
,
0100
0100
1000
0100
0010
0100
1000
0002
,
0000
0103
0100
0010
1000
0100
1000
0000
,
0010
0010
0100
1000
0001
0100
0001
0200
,
0000
0000
0000
0300
,
0001
0100
0001
0100
0000
0010
1000
0000
,
0011
1010
0011
1010
,
0010
1000
0010
1000
0010
1000
0010
0000
,
0001
0100
0001
0100
0000
1000
0100
0000
,
0101
1100
0101
1100
,
0001
0010
0100
1000
0100
1000
0100
1000
,
0001
0100
0010
1000
0010
1000
0010
1000
,
0001
0100
1000
0100
0001
0010
1000
0010
,
0001
0100
0001
1000
0100
0010
0001
0000
,
1000
0100
2000
0000
3000
0100
0010
0100
,
1000
0001
1000
0001
1000
0100
0010
0100
,
1000
0001
1000
0001
1000
0001
1000
0000
,
0012
1003
2010
3100
,
0120
0000
0001
0030
0100
0010
0100
0010
,
1000
1010
0001
1100
,
0001
0110
1000
0101
,
0001
0010
0100
1000
0010
0100
0001
1000
,
0100
1000
0100
2000
0001
0100
3100
0000
,
0010
1100
0001
0101
,
1000
1001
0100
0110
,
0001
0100
0010
1000
0010
0100
0001
0001
,
1000
0100
0010
0001
0010
0100
1000
0000
,
1100
1010
1100
1010
,
0101
0011
0101
0011
,
0001
0010
0100
1000
0100
1000
0010
1000
,
0010
1000
0100
0010
0100
1000
0001
0000
,
0002
0023
0230
2300
,
3200
0320
0032
0003
,
0010
0100
1000
0010
1000
0010
1000
0001
,
0100
1000
0100
0001
0001
0100
0001
0000
,
0010
0100
1000
0100
0010
0200
0000
1300
,
0000
0001
0100
0000
1000
0100
1000
0000
,
0002
0000
2003
0000
3001
0000
1000
0100
,
0000
0100
1000
0000
0002
0000
0103
0000
,
0020
0000
2030
0000
3100
0000
0010
0001
,
0000
0001
0100
0000
0020
0000
1030
0000
,
0001
1000
0001
0100
0010
0200
0000
0301
,
0000
0000
0000
0000
,
1000
0100
0010
0100
1000
0010
0001
0010
,
1000
0100
0010
0100
0020
0000
0030
0000
,
0001
1000
0001
1000
0001
0100
0000
0110
,
0000
1100
0000
0110
0000
0011
0000
0000
,
0001
0010
0001
0000
1000
0100
0000
0001
,
0100
0000
1000
0010
0000
0001
0010
0000
,
0010
1000
0010
1000
0010
1000
0000
0101
,
0000
1100
0000
0101
0000
0101
0000
0000
,
1000
0100
0100
0000
0010
0010
0000
0001
,
0001
0000
0100
0001
0010
0100
0100
0000
,
1000
0010
1000
0001
0100
0100
0000
0002
,
0000
2003
0000
3001
0000
0011
0000
0000
,
0001
1000
0001
0000
0100
0010
0000
1000
,
0100
0000
0001
0020
0000
0130
0000
0000
,
1000
0100
1000
0100
1000
0100
1000
0200
,
0000
0000
0000
0300
,
1000
0010
0100
0001
0010
0100
0000
1000
,
0000
0001
0010
0001
0010
0001
0010
0000
,
0100
1000
0010
0100
0001
0010
0000
0100
,
0000
1000
0001
1000
0001
1000
0001
0000
,
0010
0100
1000
0010
0100
0001
0000
0010
,
0000
0100
1000
0100
1000
0100
1000
0000
,
0001
0010
0100
1000
0010
0100
0000
0001
,
0000
0100
0001
0100
0001
0100
0001
0000
,
0001
1000
0100
0010
0100
2000
0000
3001
,
0000
0100
0010
0100
0001
0100
0010
0000
,
1000
0100
0010
0100
1000
0020
0000
0130
,
0000
0001
0100
0001
0100
0001
0100
0000
,
0010
1000
0100
1000
0010
0200
0000
0310
,
0000
1000
0010
1000
0010
1000
0010
0000
,
1000
0001
1000
0001
1000
0001
0000
1001
;

//---------------dance-double - ----------------
#NOTES:
     dance-double:
     :
     Beginner:
     1:
     :
00000000
00000000
00000000
00000000
,
00000000
00000000
00000000
00000000
,
00000000
00000000
00000000
00000000
,
00000000
00000000
00000000
00000000
,
00000000
00000000
00000000
00000000
,
10000000
00000000
00000000
00000000
,
10000000
00000000
00000000
00000000
,
00010000
00000000
00000000
00000000
,
00010000
00000000
00000000
00000000
,
00100000
00100000
00000000
00000000
,
00000000
00000000
00000000
00000000
,
01000000
00000000
01000000
00000000
,
01000000
00000000
00000000
00000000
,
00010000
00000000
00000000
00000000
,
00001000
00000000
00000000
00000000
,
00001000
00000000
00000000
00000000
,
00001000
00000000
00000000
00000000
,
00010000
00000000
00000000
00000000
,
00010000
00000000
00000000
00000000
,
00000010
00000000
00000000
00000000
,
00000010
00000000
00000000
00000000
,
00000010
00000000
00000000
00000000
,
00001001
00000000
00000000
00000000
,
00000001
00000000
00000000
00000000
,
00000001
00000000
00000000
00000000
,
00001000
00001000
00000000
00000000
,
00000000
00000000
00000000
00000000
,
00000001
00000001
00000000
00000000
,
00000000
00000000
00000000
00000000
,
00000100
00000000
00000000
00000000
,
00001000
00000000
00000000
00000000
,
00010000
00010000
00000000
00000000
,
00001000
00000000
00000000
00000000
,
00010000
00000000
00000000
00000000
,
00010000
00000000
00000000
00000000
,
00011000
00000000
00000000
00000000
,
00000000
00000000
00000000
00000000
,
00100000
00000000
00000000
00000000
,
00100000
00000000
00000000
00000000
,
01000000
01000000
00000000
00000000
,
10000000
00000000
00000000
00000000
,
00010000
00000000
00000000
00000000
,
10000000
00000000
00000000
00000000
,
00010000
00010000
00000000
00000000
,
01000000
00000000
00000000
00000000
,
10000000
10000000
00000000
00000000
,
00010000
00000000
00000000
00000000
,
10000000
10000000
00000000
00000000
,
00000000
00000000
00000000
00000000
,
01000000
00000000
00000000
00000000
,
00010000
00000000
00000000
00000000
,
00010000
00000000
00000000
00000000
,
00001000
00000000
00000000
00000000
,
00000010
00000010
00000000
00000000
,
00000100
00000100
00000000
00000000
,
00001000
00000000
00000000
00000000
,
00000001
00000000
00000000
00000000
,
00001000
00001000
00000000
00000000
,
00000001
00000000
00000000
00000000
,
00000001
00000000
00000000
00000000
,
00001000
00000000
00000000
00000000
,
00000001
00000001
00000000
00000000
,
00001000
00001000
00000000
00000000
,
00000010
00000000
00000000
00000000
,
00002000
00000000
00000000
00003000
,
00000000
00000000
00000000
00000000
,
00010000
00000000
00000000
00000000
,
00010000
00000000
00000000
00000000
,
00001000
00000000
00000000
00000000
,
00010000
00000000
00000000
00000000
,
00100000
00000000
00000000
00000000
,
00100000
00000000
00000000
00000000
,
01000000
00000000
00000000
00000000
,
01000000
00000000
00000000
00000000
,
10000000
00000000
00000000
00000000
,
10000000
00000000
00000000
00000000
,
00010000
00000000
00000000
00000000
,
00010000
00000000
00000000
00000000
,
10000000
00000000
00000000
00000000
,
10010000
00000000
00000000
00000000
;

//---------------dance-double - ----------------
#NOTES:
     dance-double:
     :
     Easy:
     4:
     :
00000000
00000000
00000000
00000000
,
00000000
00000000
00000000
00000000
,
00000000
00000000
00000000
00000000
,
00000000
00000000
00000000
00000000
,
00000000
00000000
00000000
00000000
,
20000000
00000000
00000000
00000000
,
00000000
00000000
00000000
30000000
,
02000000
00000000
00000000
00000000
,
00000000
00000000
00000000
03000000
,
00020000
00000000
00000000
00000000
,
00000000
00000000
00000000
00030000
,
00022000
00000000
00000000
00033000
,
00001000
00000000
00001000
00000000
,
00000010
00000000
00000010
00000000
,
00002000
00000000
00000000
00003000
,
00000001
00000000
00000001
00000000
,
00001000
00000000
00001000
00000000
,
00000001
00000000
00000001
00000000
,
00000100
00000000
00000100
00000000
,
00001000
00000000
00001000
00000000
,
00020000
00000000
00000000
00030000
,
00002000
00000000
00000000
00003000
,
00011000
00000000
00000000
00000000
,
00010000
01000000
00010000
01000000
,
00100000
10000000
00200000
00000000
,
10300000
00000000
01000000
00000000
,
00010000
00000000
00001000
00000000
,
00000100
00000001
00000100
00000001
,
00001000
00000010
00001000
00000010
,
00000100
00000000
00001000
00000000
,
00010000
00000000
00100000
00000000
,
10000000
00100000
10000000
00100000
,
01000000
00010000
01000000
00010000
,
20000000
00000000
00000000
00000000
,
00000000
00000000
00000000
30000000
,
20020000
00000000
00000000
30030000
,
00020000
00000000
00000000
00030000
,
00022000
00000000
00000000
00033000
,
00011000
00000000
00000000
00000000
,
00000010
00000010
00001000
00001000
,
00000001
00000001
00000100
00000100
,
00000001
00001000
00000001
00002000
,
00000000
00003000
00000001
00000001
,
00000100
00001000
00010000
00001000
,
00020000
00000000
00031000
00001000
,
00010000
01000000
10000000
00200000
,
00000000
00000000
01300000
01000000
,
00010000
00010000
10000000
10000000
,
00000000
00000000
00000000
00000000
,
00020000
00000000
00000000
20030000
,
00000000
00000000
30010000
00000000
,
10000000
01000000
00000000
00000000
,
00010000
00001000
00000000
00000000
,
00000100
00000002
00000000
00000000
,
00002003
00000000
00000000
00003010
,
00000010
00001000
00000000
00000001
,
00000000
00000100
00000000
00001000
,
00020000
00000000
00000000
00030000
,
00002000
00000000
00000000
00003000
,
00100000
00000000
00100000
00000000
,
00010000
00000000
00010000
00000000
,
20000000
00000000
00000000
30000000
,
00020000
00000000
00000000
00030000
,
01000000
00000000
01000000
00000000
,
00020000
00000000
00000000
00030000
,
00100000
00000000
00100000
00000000
,
00001000
00000000
00001000
00010000
,
00010000
00000000
00010000
00000000
,
00000100
00000000
00000100
00001000
,
00001000
00000000
00001000
00000000
,
00000001
00000000
00000001
00000100
,
00000100
00000000
00000100
00000000
,
00000010
00000000
00000010
00001000
,
00001000
00000001
00001000
00000000
,
00000100
00000000
00010000
00000000
,
00001000
00010000
00001000
00000000
,
00100000
00000000
00010000
00000000
,
10000000
00010000
10000000
00000000
,
00100000
00000000
01000000
00000000
,
02200000
00000000
00000000
00000000
00000000
03300000
00000000
01100000
;

//---------------dance-double - ----------------
#NOTES:
     dance-double:
     :
     Medium:
     5:
     :
00000000
00000000
00000000
00000000
,
00000000
00000000
00000000
00000000
,
00000000
00000000
00000000
00000000
,
00000000
00000000
00000000
00000000
,
00000000
00000000
00000000
00000000
,
00001000
00001000
00010000
00000100
,
00000010
00000001
00000001
00000100
,
00000010
00000010
00001000
00000001
,
00001000
00000100
00000100
00000010
,
00000100
00000100
00001000
00000010
,
00002000
00000000
00000000
00003000
,
00000010
00001000
00000010
00010000
00000000
00001000
00010000
00000000
,
00022000
00000000
00000000
00000000
,
00000000
00000000
00000000
00033000
,
00010000
00001000
00010000
00001000
00000000
01000000
00010000
00000000
,
10000000
10000000
00100000
01000000
,
00010000
00100000
00100000
01000000
,
20000000
30020000
20030000
30020000
,
00130000
00100000
00010000
01000000
,
00100000
10000000
10000000
00010000
,
02000000
03200000
02300000
03200000
,
01300000
01000000
00001000
00010000
,
00000010
00000100
00000100
00000001
,
00002000
00000100
00000001
00000100
,
00000001
00000100
00000001
00003100
,
00000010
00001000
00000001
00000100
,
00001000
00000010
00002000
00003000
,
00000010
00001000
00000010
00000000
00000010
00001000
00000010
00000000
,
00010000
00001000
00010000
00000000
00001000
00000000
00010000
00000000
,
01000000
10000000
00100000
10000000
,
01000000
00010000
02000000
03000000
,
00010000
01000000
00010000
00000000
10000000
01000000
10000000
00000000
,
00100000
10000000
00100000
00000000
01000000
00000000
01000000
00000000
,
00200000
10000000
00000000
01000000
,
00000000
10000000
00000000
10300000
,
10000000
00010000
10000000
00000000
00010000
01000000
00010000
00000000
,
00100000
00010000
00100000
00000000
01000000
00000000
01000000
00000000
,
22000000
00000000
00000000
00000000
,
00000000
00000000
00000000
33000000
,
10000000
00010000
01000000
00000000
01000000
00010000
10000000
00000000
,
00100000
10000000
00100000
00000000
00010000
01000000
00010000
00000000
,
10000000
00010000
00010000
10000000
,
00100000
00000000
00100000
00000000
00100000
01000000
00100000
00000000
,
10000000
01000000
10000000
00010000
,
01000000
00000000
00100000
00000000
00100000
01000000
00100000
00000000
,
01000000
00001000
00010000
00000010
,
00000100
00000000
00000100
00000000
00000001
00000100
00000001
00000000
,
00002002
00000000
00000000
00000000
00000000
00000000
00000000
00003003
,
00000000
00000000
00000000
00000000
,
00000202
00000000
00000000
00000000
,
00000000
00000000
00000000
00000303
,
00002000
00003002
00002003
00003000
,
00001001
00000000
00011000
00000000
,
01000000
00010000
10000000
01000000
,
10000000
00010000
01000000
00010000
,
02000000
03200000
20300000
30000000
,
10100000
00000000
10010000
00000000
,
00100000
10000000
00010000
10000000
,
00010000
00100000
01000000
10000000
,
20000000
30200000
02300000
03000000
,
01100000
00000000
01100000
00000000
,
00010000
10000000
01000000
10000000
,
00010000
10000000
00200000
00300000
,
00020000
00000000
02030000
00000000
03001000
00000000
00000000
00022000
,
00000000
00000000
00000000
00033000
,
00010000
00000000
00010000
00000000
00000100
00000000
00000000
00001000
,
00000000
00001000
00000010
00000100
,
00000001
00000000
00000001
00000000
00001000
00000000
00000000
00000100
,
00000000
00000100
00010000
00001000
,
00100000
00000000
00100000
00000000
00010000
00000000
00000000
10000000
,
00000000
10000000
00100000
01000000
,
00010000
00000000
00010000
00000000
00100000
00000000
00000000
01000000
,
00000000
01000000
00010000
00001000
,
00010000
00001000
00100000
00000000
00001000
00010000
00000000
00001000
,
00000000
00010000
00000100
00000000
00001000
00000010
00010000
00000000
,
00001000
00010000
00000100
00000000
00010000
00001000
00000000
00010000
,
00000000
00001000
00100000
00000000
00010000
01000000
00001000
00000000
,
00010000
00000100
00001000
00000000
00000001
00001000
00000000
00000010
,
00000000
00001000
00000100
00000000
00010000
00001000
00010000
00000000
,
00001000
00010000
00001000
00010000
00001000
00010000
00000000
00011000
;

//---------------dance-double - ----------------
#NOTES:
     dance-double:
     :
     Hard:
     8:
     :
00000000
00000000
00000000
00000000
,
00000000
00000000
00000000
00000000
,
00000000
00000000
00000000
00000000
,
00000000
00000000
00000000
00000000
,
00000000
00000000
00000000
00000000
,
10000000
10000000
00100000
01000000
00001000
00010000
00001000
00020000
,
00000000
00030000
00000100
00001000
00000001
00000010
00000100
00000000
,
00001000
00001000
00000001
00000100
00001000
00010000
01000000
20000000
,
00000000
31000000
01000000
00100000
00010000
00100000
01000000
00000000
,
10000000
10000000
01000000
00010000
00001000
00010000
00001000
00000020
,
00000000
00000000
00000000
00000030
,
00001000
00000100
00001000
00000100
00000000
00000001
00000100
00000000
,
00000011
00001010
00000011
00001010
,
00010000
00001000
00010000
00001000
00010000
00001000
00010000
00000000
,
01000000
00100000
01000000
00100000
00000000
00010000
01000000
00000000
,
01010000
00000000
11000000
00000000
00010000
01000000
10000000
00000000
,
01010000
00000000
11000000
00000000
10000000
01000000
00010000
00000000
,
00001000
00010000
00000100
00001000
00000010
00000100
00000001
00000100
,
00000000
00000010
00001000
00000100
00000010
00000001
00000100
00001000
,
00010000
00000100
00010000
00001000
01000000
00100000
10000000
00000000
,
00010000
01000000
00100000
10000000
01000000
01000000
00010000
00001000
,
00000000
00000100
00000010
00000100
00000010
00001000
00000001
00001000
,
00000100
00000010
00000100
00000010
00000100
00000010
00000100
00000000
,
00000012
00001003
00002010
00003001
,
00001020
00000000
00000130
00000000
00001000
00010000
00001000
00010000
,
00001000
00011000
00100000
00110000
,
01000000
11000000
00100000
01010000
,
00010000
00100000
01000000
10000000
00100000
10000000
01000000
00010000
,
00001000
00000100
00000001
00000010
00000001
00001000
00001000
00000000
,
00000001
00001010
00001000
00000101
,
00000010
00000110
00000100
00001100
,
00001000
00000010
00000100
00000001
00000010
00000001
00000100
00001000
,
00010000
01000000
10000000
00100000
10000000
00010000
00010000
00000000
,
01010000
11000000
01010000
00011000
,
00001100
00000101
00001100
00000011
,
00000010
00000001
00000100
00001000
00010000
00000010
00001000
00000100
,
00010000
00001000
00010000
01000000
10000000
00100000
10000000
00000000
,
00200000
00320000
00032000
00003020
,
00002030
00023000
00230000
10300000
,
00100000
10000000
01000000
00010000
00001000
00100000
00010000
01000000
,
00001000
00010000
00001000
00000100
00000001
00000010
00000001
00000000
,
00000001
00001000
00000001
00000100
00001000
00020000
00000000
01030000
,
00000000
10000000
00010000
00000000
10000000
00010000
10000000
00000000
,
02000000
00000000
03200000
00000000
00301000
00000000
00010000
00001000
,
00000000
00001000
00010000
00000000
00000200
00000000
00001300
00000000
,
00000020
00000000
00000230
00000000
00000301
00000000
00000010
00000001
,
00000000
00000001
00000100
00000000
00002000
00000000
00013000
00000000
,
00001000
01000000
00001000
00100000
00010000
20000000
00000000
31000000
,
00000000
00000000
00000000
00000000
,
00100000
00001000
00010000
00001000
01000000
00001000
00010000
00010000
,
00000010
00010000
00001000
00010000
00000100
00000000
00000000
00000000
,
00010000
00100000
01000000
00100000
01000000
10000000
00000000
11000000
,
00000000
01100000
00000000
00110000
00000000
00101000
00000000
00000000
,
00100000
00010000
00100000
00000000
10000000
01000000
00000000
00010000
,
00001000
00000000
00000100
00000001
00000000
00001000
00000010
00000000
,
00001000
00000010
00000100
00000010
00000100
00000001
00000000
00000101
,
00000000
00000110
00000000
00001010
00000000
00010010
00000000
00000000
,
00010000
00001000
01000000
00000000
00100000
10000000
00000000
01000000
,
00010000
00000000
00001000
00010000
01000000
10000000
10000000
00000000
,
00100000
00010000
00001000
00000010
00000001
00001000
00000000
00000002
,
00000000
00002003
00000000
00003100
00000000
00001100
00000000
00000000
,
00001000
00000001
00001000
00000000
00000100
00010000
00000000
00001000
,
00100000
00000000
00010000
00200000
00000000
01300000
00000000
00000000
,
00010000
01000000
10000000
01000000
00010000
00001000
00010000
00002000
,
00000000
00000000
00000000
00003000
,
00010000
00001000
00000010
00000001
00001000
00000100
00000000
00010000
,
00000000
00000010
00001000
00000010
00001000
00000010
00001000
00000000
,
00001000
00010000
01000000
10000000
00010000
00100000
00000000
00001000
,
00000000
01000000
00010000
01000000
00010000
01000000
00010000
00000000
,
10000000
00010000
01000000
00001000
00010000
00001000
00000000
00000100
,
00000000
00000001
00001000
00000001
00001000
00000001
00001000
00000000
,
00000001
00001000
00000100
00010000
00001000
00010000
00000000
01000000
,
00000000
10000000
00010000
10000000
00010000
10000000
00010000
00000000
,
00100000
01000000
00010000
00001000
00000100
00000010
00000000
00000100
,
00000000
00001000
00000100
00000001
00000010
00000100
00001000
00000000
,
00000010
00000100
00001000
00010000
01000000
00100000
00000000
01000000
,
00000000
00010000
01000000
10000000
00100000
01000000
00010000
00000000
,
00100000
00010000
10000000
01000000
00010000
00001000
00000000
00000100
,
00000000
00000001
00001000
00000010
00000100
00001000
00010000
00000000
,
00001000
00010000
00001000
00010000
00001000
00010000
00000000
00011000
;
