#TITLE:Mi Alma;
#ARTIST:Ozomatli;
#BANNER:Mi Alma.png;
#BACKGROUND:Mi Alma-bg.png;
#CDTITLE:./CDTITLES/DANCE DANCE REVOLUTION ULTRAMIX 3.png;
#MUSIC:Mi Alma.ogg;
#SAMPLESTART:12;
#SAMPLELENGTH:15;
#DISPLAYBPM:138;
#BPMS:0=136.7,4=137,20=139,27=140,36=136,39=137,55=138.6,68=138,80=137.7,91=137.5,104=138,115=138.3,131=137.4,144=138.6,147=137,160=139.1,170=138.5,180=138.3,195=137.5,208=137.4,224=137.9,248=138.4;

//---------------dance-single - ----------------
#NOTES:
     dance-single:
     :
     Beginner:
     1:
     :
0000
0000
0000
0000
,
0000
0000
0000
0000
,
0000
0000
0000
0000
,
0000
0000
0000
0000
,
0000
0000
0000
0000
,
1000
0000
1000
0000
,
1000
0000
0001
0000
,
1000
0000
0000
0000
,
1000
0000
0000
0000
,
1001
0000
0000
0000
,
0100
0100
0100
0000
,
1001
0000
0000
0000
,
1000
0000
1000
0000
,
0001
0000
0001
0000
,
0100
0100
0100
0000
,
0010
0000
0000
0000
,
0010
0000
0010
0000
,
0100
0100
0100
0000
,
0100
0000
0000
0000
,
0001
0000
1000
0000
,
1000
0000
0001
0000
,
1000
0000
1000
0000
,
0001
0000
0001
0000
,
0010
0000
0010
0000
,
0010
0000
0010
0000
,
0100
0000
0000
0000
,
0100
0000
0000
0000
,
1000
0000
0000
0000
,
1000
0000
0000
0000
,
0001
0000
0000
0000
,
0001
0001
0001
0000
,
1000
0000
0000
0000
,
1000
1000
1000
0000
,
0010
0000
0000
0000
,
0010
0000
0000
0000
,
0100
0000
0100
0000
,
0100
0000
0100
0000
,
0001
0000
0000
0000
,
1000
0000
0000
0000
,
1000
0000
1000
0000
,
1001
0000
0000
0000
,
0010
0000
0000
0000
,
0010
0000
0000
0000
,
0010
0010
0010
0010
,
0010
0000
0000
0000
,
0100
0000
0000
0000
,
0100
0000
0000
0000
,
0001
0000
0000
0000
,
0001
0000
0000
0000
,
1000
0000
0000
0000
,
1000
0000
0000
0000
,
1000
0000
0001
0000
,
1000
1000
1000
0000
,
0001
0001
0001
0000
,
0100
0100
0100
0000
,
0010
0010
0010
0000
,
0010
0010
0010
0000
,
1000
0000
1000
0000
,
0001
0000
0001
0000
,
0001
0001
0001
0000
,
0000
0000
2002
0000
,
0000
0000
0000
0000
,
0000
0000
0000
0000
,
0000
0000
0000
3003
,
0000
0000
1001
0000
;

//---------------dance-single - ----------------
#NOTES:
     dance-single:
     :
     Easy:
     4:
     :
0000
0000
0000
0000
,
0000
0000
0000
0000
,
0000
0000
0000
0000
,
0000
0000
0000
0000
,
0000
0000
0000
0000
,
2000
0000
0000
3000
,
0002
0000
0000
0003
,
1000
1000
1000
0001
,
0001
0100
0001
1000
,
0100
0100
0100
0100
,
0100
0100
0200
0300
,
2000
0000
0001
3001
,
0010
0100
0000
0010
,
0002
0000
0000
0003
,
1000
1000
0010
1000
,
0002
0000
0000
0003
,
2000
0000
0000
3000
,
0010
0100
0100
0100
,
0010
1000
0100
0010
,
0002
0003
0001
0001
,
2000
0000
0000
3000
,
0020
0030
1000
0001
,
1000
0001
1000
0001
,
2000
3000
0010
1000
,
0010
1000
0010
1000
,
0001
0010
0100
1000
,
0002
0000
0000
0003
,
0100
0010
1000
1000
,
0001
1000
0010
1000
,
0002
0000
0000
0003
,
2000
0000
0000
3000
,
0100
0100
0100
1000
,
0010
0000
0000
0000
,
0200
0300
0001
0001
,
0200
0300
0010
0010
,
1000
0001
0010
0100
,
2000
0000
0000
3000
,
0001
0100
0000
0001
,
0200
0000
0300
0010
,
1000
0100
0010
0001
,
0200
0000
0000
0300
,
0110
0000
0000
0000
,
1001
0000
0000
0000
,
0110
0000
0000
0000
,
1001
0000
0000
0000
,
2000
0000
0002
3000
,
0200
0003
0020
0300
,
2000
0030
0002
3000
,
0100
0100
0100
0103
,
0020
0000
2000
0030
,
0020
3000
0200
0330
,
0001
0100
0010
1000
,
0002
0000
0000
0003
,
0100
0100
0001
0100
,
0010
0010
1000
0010
,
1000
0001
1000
0001
,
2000
0000
0000
3000
,
0001
0001
0000
0001
,
0010
0010
0000
0010
,
0200
0000
0000
0300
,
2000
3000
0002
0000
,
0000
0000
0000
0000
,
0000
0000
0000
0000
,
0000
0000
0000
0003
,
0000
1000
1001
0000
;

//---------------dance-single - ----------------
#NOTES:
     dance-single:
     :
     Medium:
     5:
     :
0000
0000
0000
0000
,
0000
0000
0000
0000
,
0000
0000
0000
0000
,
0000
0000
0000
0000
,
0000
0000
0000
0000
,
2000
0001
0000
3100
,
0002
1000
0000
0103
,
1000
0100
1000
0000
0001
0100
0001
0000
,
0001
0100
0010
0010
,
1000
0100
0010
0000
0001
1000
0100
0000
,
1100
0101
0220
0330
,
2000
0000
0001
3001
,
0010
1000
0100
0000
1000
0000
1010
0000
,
1000
0100
0010
0100
1000
0001
0100
0000
,
0010
1000
0001
1000
,
0002
1000
0100
1003
,
2000
0100
0001
3010
,
0010
1000
0100
0000
1000
0001
0100
0000
,
0001
0001
1000
1000
0001
0000
0101
0000
,
1001
1001
0100
0010
,
0020
0000
0000
0030
,
0001
0010
0001
1000
,
0010
1000
0100
0010
,
0002
0000
0010
1003
,
0001
0001
1000
1000
0010
0010
0010
0000
,
2000
3200
0320
0032
,
2000
0000
0000
3003
,
1000
0001
1000
0000
0010
0000
0100
0000
,
0101
1000
0010
0101
,
0002
1000
1000
1003
,
0200
0010
0010
0310
,
0002
0100
0100
0103
,
0010
0110
0000
0000
,
2000
0000
3010
0000
0100
0001
0100
0000
,
0002
0000
1003
0000
0010
0100
0010
0000
,
1000
0100
0010
0001
,
0202
0000
0000
0303
,
1000
0100
0010
0000
0001
1000
0010
0000
,
1000
0001
0100
0000
0010
1000
0100
0000
,
1100
0110
0011
1001
,
2002
0000
0000
3003
,
1000
0001
1000
0000
0100
0000
0010
0000
,
0001
0010
0001
0000
2000
0000
3000
0000
,
0010
1000
0010
0000
0100
0000
0001
0000
,
1000
0010
0100
0000
0220
0000
0330
0000
,
0000
1010
0000
0000
0000
0110
0000
0000
,
0000
1001
0000
0000
0000
0110
0000
0000
,
0000
0011
0000
0000
0000
1100
0000
0000
,
0000
1001
0000
0000
0000
1100
0000
0000
,
0000
1001
0000
0000
0000
0101
0000
0000
,
0000
0202
0000
0000
0000
0000
0303
0000
,
1000
0010
1000
0001
,
0200
0000
0000
0300
,
0020
1030
0002
0103
,
0002
0013
0200
1300
,
0010
1000
0100
0010
,
0220
0000
0000
0330
,
0001
2000
0000
3001
,
0100
0002
0000
1003
,
0002
1000
1000
1003
,
0010
1000
0100
1000
0200
0000
0000
0000
,
0000
0000
0000
0000
,
0000
0000
0000
0000
,
0000
0000
0000
0300
,
0000
1000
1100
0000
;

//---------------dance-single - ----------------
#NOTES:
     dance-single:
     :
     Hard:
     8:
     :
0000
0000
0000
0000
,
0000
0000
0000
0000
,
0000
0000
0000
0000
,
0000
0000
0000
0000
,
0000
0000
0000
0000
,
0001
0000
0000
0000
0000
0000
0000
0000
1000
0000
0000
0000
0000
0000
0000
0100
0000
0000
0000
0000
0000
0000
0000
0000
1000
0000
0000
0000
0000
0000
0000
0000
0100
0000
0000
0000
0000
0000
0000
1000
0000
0000
0000
0000
0000
0000
0000
0000
0000
0000
0000
0000
0000
0000
0000
0000
0001
0000
0000
0000
0000
0000
0000
0100
0000
0000
0000
0000
0000
0000
0000
0000
0001
0000
0000
0000
0000
0000
0000
0000
0100
0000
0000
0000
0000
0000
0000
0001
0000
0000
0000
0000
0000
0000
0000
0000
,
0000
0000
0000
0000
0000
0000
0000
0000
1000
0000
0000
0000
0000
0000
0000
0010
0000
0000
0000
0000
0000
0000
0000
0000
1000
0000
0000
0000
0000
0000
0000
0000
0010
0000
0000
0000
0000
0000
0000
1000
0000
0000
0000
0000
0000
0000
0000
0000
0000
0000
0000
0000
0000
0000
0000
0000
0001
0000
0000
0000
0000
0000
0000
0010
0000
0000
0000
0000
0000
0000
0000
0000
0001
0000
0000
0000
0000
0000
0000
0000
0010
0000
0000
0000
0000
0000
0000
0001
0000
0000
0000
0000
0000
0000
0000
0000
,
0010
0000
0100
0000
0010
0001
1000
0000
,
0010
1000
0001
0100
0001
0000
1000
0000
,
1000
0001
1000
0001
1000
0001
1000
0000
,
0002
2003
3002
0103
,
0001
0010
0100
1000
0001
1000
0010
0100
,
0001
1000
0010
1000
0100
0000
0010
0000
,
0110
0001
0101
0100
,
0101
1000
1100
0101
,
0001
0010
0001
1000
0100
0000
1000
0000
,
0001
1000
0001
0000
1000
0001
1000
0000
,
0010
0000
1000
1000
0100
0000
1000
1000
,
0001
1000
0100
1000
0010
0000
1000
0000
,
1010
0110
0101
1001
,
2000
0000
0000
0000
0100
0100
3100
0000
,
2000
0010
3020
1000
,
2030
0001
3002
1003
,
0001
0100
0001
1000
,
0001
0000
0010
0000
0100
0000
0000
0000
1000
0000
0001
0000
1000
0100
1000
0000
,
0011
1001
0110
1100
,
2000
0000
0000
0000
0001
0001
3001
0000
,
1000
0100
0010
0100
,
1000
0001
1000
0001
,
0001
0010
0100
1000
0100
0010
0001
0000
,
0001
0010
0100
1000
0100
0010
0001
0000
,
1000
0010
0100
0001
0100
0010
1000
0010
,
0100
0001
1000
0000
0000
0000
1001
0000
,
0001
0100
0010
0100
0001
1000
0001
0010
,
0100
1000
0100
0010
0001
0100
0010
0000
,
0110
0101
1001
1100
,
2002
0000
0000
3003
,
0001
0000
0000
0000
0000
0000
0000
0000
0000
0000
0000
0000
0000
0000
0000
1000
0000
0000
0000
0000
0000
0000
0000
0000
0000
0000
0000
0000
0000
0000
0000
0000
0100
0000
0000
0000
0000
0000
0000
0000
0000
0000
0000
0000
0000
0000
0000
0000
1000
0000
0000
0000
0000
0000
0000
0000
0000
0000
0000
0000
0000
0000
0000
0000
0000
0000
0000
0000
0000
0000
0000
0000
1100
0000
0000
0000
0000
0000
0000
0000
0000
0000
0000
0000
0000
0000
0000
0000
0000
0000
0000
0000
0000
0000
0000
0000
,
0010
0000
0000
0000
0000
0000
0000
0000
0000
0000
0000
0000
0000
0000
0000
0010
0000
0000
0000
0000
0000
0000
0000
0000
0000
0000
0000
0000
0000
0000
0000
0000
0001
0000
0000
0000
0000
0000
0000
0000
0000
0000
0000
0000
0000
0000
0000
0000
0010
0000
0000
0000
0000
0000
0000
0000
0000
0000
0000
0000
0000
0000
0000
0000
0000
0000
0000
0000
0000
0000
0000
0000
0011
0000
0000
0000
0000
0000
0000
0000
0000
0000
0000
0000
0000
0000
0000
0000
0000
0000
0000
0000
0000
0000
0000
0000
,
0001
0000
0000
0000
0000
0000
0000
0000
0100
0000
0000
0000
0000
0000
0000
1000
0000
0000
0000
0000
0000
0000
0000
0000
0100
0000
0000
0000
0000
0000
0000
0000
0001
0000
0000
0000
0000
0000
0000
0100
0000
0000
0000
0000
0000
0000
0000
0000
1000
0000
0000
0000
0000
0000
0000
0000
0100
0000
0000
0000
0000
0000
0000
0001
0000
0000
0000
0000
0000
0000
0000
0000
0100
0000
0000
0000
0000
0000
0000
0000
1000
0000
0000
0000
0000
0000
0000
0100
0000
0000
0000
0000
0000
0000
0000
0000
,
0002
0000
0000
0003
,
1000
0001
0100
0000
0001
1000
0100
0000
,
1000
0010
0100
0000
0010
0000
0010
0000
,
1000
0010
1000
0000
0010
0100
0001
0000
,
0001
1000
0010
0000
2002
0000
0000
3003
,
0000
1000
0000
1000
0000
1000
0100
0010
,
0000
0100
0000
0100
0000
0100
1000
0001
,
0000
1000
0000
1000
0000
1000
0000
0001
,
0000
0202
0000
0000
0303
0000
0101
0000
,
0000
0010
0000
0010
0000
0010
0100
0001
,
0000
1000
0000
1000
0000
1000
0100
0000
,
1001
0101
0101
1001
,
0001
0000
0000
0000
0000
0000
0000
0000
0000
0000
0000
0000
0000
0000
0000
0100
0000
0000
0000
0000
0000
0000
0000
0000
0000
0000
0000
0000
0000
0000
0000
0000
0100
0000
0000
0000
0000
0000
0000
0000
0000
0000
0000
0000
0000
0000
0000
0000
0100
0000
0000
0000
0000
0000
0000
0000
0000
0000
0000
0000
0000
0000
0000
0000
0000
0000
0000
0000
0000
0000
0000
0000
0101
0000
0000
0000
0000
0000
0000
0000
0000
0000
0000
0000
0000
0000
0000
0000
0000
0000
0000
0000
0000
0000
0000
0000
,
1000
0000
0000
0000
0000
0000
0000
0000
0000
0000
0000
0000
0000
0000
0000
0001
0000
0000
0000
0000
0000
0000
0000
0000
0000
0000
0000
0000
0000
0000
0000
0000
1000
0000
0000
0000
0000
0000
0000
0000
0000
0000
0000
0000
0000
0000
0000
0000
0100
0000
0000
0000
0000
0000
0000
0000
0000
0000
0000
0000
0000
0000
0000
0000
0000
0000
0000
0000
0000
0000
0000
0000
1100
0000
0000
0000
0000
0000
0000
0000
0000
0000
0000
0000
0000
0000
0000
0000
0000
0000
0000
0000
0000
0000
0000
0000
,
0010
0000
0000
0000
0000
0000
0000
0000
0000
0000
0000
0000
0000
0000
0000
0001
0000
0000
0000
0000
0000
0000
0000
0000
0000
0000
0000
0000
0000
0000
0000
0000
0100
0000
0000
0000
0000
0000
0000
0000
0000
0000
0000
0000
0000
0000
0000
0000
0010
0000
0000
0000
0000
0000
0000
0000
0000
0000
0000
0000
0000
0000
0000
0000
0000
0000
0000
0000
0000
0000
0000
0000
0110
0000
0000
0000
0000
0000
0000
0000
0000
0000
0000
0000
0000
0000
0000
0000
0000
0000
0000
0000
0000
0000
0000
0000
,
0001
0010
0100
1000
0100
0010
0001
1000
,
0200
0000
0000
0300
,
0000
0100
1000
0100
0000
0100
0010
0100
,
0000
1000
0001
1000
0000
0100
1000
0100
,
0010
0001
1000
0001
,
1001
1001
2002
0000
,
0000
0000
0000
0000
,
0000
0000
0000
0000
,
0000
0000
0000
3003
,
0000
0110
1001
0000
;

//---------------dance-double - ----------------
#NOTES:
     dance-double:
     :
     Beginner:
     1:
     :
00000000
00000000
00000000
00000000
,
00000000
00000000
00000000
00000000
,
00000000
00000000
00000000
00000000
,
00000000
00000000
00000000
00000000
,
00000000
00000000
00000000
00000000
,
00000001
00000000
00000001
00000000
,
00000001
00000000
00001000
00000000
,
00001000
00000000
00000000
00000000
,
00000100
00000000
00000000
00000000
,
00000110
00000000
00000000
00000000
,
00000001
00000001
00000001
00000000
,
00011000
00000000
00000000
00000000
,
00010000
00000000
00010000
00000000
,
10000000
00000000
10000000
00000000
,
00010000
00010000
00010000
00000000
,
00100000
00000000
00000000
00000000
,
01000000
00000000
01000000
00000000
,
00100000
00100000
00100000
00000000
,
01000000
00000000
00000000
00000000
,
00010000
00000000
00010000
00000000
,
01000000
00000000
00010000
00000000
,
00100000
00000000
00100000
00000000
,
00001000
00000000
00001000
00000000
,
00010000
00000000
00010000
00000000
,
00010000
00000000
00010000
00000000
,
00000100
00000000
00000000
00000000
,
00000100
00000000
00000000
00000000
,
00001000
00000000
00000000
00000000
,
00001000
00000000
00000000
00000000
,
00000001
00000000
00000000
00000000
,
00000001
00000001
00000001
00000000
,
00001000
00000000
00000000
00000000
,
00000010
00000010
00000010
00000000
,
00000010
00000000
00000000
00000000
,
00000010
00000000
00000000
00000000
,
00000100
00000000
00000100
00000000
,
00000100
00000000
00000100
00000000
,
00000001
00000000
00000000
00000000
,
00001000
00000000
00000000
00000000
,
00000001
00000000
00000001
00000000
,
00001001
00000000
00000000
00000000
,
00000010
00000000
00000000
00000000
,
00000010
00000000
00000000
00000000
,
00000010
00000010
00000010
00000010
,
00000010
00000000
00000000
00000000
,
00000100
00000000
00000000
00000000
,
00000100
00000000
00000000
00000000
,
00000001
00000000
00000000
00000000
,
00000001
00000000
00000000
00000000
,
00001000
00000000
00000000
00000000
,
00001000
00000000
00000000
00000000
,
01000000
00000000
00010000
00000000
,
10000000
10000000
10000000
00000000
,
00010000
00010000
00010000
00000000
,
01000000
01000000
01000000
00000000
,
00100000
00100000
00100000
00000000
,
00100000
00100000
00100000
00000000
,
10000000
00000000
10000000
00000000
,
00010000
00000000
00010000
00000000
,
00010000
00010000
00010000
00000000
,
00000000
00000000
20020000
00000000
,
00000000
00000000
00000000
00000000
,
00000000
00000000
00000000
00000000
,
00000000
00000000
00000000
30030000
,
00000000
00000000
10010000
00000000
;

//---------------dance-double - ----------------
#NOTES:
     dance-double:
     :
     Easy:
     5:
     :
00000000
00000000
00000000
00000000
,
00000000
00000000
00000000
00000000
,
00000000
00000000
00000000
00000000
,
00000000
00000000
00000000
00000000
,
00000000
00000000
00000000
00000000
,
00000002
00000000
00000000
00000003
,
00000200
00000000
00000000
00000300
,
00000010
00000010
00000010
00001000
,
00000001
00000100
00000010
00010000
,
00001000
00001000
00001000
00001000
,
00001000
00001000
00002000
00003000
,
02000000
00000000
00010000
03010000
,
00100000
01000000
00000000
00100000
,
00020000
00000000
00000000
00030000
,
01000000
01000000
00100000
01000000
,
00020000
00000000
00000000
00030000
,
20000000
00000000
00000000
30000000
,
01000000
00100000
00100000
00100000
,
00010000
00100000
01000000
10000000
,
02000000
03000000
01000000
01000000
,
00200000
00000000
00000000
00300000
,
00002000
00003000
00010000
00001000
,
00010000
00001000
00010000
00001000
,
00020000
00030000
00000100
00000010
,
00000100
00000010
00000100
00000010
,
00000001
00000010
00000100
00001000
,
00000020
00000000
00000000
00000030
,
00000100
00000001
00000010
00000010
,
00000100
00001000
00000010
00001000
,
00000002
00000000
00000000
00000003
,
00002000
00000000
00000000
00003000
,
00000010
00000010
00000010
00001000
,
00000100
00000000
00000000
00000000
,
00020000
00030000
00001000
00001000
,
02000000
03000000
00100000
00100000
,
01000000
00010000
00100000
00010000
,
02000000
00000000
00000000
03000000
,
00010000
10000000
00000000
01000000
,
20000000
00000000
30000000
00010000
,
10000000
01000000
00100000
00010000
,
20000000
00000000
00000000
30000000
,
10010000
00000000
00000000
00000000
,
00011000
00000000
00000000
00000000
,
00001001
00000000
00000000
00000000
,
00000110
00000000
00000000
00000000
,
00000002
00000000
00002000
00000003
,
00000020
00003000
00000200
00000030
,
00000002
00000300
00002000
00000003
,
00000100
00000100
00000100
00003100
,
00000020
00000000
00000002
00000030
,
00002000
00000003
00000200
00003300
,
00000010
00000001
00001000
00000100
,
00020000
00000000
00000000
00030000
,
00001000
00001000
00010000
00001000
,
00100000
00100000
00010000
00100000
,
00010000
10000000
00010000
10000000
,
00020000
00000000
00000000
00030000
,
10000000
10000000
00000000
10000000
,
00100000
00100000
00000000
00100000
,
02000000
00000000
00000000
03000000
,
00020000
00030000
20000000
00000000
,
00000000
00000000
00000000
00000000
,
00000000
00000000
00000000
00000000
,
00000000
00000000
00000000
30000000
,
00000000
00010000
10010000
00000000
;

//---------------dance-double - ----------------
#NOTES:
     dance-double:
     :
     Medium:
     6:
     :
00000000
00000000
00000000
00000000
,
00000000
00000000
00000000
00000000
,
00000000
00000000
00000000
00000000
,
00000000
00000000
00000000
00000000
,
00000000
00000000
00000000
00000000
,
20000000
00100000
00000000
30010000
,
02000000
00100000
00000000
03001000
,
00010000
00001000
00010000
00000000
00000100
00001000
00000001
00000000
,
00000100
00000010
00000100
00000100
,
00000001
00000100
00000010
00000000
00001000
00000010
00001000
00000000
,
00000002
00002003
00000020
00003030
,
00000100
00000001
00001000
00000100
,
00010000
01000000
00100000
00000000
00010000
00000000
10010000
00000000
,
01000000
00100000
10000000
00100000
01000000
00010000
10000000
00000000
,
01000000
10000000
01000000
00100000
,
00020000
10000000
00100000
01030000
,
00200000
01000000
10000000
01300000
,
00010000
10000000
01000000
00000000
00100000
00001000
00010000
00000000
,
00000100
00000100
00001000
00001000
00000100
00000000
00001100
00000000
,
00001001
00001001
00000100
00000010
,
00002000
00000000
00000000
00003000
,
00000100
00010000
01000000
10000000
,
00100000
10000000
00010000
01000000
,
00200000
10000000
00000000
10300000
,
01000000
01000000
00100000
00100000
00010000
00010000
00010000
00000000
,
02000000
03002000
00023000
00032000
,
00020000
00000000
00000000
00033000
,
00000100
00001000
00000100
00000000
00000010
00000000
00000001
00000000
,
00000101
00001000
00000010
00000101
,
00000020
00001000
00001000
00001030
,
00000200
00010000
00010000
00010300
,
00002000
01000000
01000000
01003000
,
00100000
01100000
00000000
00000000
,
20000000
00000000
30100000
00000000
01000000
00010000
00000000
00000000
,
00200000
00000000
00301000
00000000
00010000
00001000
00000000
00000000
,
01000000
00100000
10000000
00010000
,
20020000
00000000
00000000
30030000
,
10000000
01000000
00100000
00000000
00010000
01000000
00001000
00000000
,
00010000
00000010
00001000
00000000
00000001
00000010
00000100
00000000
,
00000110
00000011
00000110
00001001
,
00002002
00000000
00000000
00003003
,
00000010
00001000
00000010
00000000
00000100
00000000
00000001
00000000
,
00001000
00000100
00001000
00000000
00000002
00000000
00000003
00000000
,
00000100
00000010
00000100
00000000
00000001
00000000
00001000
00000000
,
00000100
00010000
00001000
00000000
00022000
00000000
00033000
00000000
,
00000000
01010000
00000000
00000000
00000000
01100000
00000000
00000000
,
00000000
10100000
00000000
00000000
00000000
01100000
00000000
00000000
,
00000000
00110000
00000000
00000000
00000000
11000000
00000000
00000000
,
00000000
10010000
00000000
00000000
00000000
11000000
00000000
00000000
,
00000000
00110000
00000000
00000000
00000000
00011000
00000000
00000000
,
00000000
00020200
00000000
00000000
00000000
00000000
00030300
00000000
,
00001000
00000100
00001000
00000001
,
00000200
00000000
00000000
00000300
,
00000020
00001030
00000002
00000103
,
00000020
00010030
00002000
01003000
,
00100000
10000000
00010000
01000000
,
20200000
00000000
00000000
30300000
,
10000000
00020000
00000000
01030000
,
00001000
00020000
00000000
00030100
,
00000020
00000001
00000001
00000031
,
00000001
00001000
00000100
00001000
00000002
00000000
00000000
00000000
,
00000000
00000000
00000000
00000000
,
00000000
00000000
00000000
00000000
,
00000000
00000000
00000000
00000003
,
00000000
00001000
00001010
00000000
;

//---------------dance-double - ----------------
#NOTES:
     dance-double:
     :
     Hard:
     8:
     :
00000000
00000000
00000000
00000000
,
00000000
00000000
00000000
00000000
,
00000000
00000000
00000000
00000000
,
00000000
00000000
00000000
00000000
,
00000000
00000000
00000000
00000000
,
00000001
00000000
00000000
00000000
00000000
00000000
00000000
00000000
00001000
00000000
00000000
00000000
00000000
00000000
00000000
00000100
00000000
00000000
00000000
00000000
00000000
00000000
00000000
00000000
00001000
00000000
00000000
00000000
00000000
00000000
00000000
00000000
00000100
00000000
00000000
00000000
00000000
00000000
00000000
00001000
00000000
00000000
00000000
00000000
00000000
00000000
00000000
00000000
00000000
00000000
00000000
00000000
00000000
00000000
00000000
00000000
00000100
00000000
00000000
00000000
00000000
00000000
00000000
00000010
00000000
00000000
00000000
00000000
00000000
00000000
00000000
00000000
00000100
00000000
00000000
00000000
00000000
00000000
00000000
00000000
00000010
00000000
00000000
00000000
00000000
00000000
00000000
00000100
00000000
00000000
00000000
00000000
00000000
00000000
00000000
00000000
,
00000000
00000000
00000000
00000000
00000000
00000000
00000000
00000000
00000010
00000000
00000000
00000000
00000000
00000000
00000000
00000001
00000000
00000000
00000000
00000000
00000000
00000000
00000000
00000000
00000010
00000000
00000000
00000000
00000000
00000000
00000000
00000000
00000001
00000000
00000000
00000000
00000000
00000000
00000000
00000010
00000000
00000000
00000000
00000000
00000000
00000000
00000000
00000000
00000000
00000000
00000000
00000000
00000000
00000000
00000000
00000000
00000100
00000000
00000000
00000000
00000000
00000000
00000000
00000010
00000000
00000000
00000000
00000000
00000000
00000000
00000000
00000000
00000100
00000000
00000000
00000000
00000000
00000000
00000000
00000000
00000010
00000000
00000000
00000000
00000000
00000000
00000000
00000100
00000000
00000000
00000000
00000000
00000000
00000000
00000000
00000000
,
00000010
00000000
00000001
00000000
00000100
00000010
00010000
00000000
,
00001000
01000000
00100000
10000000
00010000
00000000
10000000
00000000
,
00100000
01000000
00100000
01000000
00100000
01000000
00100000
00000000
,
20000000
32000000
03200000
00301000
,
00010000
00000100
00000010
00000001
00001000
00000100
00000010
00000001
,
00000100
00000010
00001000
00000001
00000100
00000000
00000010
00000000
,
00000110
00001000
00001100
00010000
,
00011000
01000000
01010000
01100000
,
10000000
00100000
01000000
00010000
10000000
00000000
01000000
00000000
,
10000000
01000000
10000000
00000000
00010000
00100000
00010000
00000000
,
00100000
00001000
00010000
00000100
,
00000010
00000001
00001000
00000001
00001000
00000001
00000100
00000000
,
00001100
00000110
00000011
00000101
,
00000020
00000000
00000000
00000000
00001000
00001000
00001030
00000000
,
00000200
00010000
00020300
00001000
,
00032000
01000000
02003000
03010000
,
10000000
00100000
01000000
00010000
,
10000000
01000000
00010000
00000000
00001000
00000010
00000100
00000000
,
00000110
00000101
00000110
00001001
,
00000200
00000000
00000000
00000000
00000010
00000010
00000310
00000000
,
00010000
00001000
01000000
00100000
,
10000000
01000000
00100000
00110000
,
00100000
00001000
00010000
00000010
00001000
00000001
00000100
00000000
,
00000010
00010000
00001000
01000000
00010000
10000000
01000000
00000000
,
10000000
00100000
01000000
00010000
01000000
00100000
10000000
00100000
,
01000000
00010000
10000000
00000000
00000000
00000000
10010000
00000000
,
10000000
00100000
01000000
00100000
10000000
00010000
10000000
01000000
,
00100000
00010000
01000000
00001000
00010000
00000100
00001000
00000000
,
00001100
00000110
00000011
00000101
,
00000202
00000000
00000000
00000303
,
00000001
00000000
00000000
00000000
00000000
00000000
00000000
00000000
00000000
00000000
00000000
00000000
00000000
00000000
00000000
00001000
00000000
00000000
00000000
00000000
00000000
00000000
00000000
00000000
00000000
00000000
00000000
00000000
00000000
00000000
00000000
00000000
00000010
00000000
00000000
00000000
00000000
00000000
00000000
00000000
00000000
00000000
00000000
00000000
00000000
00000000
00000000
00000000
00001000
00000000
00000000
00000000
00000000
00000000
00000000
00000000
00000000
00000000
00000000
00000000
00000000
00000000
00000000
00000000
00000000
00000000
00000000
00000000
00000000
00000000
00000000
00000000
00001010
00000000
00000000
00000000
00000000
00000000
00000000
00000000
00000000
00000000
00000000
00000000
00000000
00000000
00000000
00000000
00000000
00000000
00000000
00000000
00000000
00000000
00000000
00000000
,
00000010
00000000
00000000
00000000
00000000
00000000
00000000
00000000
00000000
00000000
00000000
00000000
00000000
00000000
00000000
00010000
00000000
00000000
00000000
00000000
00000000
00000000
00000000
00000000
00000000
00000000
00000000
00000000
00000000
00000000
00000000
00000000
00001000
00000000
00000000
00000000
00000000
00000000
00000000
00000000
00000000
00000000
00000000
00000000
00000000
00000000
00000000
00000000
00010000
00000000
00000000
00000000
00000000
00000000
00000000
00000000
00000000
00000000
00000000
00000000
00000000
00000000
00000000
00000000
00000000
00000000
00000000
00000000
00000000
00000000
00000000
00000000
00011000
00000000
00000000
00000000
00000000
00000000
00000000
00000000
00000000
00000000
00000000
00000000
00000000
00000000
00000000
00000000
00000000
00000000
00000000
00000000
00000000
00000000
00000000
00000000
,
00010000
00001000
00010000
00001000
,
02000000
00000000
00000000
03000000
,
00100000
10000000
00010000
00000000
00010000
10000000
00100000
00000000
,
10000000
00100000
01000000
00000000
00100000
00000000
00100000
00000000
,
01000000
00010000
10000000
00000000
00100000
10000000
01000000
00000000
,
10000000
01000000
00100000
00000000
00110000
00000000
00000000
00000000
,
00000000
10000000
00000000
10000000
00000000
10000000
00010000
01000000
,
00000000
00100000
00000000
00100000
00000000
00100000
01000000
00001000
,
00000000
00010000
00000000
00010000
00000000
00010000
00000000
00000100
,
00000000
00020200
00000000
00000000
00030300
00000000
00010100
00000000
,
00000000
00001000
00000000
00001000
00000000
00001000
00000001
00000100
,
00000000
00000010
00000000
00000010
00000000
00000010
00001000
00000000
,
00001010
00001100
00001001
00000101
,
00000010
00000000
00000000
00000000
00000000
00000000
00000000
00000000
00000000
00000000
00000000
00000000
00000000
00000000
00000000
00001000
00000000
00000000
00000000
00000000
00000000
00000000
00000000
00000000
00000000
00000000
00000000
00000000
00000000
00000000
00000000
00000000
00000001
00000000
00000000
00000000
00000000
00000000
00000000
00000000
00000000
00000000
00000000
00000000
00000000
00000000
00000000
00000000
00000100
00000000
00000000
00000000
00000000
00000000
00000000
00000000
00000000
00000000
00000000
00000000
00000000
00000000
00000000
00000000
00000000
00000000
00000000
00000000
00000000
00000000
00000000
00000000
00000101
00000000
00000000
00000000
00000000
00000000
00000000
00000000
00000000
00000000
00000000
00000000
00000000
00000000
00000000
00000000
00000000
00000000
00000000
00000000
00000000
00000000
00000000
00000000
,
00000010
00000000
00000000
00000000
00000000
00000000
00000000
00000000
00000000
00000000
00000000
00000000
00000000
00000000
00000000
00001000
00000000
00000000
00000000
00000000
00000000
00000000
00000000
00000000
00000000
00000000
00000000
00000000
00000000
00000000
00000000
00000000
00000001
00000000
00000000
00000000
00000000
00000000
00000000
00000000
00000000
00000000
00000000
00000000
00000000
00000000
00000000
00000000
00000100
00000000
00000000
00000000
00000000
00000000
00000000
00000000
00000000
00000000
00000000
00000000
00000000
00000000
00000000
00000000
00000000
00000000
00000000
00000000
00000000
00000000
00000000
00000000
00001001
00000000
00000000
00000000
00000000
00000000
00000000
00000000
00000000
00000000
00000000
00000000
00000000
00000000
00000000
00000000
00000000
00000000
00000000
00000000
00000000
00000000
00000000
00000000
,
00000100
00000000
00000000
00000000
00000000
00000000
00000000
00000000
00000000
00000000
00000000
00000000
00000000
00000000
00000000
00010000
00000000
00000000
00000000
00000000
00000000
00000000
00000000
00000000
00000000
00000000
00000000
00000000
00000000
00000000
00000000
00000000
00001000
00000000
00000000
00000000
00000000
00000000
00000000
00000000
00000000
00000000
00000000
00000000
00000000
00000000
00000000
00000000
01000000
00000000
00000000
00000000
00000000
00000000
00000000
00000000
00000000
00000000
00000000
00000000
00000000
00000000
00000000
00000000
00000000
00000000
00000000
00000000
00000000
00000000
00000000
00000000
10010000
00000000
00000000
00000000
00000000
00000000
00000000
00000000
00000000
00000000
00000000
00000000
00000000
00000000
00000000
00000000
00000000
00000000
00000000
00000000
00000000
00000000
00000000
00000000
,
00010000
00100000
01000000
10000000
01000000
00100000
00010000
10000000
,
02000000
00000000
00000000
03000000
,
00000000
00100000
00010000
01000000
00000000
00001000
00100000
01000000
,
00000000
10000000
00010000
01000000
00000000
00100000
10000000
01000000
,
10000000
01000000
00100000
00001000
,
00011000
00011000
00022000
00000000
,
00000000
00000000
00000000
00000000
,
00000000
00000000
00000000
00000000
,
00000000
00000000
00000000
00033000
,
00000000
00011000
00010100
00000000
;
