#TITLE:LOVE THIS FEELIN';
#SUBTITLE:(ZONK REMIX);
#ARTIST:Akira Yamaoka;
#BANNER:LOVE THIS FEELIN' (ZONK REMIX).png;
#BACKGROUND:LOVE THIS FEELIN' (ZONK REMIX)-bg.png;
#CDTITLE:./CDTITLES/DANCE DANCE REVOLUTION ULTRAMIX 3.png;
#MUSIC:LOVE THIS FEELIN' (ZONK REMIX).ogg;
#SAMPLESTART:28.085;
#SAMPLELENGTH:15;
#BPMS:0=94;

//---------------dance-single - ----------------
#NOTES:
     dance-single:
     :
     Beginner:
     1:
     :
0000
0000
0000
0000
,
0000
0000
0000
0000
,
0000
0000
0000
0000
,
1000
0000
0000
0000
,
0010
0000
0000
0000
,
0100
0000
0000
0000
,
0001
0000
0000
0000
,
1000
0000
0000
0000
,
0010
0000
0000
0000
,
0100
0000
0000
0000
,
0100
0000
0000
0000
,
0001
0000
1000
0000
,
0001
0000
0000
0000
,
0001
0000
0100
0000
,
0001
0000
0000
0000
,
0010
0000
0000
0000
,
0100
0000
0000
0000
,
0010
0000
0000
0000
,
0001
0000
0000
0000
,
1000
0000
0000
0010
,
0010
0000
0000
1000
,
1000
0000
0000
0001
,
0001
0000
0000
0100
,
0100
0000
0000
0000
,
0001
0000
0000
0000
,
0010
0000
0000
0000
,
0100
0000
0000
0000
,
1000
0000
0001
0000
,
1000
0000
0000
0000
,
1000
0000
0010
0000
,
1000
0000
0000
0000
,
0001
0000
0001
0000
,
0010
0000
0000
0000
,
0010
0000
0010
0000
,
0100
0000
0000
0000
,
1000
0000
0001
0000
,
1000
0000
0001
0000
;

//---------------dance-single - ----------------
#NOTES:
     dance-single:
     :
     Easy:
     2:
     :
0000
0000
0000
0000
,
0000
0000
0000
0000
,
0000
0000
0000
0000
,
0001
0000
1000
0000
,
0010
0000
0100
0000
,
0001
0000
1000
0000
,
0010
0000
0100
0000
,
0001
0000
1000
0000
,
1000
0000
0100
0000
,
0100
0000
0010
0000
,
0010
0000
0001
0000
,
0001
0000
1000
0000
,
0010
0010
0100
0000
,
0001
0000
0100
0000
,
0001
0001
1000
0000
,
0010
0000
0000
0000
,
0010
0010
0100
0000
,
0001
0000
0000
0000
,
0001
0001
1000
0000
,
2000
0000
0000
3000
,
1000
1000
1000
0000
,
0002
0000
0000
0003
,
0001
0001
0001
0000
,
1000
0000
0001
0000
,
1000
0000
0010
0000
,
0100
0000
0001
0000
,
1000
0000
0100
0000
,
1000
0000
1000
0000
,
0001
0001
0001
0000
,
0010
0000
0100
0000
,
1000
1000
1000
0000
,
0001
0000
1000
0000
,
0100
0100
0100
0000
,
1000
0000
1000
0000
,
0020
0000
0000
0030
,
0010
0000
0100
0000
,
0001
0000
1001
0000
;

//---------------dance-single - ----------------
#NOTES:
     dance-single:
     :
     Medium:
     4:
     :
0000
0000
0000
0000
,
0000
0000
0000
0000
,
0000
0000
0000
0000
,
1000
0000
0010
0000
0100
0001
0100
0000
,
0010
0000
0010
0000
1000
0100
1000
0000
,
0001
0000
1000
0000
0010
0100
0010
0000
,
1000
0010
1000
0000
0001
1000
0001
0000
,
1000
0100
0010
0010
,
0010
0100
1000
0000
0001
0010
0001
0000
,
1000
0001
0100
0000
0010
1000
0100
0000
,
0010
0001
1000
0000
0001
0020
0000
0000
,
0130
0000
1000
0001
2000
0000
0000
0000
,
3001
0000
1000
0000
0100
1000
0001
0000
,
1000
0000
0001
0010
0200
0000
0000
0000
,
1300
0000
1000
1000
0010
1000
0001
0000
,
1000
0010
0100
0010
,
0100
0000
0001
0000
1000
0001
0010
0000
,
0100
1000
0001
0001
,
0010
0000
0100
0010
0001
1000
1000
0000
,
0200
1000
0000
1300
,
1000
0001
1000
0000
1000
0001
1000
0000
,
0002
0100
0000
0103
,
0010
0100
0010
0000
0010
0100
0010
0000
,
1000
0000
1000
0000
0010
1000
0001
0000
,
0010
0100
1000
0000
0100
0010
0100
0000
,
1000
0001
1000
0000
0001
0100
0010
0000
,
1000
0100
1000
0000
0100
0010
0100
0010
,
0001
0000
1000
0001
1001
0000
0000
0000
,
1000
0010
1000
0010
1010
0000
0000
0000
,
0010
0000
0100
0010
0110
0000
0000
0000
,
0001
0100
0001
0100
0101
0000
0000
0000
,
1000
0001
1000
0001
,
1000
0010
1000
0010
1010
0000
0000
0000
,
1000
0100
0010
0001
,
2002
0000
3003
0000
,
0010
0000
0100
0001
2000
0000
0000
0000
,
3001
0010
0100
1000
;

//---------------dance-single - ----------------
#NOTES:
     dance-single:
     :
     Hard:
     6:
     :
0000
0000
0000
0000
,
0000
0000
0000
0000
,
0000
0000
0000
0000
,
0010
0000
0000
1000
0001
0000
0000
0000
0010
0000
0100
0000
0010
0000
0000
0000
,
0001
0100
0001
0000
0010
0100
0010
0100
,
1000
0000
0000
0001
1000
0000
0000
0000
0001
0000
0010
0000
0010
0000
0000
0000
,
0001
1000
0001
0000
0010
0100
0110
0000
,
1000
0000
0001
0000
0010
0100
1000
0001
,
0010
0000
0010
0001
0100
0000
0100
0010
,
1000
0000
0001
1000
0010
1000
0001
0001
,
0100
0000
0001
0000
0100
0020
0000
0000
,
1030
0000
0001
0100
0001
0000
0001
0000
,
1000
0000
0000
0001
1000
0000
0000
0000
0001
0000
0010
0000
0001
0000
1000
0000
,
0100
0000
1000
0100
0010
0000
0001
0000
,
1000
0010
1000
0100
0010
0100
1000
0000
,
0001
0100
0010
1000
,
0001
0000
0000
1000
0100
0000
0000
0000
1000
0000
0001
0000
0100
0000
0000
0000
,
0010
0100
0010
0100
,
0001
0010
0100
1000
0001
0010
0100
0000
,
2100
0100
0100
0000
0001
0001
3001
0000
,
1000
0010
1000
0000
0001
1000
0001
0000
1000
0000
0010
0000
1000
0000
0000
0000
,
1020
1000
1000
0000
0100
0100
0130
0000
,
0001
1000
0001
0000
1000
0100
1000
0000
0100
0000
0010
0000
0001
0000
0000
0000
,
1000
0000
0010
0000
1000
0001
0010
0100
,
1000
0000
1000
0000
0100
0010
0001
0100
,
0010
0000
1000
0000
1000
0100
0100
1000
,
0010
0000
1000
0000
0010
0100
0001
1000
,
1001
0000
0001
1000
0002
0000
0000
0000
,
1003
0100
1000
0010
1000
0001
1000
0000
,
1001
0000
1000
0001
2000
0000
0000
0000
,
3001
0010
0001
0100
0001
1000
0001
0000
,
1001
0001
1000
1000
,
0010
1000
0010
0100
0001
0100
0001
0100
,
0002
1000
1000
0103
,
2000
0000
0010
0000
3010
0100
0001
0000
,
1000
0000
0010
0100
0001
0000
1000
0000
,
0002
2003
3020
0230
,
0300
0000
0000
0000
;

//---------------dance-double - ----------------
#NOTES:
     dance-double:
     :
     Beginner:
     1:
     :
00000000
00000000
00000000
00000000
,
00000000
00000000
00000000
00000000
,
00000000
00000000
00000000
00000000
,
10000000
00000000
00000000
00000000
,
00100000
00000000
00000000
00000000
,
01000000
00000000
00000000
00000000
,
00100000
00000000
00000000
00000000
,
10000000
00000000
00000000
00000000
,
01000000
00000000
00000000
00000000
,
00010000
00000000
00000000
00000000
,
00001000
00000000
00000000
00000000
,
00000100
00000000
00000001
00000000
,
00000001
00000000
00000000
00000000
,
00001000
00000000
00000010
00000000
,
00000100
00000000
00000000
00000000
,
00001000
00000000
00000000
00000000
,
00010000
00000000
00000000
00000000
,
01000000
00000000
00000000
00000000
,
10000000
00000000
00000000
00000000
,
10000000
00000000
00000000
00010000
,
00010000
00000000
00000000
10000000
,
10000000
00000000
00000000
01000000
,
01000000
00000000
00000000
00100000
,
00100000
00000000
00000000
00000000
,
01000000
00000000
00000000
00000000
,
00010000
00000000
00000000
00000000
,
00001000
00000000
00000000
00000000
,
00000100
00000000
00000001
00000000
,
00001000
00000000
00000000
00000000
,
00000001
00000000
00000010
00000000
,
00000001
00000000
00000000
00000000
,
00001000
00000000
00001000
00000000
,
00000100
00000000
00000000
00000000
,
00001000
00000000
00000001
00000000
,
00000100
00000000
00000000
00000000
,
00001000
00000000
00010000
00000000
,
00001000
00000000
00010000
00000000
;

//---------------dance-double - ----------------
#NOTES:
     dance-double:
     :
     Easy:
     2:
     :
00000000
00000000
00000000
00000000
,
00000000
00000000
00000000
00000000
,
00000000
00000000
00000000
00000000
,
10000000
00000000
01000000
00000000
,
00010000
00000000
00001000
00000000
,
00000100
00000000
00000001
00000000
,
00000100
00000000
00000010
00000000
,
00001000
00000000
00000010
00000000
,
00000100
00000000
00001000
00000000
,
00010000
00000000
01000000
00000000
,
10000000
00000000
00100000
00000000
,
10000000
00000000
00010000
00000000
,
00100000
00100000
01000000
00000000
,
00010000
00000000
00001000
00000000
,
00010000
00001000
00001000
00000000
,
00000100
00000000
00000000
00000000
,
00000001
00000001
00000001
00000000
,
00000100
00000000
00000000
00000000
,
00001000
00010000
00001000
00000000
,
00020000
00000000
00000000
00030000
,
00010000
00010000
00010000
00000000
,
00002000
00000000
00000000
00003000
,
00001000
00001000
00001000
00000000
,
00001000
00000000
00010000
00000000
,
01000000
00000000
10000000
00000000
,
01000000
00000000
00100000
00000000
,
00010000
00000000
00100000
00000000
,
01000000
00000000
01000000
00000000
,
10000000
10000000
10000000
00000000
,
10000000
00000000
01000000
00000000
,
00010000
00001000
00001000
00000000
,
00001000
00000000
00000100
00000000
,
00000001
00000001
00000001
00000000
,
00000010
00000000
00000010
00000000
,
00000200
00000000
00000000
00000300
,
00000100
00000000
00001000
00000000
,
00000001
00000000
00001001
00000000
;

//---------------dance-double - ----------------
#NOTES:
     dance-double:
     :
     Medium:
     5:
     :
00000000
00000000
00000000
00000000
,
00000000
00000000
00000000
00000000
,
00000000
00000000
00000000
00000000
,
00000001
00000000
00001000
00000000
00000010
00000100
00000010
00000000
,
00000100
00000000
00001000
00000000
00010000
00001000
00010000
00000000
,
00010000
00000000
01000000
00000000
10000000
00010000
10000000
00000000
,
01000000
00100000
00010000
00000000
10000000
01000000
01000000
00000000
,
00100000
01000000
00010000
00001000
,
00001000
00000100
00000001
00000000
00001000
00000010
00001000
00000000
,
00000001
00001000
00000010
00000000
00000100
00000001
00000010
00000000
,
00000100
00001000
00000001
00000000
00001000
00000002
00000000
00000000
,
00000103
00000000
00001000
00010000
00002000
00000000
00000000
00000000
,
00013000
00000000
00010000
00000000
01000000
10000000
00010000
00000000
,
10000000
00000000
00010000
00010000
20000000
00000000
00000000
00000000
,
30100000
00000000
01000000
01000000
00100000
10000000
00010000
00000000
,
10000000
01000000
00010000
00001000
,
00000100
00000000
00000001
00000000
00001000
00000001
00000100
00000000
,
00000010
00000100
00000001
00001000
,
00000100
00000000
00000010
00000100
00001000
00000001
00000001
00000000
,
00000200
00000010
00000000
00000310
,
00000100
00001000
00010000
00000000
00010000
00001000
00010000
00000000
,
00020000
00001000
00000000
00031000
,
00010000
00001000
00010000
00000000
00010000
01000000
10000000
00000000
,
10000000
00000000
00100000
00000000
00100000
01000000
00010000
00000000
,
00100000
00010000
00010000
00000000
01000000
00100000
10000000
00000000
,
10000000
01000000
00010000
00000000
00001000
00000100
00000001
00000000
,
00000001
00000100
00000001
00000000
00000100
00000010
00000100
00000010
,
00001000
00000000
00000001
00000100
00001000
00000000
00000000
00000000
,
00001000
00010000
00001000
00010000
00011000
00000000
00000000
00000000
,
00010000
00000000
01000000
10000000
11000000
00000000
00000000
00000000
,
00100000
01000000
00100000
01000000
01100000
00000000
00000000
00000000
,
10000000
01000000
10000000
00100000
,
10000000
00010000
10000000
00010000
10010000
00000000
00000000
00000000
,
10000000
01000000
00010000
00001000
,
00022000
00000000
00033000
00000000
,
00010000
00000000
00001000
00000100
00000001
00000000
00001000
00000000
,
00000001
00000100
00000010
00001000
;

//---------------dance-double - ----------------
#NOTES:
     dance-double:
     :
     Hard:
     6:
     :
00000000
00000000
00000000
00000000
,
00000000
00000000
00000000
00000000
,
00000000
00000000
00000000
00000000
,
00010000
00000000
00000000
00001000
00010000
00000000
00000000
00000000
00010000
00000000
01000000
00000000
10000000
00000000
00000000
00000000
,
00100000
10000000
00010000
00000000
10000000
01000000
00010000
00001000
,
00010000
00000000
00000000
00001000
00010000
00000000
00000000
00000000
00001000
00000000
00000100
00000000
00000001
00000000
00000000
00000000
,
00001000
00000100
00001000
00000000
00000010
00000100
00000110
00000000
,
00000001
00000000
00001000
00000000
00000100
00000010
00000001
00001000
,
00000100
00000000
00010000
00001000
01000000
00000000
00010000
01000000
,
00100000
00000000
10000000
01000000
00100000
00010000
10000000
10000000
,
01000000
00000000
00010000
00000000
00001000
00020000
00000000
00000000
,
00030100
00000000
00001000
00000100
00001000
00000000
00000010
00000000
,
00000100
00000000
00000000
00000001
00001000
00000000
00000000
00000000
00000100
00000000
00010000
00000000
00001000
00000000
00010000
00000000
,
00001000
00000000
00001000
00000100
00000001
00000000
00000010
00000000
,
00000100
00010000
00001000
00010000
01000000
10000000
10000000
00000000
,
00100000
10000000
00010000
00100000
,
01000000
00000000
00000000
10000000
01000000
00000000
00000000
00000000
10000000
00000000
00010000
00000000
00100000
00000000
00000000
00000000
,
00001000
00010000
00000010
00001000
,
00000100
00010000
00001000
00010000
00000100
00001000
00000001
00000000
,
00000012
00000010
00000010
00000000
00001000
00001000
00001003
00000000
,
00001000
00000100
00010000
00001000
00010000
00001000
01000000
00000000
,
02010000
00010000
00010000
00000000
00100000
00100000
03100000
00000000
,
00100000
01000000
00001000
00100000
00001000
00010000
00001000
00000000
,
00010000
00000000
00000100
00000000
00001000
00000001
00000100
00000010
,
00001000
00000000
00000001
00000000
00001000
00000010
00000100
00000001
,
00000010
00000000
00000100
00000000
00001000
00000100
00000100
00010000
,
00001000
00000000
00100000
00000000
00100000
00010000
00100000
01000000
,
10010000
00000000
00010000
00100000
00002000
00000000
00000000
00000000
,
00103000
00001000
00100000
00010000
00100000
00001000
00100000
00000000
,
00101000
00000000
00010000
00001000
00020000
00000000
00000000
00000000
,
00030100
00010000
00000100
00001000
00000100
00010000
00000100
00000000
,
00010100
00001000
00000001
00000001
,
00000001
00000100
00001000
00010000
01000000
10000000
00010000
01000000
,
00020000
00100000
01000000
01030000
,
00200000
00000000
10000000
00000000
10300000
01000000
10000000
00000000
,
10000000
00000000
01000000
00010000
00001000
00000000
00010000
00000000
,
00000200
00020300
00032000
02003000
,
03000000
00000000
00000000
00000000
;
