#TITLE:Insaner;
#ARTIST:Jondi&Spesh;
#BANNER:Insaner.png;
#BACKGROUND:Insaner-bg.png;
#CDTITLE:./CDTITLES/DANCE DANCE REVOLUTION ULTRAMIX 3.png;
#MUSIC:Insaner.ogg;
#SAMPLESTART:7.65;
#SAMPLELENGTH:15;
#DISPLAYBPM:155:175;
#BPMS:0=155,132=165,180=155,196=175;

//---------------dance-single - ----------------
#NOTES:
     dance-single:
     :
     Beginner:
     1:
     :
0000
0000
0000
0000
,
0000
0000
0000
0000
,
0000
0000
0000
0000
,
0000
0000
0000
0000
,
0000
0000
0000
0000
,
0001
0000
0000
0000
,
1000
0000
0000
0000
,
0100
0000
0000
0000
,
1000
0000
0000
0000
,
0010
0000
0000
0000
,
0001
0000
0000
0000
,
1000
0000
0000
0000
,
0001
0000
0000
0000
,
0100
0000
0100
0000
,
0100
0000
0000
0000
,
0001
0000
0001
0000
,
0001
0000
0000
0000
,
1000
0000
0000
0000
,
0010
0000
0000
0000
,
0100
0000
0000
0000
,
0001
0000
0000
0000
,
1000
0000
0000
0000
,
0010
0000
0000
0000
,
0100
0000
0000
0000
,
0001
0000
0000
0000
,
1000
0000
0000
1000
,
1000
0000
0000
0100
,
0100
0000
0100
0000
,
0001
0000
0001
0000
,
0100
0000
0000
0000
,
1000
0000
1000
0000
,
0100
0000
0000
0000
,
0010
0000
0010
0000
,
0001
0000
0001
0000
,
1000
0000
0000
0000
,
0100
0000
0100
0000
,
0010
0000
0000
0000
,
0001
0000
0001
0000
,
1001
0000
0000
0000
,
1000
0000
1000
0000
,
1001
0000
0000
0000
,
0100
0000
0100
0000
,
1000
0000
1000
0000
,
0010
0000
0010
0000
,
0100
0000
0100
0000
,
0001
0000
0000
0000
,
1000
0000
1000
0000
,
0001
0000
0000
0000
,
0010
0000
0000
0000
,
0100
0000
0100
0000
,
1000
0000
0000
0000
,
0001
0000
0001
0000
,
0100
0000
0000
0000
,
0010
0000
0010
0000
,
0100
0000
0000
0000
,
1000
0000
1000
0000
,
0001
0000
0000
0000
,
1000
0000
0000
0000
,
0010
0000
0000
0000
,
0001
0000
0000
0000
,
0100
0000
0000
0000
,
1000
0000
0000
0000
,
0010
0000
0000
0000
,
0001
0000
0001
0000
,
1000
0000
1000
0000
,
0100
0000
0000
0000
,
0100
0000
0010
0000
,
0010
0000
0000
0000
,
0010
0000
0001
0000
,
1001
0000
0000
0000
;

//---------------dance-single - ----------------
#NOTES:
     dance-single:
     :
     Easy:
     3:
     :
0000
0000
0000
0000
,
0000
0000
0000
0000
,
0000
0000
0000
0000
,
0000
0000
0000
0000
,
0000
0000
0000
0000
,
0001
0001
1000
1000
,
0001
0000
0001
0000
,
0010
0000
0010
0000
,
0100
0000
0100
0000
,
1000
1000
0001
0001
,
1000
0000
1000
0000
,
0100
0000
0100
0000
,
0010
0000
0010
0000
,
0001
0100
0001
0000
,
1000
0100
1000
0000
,
0001
0010
0001
0000
,
1000
0010
1000
0000
,
0001
0001
0100
0100
,
0001
0000
0001
0000
,
1000
0000
1000
0000
,
0010
0000
0010
0000
,
1000
1000
0100
0100
,
1000
0000
1000
0000
,
0001
0000
0001
0000
,
0010
0000
0010
0000
,
0100
1000
0100
0000
,
0010
0001
0010
0000
,
0100
1000
0100
0000
,
1000
0001
1000
0001
,
1000
0000
0001
0000
,
0100
0100
0001
0000
,
1000
0000
0001
0000
,
1000
1000
0100
0000
,
0001
0001
0100
0100
,
1000
1000
0100
0000
,
0010
0001
0010
0001
,
0100
0001
0100
0000
,
1000
0100
1000
0000
,
0001
0100
0001
0000
,
0010
0100
0010
0000
,
0001
0010
0001
0000
,
1000
1000
0001
0001
,
1000
0000
1000
0000
,
0010
0000
0010
0000
,
0100
0000
0100
0000
,
1001
0000
1001
0000
,
1000
0001
1000
0000
,
1001
0000
1001
0000
,
0001
0001
1000
1000
,
0100
0100
0010
0010
,
0100
0000
0100
0000
,
1000
0000
1000
0000
,
0001
0000
0001
0000
,
1000
0100
1000
0000
,
0001
0100
0001
0000
,
0010
0100
0010
0000
,
0001
1000
0001
0000
,
1000
1000
0001
0001
,
1000
0000
1000
0000
,
0001
0000
0001
0000
,
0100
0000
0100
0000
,
1000
0100
1000
0000
,
0001
0100
0001
0000
,
1000
0100
1000
0000
,
0001
0100
0001
0000
,
0001
0000
0100
0000
,
1000
0000
0100
0000
,
0001
0100
0001
0100
,
0010
1000
0010
1000
,
1001
0000
0000
0000
;

//---------------dance-single - ----------------
#NOTES:
     dance-single:
     :
     Medium:
     6:
     :
0000
0000
0000
0000
,
0000
0000
0000
0000
,
0000
0000
0000
0000
,
0000
0000
0000
0000
,
0000
0000
0000
0000
,
0010
1000
0200
0000
2300
0000
3002
0000
,
0013
0100
1000
0001
,
0010
0001
0200
0000
0302
0000
2003
0000
,
3100
0010
0001
0010
,
0001
0100
2000
0000
3200
0000
0302
0000
,
0013
0100
1000
0100
,
1000
0100
0002
0000
0203
0000
2300
0000
,
3100
0010
0001
0100
,
0010
1000
0100
0000
0000
0000
1001
0000
,
1000
0001
0100
0000
0000
0000
0101
0000
,
0001
0010
0100
0000
0000
0000
0110
0000
,
0100
1000
0010
0000
0000
0000
1010
0000
,
1000
0010
0100
0000
0010
0100
0001
0000
,
0001
0010
0100
0000
1000
0000
0001
0000
,
0010
1000
0100
0000
0010
0001
0100
0000
,
0001
1000
0100
0000
1000
0000
0001
0000
,
0010
1000
0002
0000
2003
0000
3020
0000
,
0130
0001
1000
0001
,
0100
0010
2000
0000
3200
0000
0320
0000
,
0031
0100
1000
0100
,
0010
1000
0100
0000
1000
0000
0100
0000
,
0010
0001
1000
0000
0010
0000
0100
0000
,
0100
0001
0100
0000
0100
1000
0100
0000
,
0010
1000
0100
1000
0001
1000
0100
1000
,
1001
0000
0002
0000
,
2003
3200
2300
3000
,
0110
0000
0200
0000
,
0320
0032
2003
3000
,
0001
0001
0010
0100
,
1000
1000
0100
0010
,
1001
0001
1001
1000
,
1100
0001
0101
1000
,
1000
0100
0010
0001
,
0001
0010
0100
1000
,
1001
0001
1001
1000
,
1100
0001
0101
0100
,
0110
0000
0002
0000
,
1003
0100
0001
0100
,
1001
0000
2000
0000
,
3001
0100
1000
0100
,
1001
0000
0020
0000
,
2030
3200
0302
0003
,
0110
0000
2000
0000
,
3002
0023
0230
0300
,
1000
0010
1000
0000
0100
0000
0001
0000
,
0100
1000
0010
0100
,
0001
0010
0001
0000
1000
0000
0100
0000
,
0001
0100
1000
0100
,
0010
0001
0010
0000
0001
0000
0010
0000
,
0100
1000
0100
1000
,
0010
1000
0010
0000
0100
0000
0001
0000
,
0010
0001
1000
0001
,
1001
1000
1001
0001
,
0010
0011
1000
1010
,
0001
0101
1000
1100
,
0001
1001
1000
1001
,
0001
0200
0000
2300
0000
3200
0000
0302
,
0000
0023
0000
0032
0000
2003
0000
3010
,
0100
0002
0000
2003
0000
3200
0000
0320
,
0000
0230
0000
2300
0000
3002
0000
0103
,
0010
1001
0000
0110
,
0000
1010
0000
0101
,
0001
0010
0002
0000
2003
0000
3020
0000
,
0130
0001
1000
0100
,
1001
0000
0000
0000
;

//---------------dance-single - ----------------
#NOTES:
     dance-single:
     :
     Hard:
     9:
     :
0000
0000
0000
0000
,
0000
0000
0000
0000
,
0000
0000
0000
0000
,
0000
0000
0000
0000
,
0000
0000
0000
0000
,
1000
0001
0010
0001
1000
0100
1000
0020
,
0000
0230
0000
0302
0000
2003
0000
3010
,
0100
0001
0100
0010
1000
0010
0100
0002
,
0000
0203
0000
0320
0000
2030
0000
3001
,
0010
0100
0010
0001
1000
0001
0001
0200
,
0000
0302
0000
2003
0000
3020
0000
0130
,
0001
1000
0001
0100
0010
0100
0001
0020
,
0000
0230
0000
2300
0000
3002
0000
0000
,
2003
0001
0001
0010
,
0010
0100
0100
3100
,
1001
1100
1001
0110
,
1100
0110
1001
0101
,
0001
1000
0010
0100
0001
1000
0100
2000
,
0000
3002
0000
2003
0000
3200
0000
0310
,
0001
1000
0100
1000
0001
0100
0001
0020
,
0000
0032
0000
2003
0000
3200
0000
1300
,
1000
0100
0000
0100
0010
0000
0001
0000
0000
0000
0001
0000
0010
0000
0100
0000
,
1000
0100
1000
0100
0020
0000
0032
0000
,
0013
0100
0000
0100
1000
0000
0001
0000
0000
0000
1000
0000
0001
0000
0100
0000
,
0010
1000
0010
1000
0020
0000
0230
0000
,
0301
1000
0000
1000
0100
0000
0010
0000
0000
0000
0001
0000
0010
0000
0100
0000
,
1000
0100
0000
0100
1000
0000
0010
0000
0000
0000
0100
0000
0001
0000
1000
0000
,
0100
1000
0000
1000
0001
0000
0000
0000
0100
0001
0000
0001
1000
0000
0000
0000
,
1000
0010
0001
0010
1000
0001
1000
0001
,
2000
0000
0000
0000
3002
0000
0000
1003
,
0100
0010
0002
0000
2003
0000
3000
0000
,
0020
0000
0000
0000
0230
0000
0000
0301
,
0010
0100
2000
0000
3002
0000
0003
0000
,
0020
0100
0031
1001
,
2000
0001
3100
0110
,
0020
0001
0130
1100
,
2000
0001
3100
1001
,
0001
0010
0100
0000
0100
1000
0001
0000
,
0001
0010
0100
0000
0100
1000
0001
0000
,
1000
0001
0100
0000
0010
1000
0100
0000
,
1000
0001
0100
0000
0010
1000
0100
0000
,
1000
0100
1100
0000
0001
0100
0101
0000
,
1001
1100
1001
0101
,
0001
1000
1001
0000
0100
0010
0110
0000
,
1010
1100
0101
1100
,
2000
0000
3000
0000
0002
0000
0000
1003
,
0100
0010
0002
0000
2003
0000
3000
0000
,
0020
0000
0000
0000
0230
0000
0000
0301
,
0002
0023
0230
2300
,
3010
0100
0001
1000
0100
0001
0100
1000
,
0000
0001
0000
0101
0000
1000
0000
1100
,
0000
0001
0000
1001
0000
0100
0000
0110
,
0000
0010
0000
1010
0000
1000
0000
0000
,
1000
0001
0000
0001
1000
0000
0100
0000
0000
0000
0100
0000
0010
0000
0001
0000
,
0100
0010
0000
0010
0100
0000
0001
0000
0000
0000
0001
0000
0100
0000
1000
0000
,
0100
0001
0000
0001
0100
0000
0010
0000
0000
0000
0010
0000
1000
0000
0001
0000
,
1000
0100
0000
0100
1000
0000
0001
0000
0000
0000
0010
0000
0001
0000
0100
0000
,
1000
0100
1001
0000
0001
0100
1001
0000
,
1000
0100
1001
0000
0001
0100
1001
0000
,
0010
1000
0100
0001
0100
1000
0001
1000
,
0100
1000
0001
1000
0001
1000
0001
0000
,
0010
0100
0000
0101
0000
1000
0000
1100
,
0000
1000
0000
1001
0000
0001
0000
1001
,
1000
0100
0000
1100
0000
0001
0000
0101
,
0000
1000
0000
1001
0000
0001
0000
0010
,
0001
0100
0001
1000
0100
1000
0001
0000
,
1000
0010
0100
0010
1000
0001
1000
0000
,
0100
0010
0001
0010
0100
1000
0100
0010
,
0001
0100
1000
0100
0001
0010
0100
1000
,
1100
0000
0000
0000
;

//---------------dance-double - ----------------
#NOTES:
     dance-double:
     :
     Beginner:
     1:
     :
00000000
00000000
00000000
00000000
,
00000000
00000000
00000000
00000000
,
00000000
00000000
00000000
00000000
,
00000000
00000000
00000000
00000000
,
00000000
00000000
00000000
00000000
,
00001000
00000000
00000000
00000000
,
00010000
00000000
00000000
00000000
,
00000100
00000000
00000000
00000000
,
00000001
00000000
00000000
00000000
,
00000010
00000000
00000000
00000000
,
00001000
00000000
00000000
00000000
,
00010000
00000000
00000000
00000000
,
01000000
00000000
00000000
00000000
,
10000000
00000000
10000000
00000000
,
00100000
00000000
00000000
00000000
,
10000000
00000000
10000000
00000000
,
01000000
00000000
00000000
00000000
,
00010000
00000000
00000000
00000000
,
00001000
00000000
00000000
00000000
,
00000010
00000000
00000000
00000000
,
00000001
00000000
00000000
00000000
,
00001000
00000000
00000000
00000000
,
00000010
00000000
00000000
00000000
,
00000100
00000000
00000000
00000000
,
00001000
00000000
00000000
00000000
,
00010000
00000000
00000000
00001000
,
00001000
00000000
00000000
00010000
,
00010000
00000000
00010000
00000000
,
01000000
00000000
01000000
00000000
,
10000000
00000000
00000000
00000000
,
00100000
00000000
00100000
00000000
,
10000000
00000000
00000000
00000000
,
01000000
00000000
01000000
00000000
,
00010000
00000000
00010000
00000000
,
00001000
00000000
00000000
00000000
,
00001000
00000000
00001000
00000000
,
00000100
00000000
00000000
00000000
,
00000001
00000000
00000010
00000000
,
00000001
00000000
00000000
00000000
,
00000100
00000000
00001000
00000000
,
00000100
00000000
00000000
00000000
,
00010000
00000000
00010000
00000000
,
00001000
00000000
00001000
00000000
,
00010000
00000000
00010000
00000000
,
01000000
00000000
01000000
00000000
,
10000000
00000000
00000000
00000000
,
01000000
00000000
00010000
00000000
,
00001000
00000000
00000000
00000000
,
00000002
00000000
00000000
00000003
,
00000001
00000000
00000001
00000000
,
00000100
00000000
00000000
00000000
,
00001000
00000000
00001000
00000000
,
00010000
00000000
00000000
00000000
,
01000000
00000000
01000000
00000000
,
10000000
00000000
00000000
00000000
,
00100000
00000000
10000000
00000000
,
01000000
00000000
00000000
00000000
,
00010000
00000000
00000000
00000000
,
00001000
00000000
00000000
00000000
,
00000001
00000000
00000000
00000000
,
00000100
00000000
00000000
00000000
,
00001000
00000000
00000000
00000000
,
00010000
00000000
00000000
00000000
,
00001000
00000000
00001000
00000000
,
00010000
00000000
00010000
00000000
,
01000000
00000000
00000000
00000000
,
10000000
00000000
00100000
00000000
,
00100000
00000000
00000000
00000000
,
00001000
00000000
00010000
00000000
,
00011000
00000000
00000000
00000000
;

//---------------dance-double - ----------------
#NOTES:
     dance-double:
     :
     Easy:
     4:
     :
00000000
00000000
00000000
00000000
,
00000000
00000000
00000000
00000000
,
00000000
00000000
00000000
00000000
,
00000000
00000000
00000000
00000000
,
00000000
00000000
00000000
00000000
,
00000001
00001000
00000100
00010000
,
00001000
00001000
00010000
01000000
,
10000000
00000000
00010000
00000000
,
10000000
00000000
00100000
00000000
,
10000000
00010000
01000000
00001000
,
00010000
00010000
00001000
00000100
,
00000001
00000000
00001000
00000000
,
00000001
00000000
00000010
00000000
,
00000001
00000100
00000001
00000100
,
00001000
00000000
00010000
00000000
,
00010000
01000000
00010000
01000000
,
10000000
00000000
00100000
00000000
,
10000000
00100000
00010000
00001000
,
00000010
00000001
00000100
00000001
,
00000010
00000000
00000001
00000000
,
00000010
00000000
00000010
00000000
,
00000001
00000010
00001000
00010000
,
00100000
10000000
01000000
10000000
,
00100000
00000000
10000000
00000000
,
00100000
00000000
00100000
00000000
,
10000000
01000000
00010000
00000000
,
00001000
00000100
00000001
00000000
,
00000001
00000010
00001000
00000000
,
00010000
00100000
10000000
00100000
,
20000000
30000000
02000000
03000000
,
10000000
01000000
00010000
00000000
,
00002000
00003000
00000200
00000300
,
00000001
00000100
00001000
00000000
,
00010000
00010000
01000000
01000000
,
10000000
10000000
01000000
00000000
,
00010000
00010000
00001000
00001000
,
00000100
00000100
00000001
00000000
,
00000001
00000001
00000010
00000010
,
00001000
00001000
00010000
00000000
,
00100000
00100000
10000000
10000000
,
01000000
01000000
10000000
00000000
,
10000000
01000000
10000000
01000000
,
00010000
00001000
00010000
00001000
,
00000100
00001000
00000100
00000001
,
00000100
00000001
00000010
00000001
,
00002000
00003000
00000002
00000003
,
00000001
00000100
00001000
00000000
,
00020000
00030000
00002000
00003000
,
00010000
01000000
10000000
01000000
,
10000000
00100000
01000000
00001000
,
00010000
00010000
00001000
00000100
,
00000001
00000000
00001000
00000000
,
00000001
00000000
00000010
00000000
,
00000001
00000100
00001000
00000000
,
00001000
00010000
01000000
00000000
,
01000000
10000000
00100000
00000000
,
00100000
00010000
00001000
00000000
,
00000010
00000010
00000001
00000001
,
00000100
00000100
00001000
00001000
,
00010000
00000000
01000000
00000000
,
10000000
00000000
01000000
00000000
,
10000000
01000000
00010000
00000000
,
00010000
00001000
00000100
00000000
,
00000100
00000001
00000010
00000000
,
00000010
00001000
00010000
00000000
,
00100000
00100000
10000000
10000000
,
01000000
01000000
00010000
00010000
,
00001000
00010000
00001000
00010000
,
00001000
00000100
00001000
00000100
,
00001001
00000000
00000000
00000000
;

//---------------dance-double - ----------------
#NOTES:
     dance-double:
     :
     Medium:
     7:
     :
00000000
00000000
00000000
00000000
,
00000000
00000000
00000000
00000000
,
00000000
00000000
00000000
00000000
,
00000000
00000000
00000000
00000000
,
00000000
00000000
00000000
00000000
,
01000000
00010000
00001000
00000100
00000000
00000001
00000000
00000010
,
00000000
00001000
00000000
00010000
00000000
00100000
00000000
00010000
,
00000000
00001000
00000000
00000010
00000000
00000001
00000000
00000100
,
00000000
00001000
00000000
00010000
00000000
01000000
00000000
00010000
,
00001000
00000100
00000001
00000010
00000000
00000001
00000000
00000100
,
00000000
00001000
00000000
00010000
00000000
01000000
00000000
10000000
,
00000000
00100000
00000000
00010000
00000000
00001000
00000000
00000010
,
00000000
00001000
00000000
00010000
00000000
00100000
00000000
10000000
,
01000000
00010000
00001000
00000000
00010000
00000000
00011000
00000000
,
00001000
00000100
00000001
00000000
00000010
00000000
00000110
00000000
,
00000010
00000001
00000100
00000000
00001000
00000000
00011000
00000000
,
00010000
01000000
10000000
00000000
00100000
00000000
01100000
00000000
,
00100000
10000000
00010000
10000000
00000000
01000000
00000000
00010000
,
00000000
00001000
00000000
00000100
00000000
00000001
00000000
00000010
,
00000000
00001000
00000000
00010000
00000000
00100000
00000000
10000000
,
00000000
01000000
00000000
10000000
00000000
00010000
00000000
00100000
,
01000000
10000000
10000000
00000000
00010000
00000000
00100000
00000000
,
00001000
00010000
00001000
00000100
,
00000001
00000010
00000001
00000000
00001000
00000000
00000001
00000000
,
00000100
00000010
00001000
00000100
,
00010000
00001000
00010000
00000000
01000000
00000000
10000000
00000000
,
00100000
10000000
01000000
00000000
00010000
00000000
00001000
00000000
,
00010000
00001000
00000100
00000000
00001000
00000100
00000001
00000000
,
00000001
00000010
00000001
00000100
00001000
00000100
00001000
00010000
,
00011000
00000000
00020000
00000000
,
00032000
00023000
02030000
03000000
,
10010000
00000000
20000000
00000000
,
30200000
20300000
32000000
03000000
,
10000000
01000000
00010000
00001000
,
00010000
01000000
00010000
00001000
,
00000010
00001000
00010000
00001000
,
00000010
00001001
00000100
00001001
,
00000100
00001000
00010000
00001000
,
00000100
00001000
00010000
00100000
,
10000000
11000000
00010000
01010000
,
00001000
00011000
00000100
00001100
,
00001001
00000001
00001000
00000001
,
00001000
00000100
00010000
00001000
,
00011000
00100000
10000000
01000000
,
00010000
00001000
00010000
01000000
,
01100000
00000000
00200000
00000000
,
00302000
00023000
00032000
00003000
,
00011000
00000000
00002000
00000000
,
00003100
00001000
00010000
00100000
,
10000000
01000000
00010000
00001000
00000000
00010000
00000000
00001000
,
00000000
00000100
00000000
00000001
00000000
00000010
00000000
00001000
,
00000000
00010000
00000000
00001000
00000000
00010000
00000000
00100000
,
00000000
10000000
00000000
01000000
00000000
10000000
00000000
01000000
,
00010000
00001000
00010000
00000000
00001000
00000000
00000100
00000000
,
00000001
00001000
00000001
00000000
00001000
00000000
00000100
00000000
,
00000010
00000001
00000010
00000000
00000001
00000000
00000100
00000000
,
00001000
00010000
00001000
00000000
00010000
00000000
00001000
00000000
,
00010000
01000000
00010000
00000000
01000000
00000000
10000000
00000000
,
00100000
10000000
00100000
00000000
00010000
00000000
00001000
00000000
,
00010000
00001000
00010000
00000000
00001000
00000000
00000100
00000000
,
00000001
00000100
00000001
00000000
00000010
00000000
00000001
00000000
,
00001000
00000200
00000000
00002300
00000000
00003002
00000000
00000023
,
00000000
00000230
00000000
00002300
00000000
00003002
00000000
00000103
,
00001000
00020000
00000000
02030000
00000000
23000000
00000000
32000000
,
00000000
03200000
00000000
00320000
00000000
20030000
00000000
31000000
,
00010000
00001000
00010000
00000000
00001000
00010000
00001000
00000000
,
00000100
00001001
00000100
00001001
,
00000001
00000100
00001000
00000000
00000100
00001000
00010000
00000000
,
01000000
10010000
01000000
10010000
,
01100000
00000000
00000000
00000000
;

//---------------dance-double - ----------------
#NOTES:
     dance-double:
     :
     Hard:
     9:
     :
00000000
00000000
00000000
00000000
,
00000000
00000000
00000000
00000000
,
00000000
00000000
00000000
00000000
,
00000000
00000000
00000000
00000000
,
00000000
00000000
00000000
00000000
,
00000001
00001000
00000001
00000100
00001000
00010000
01000000
20000000
,
00000000
30200000
00000000
02300000
00000000
03002000
00000000
00013000
,
01000000
10000000
00100000
10000000
00100000
01000000
00001000
00020000
,
00000000
00032000
00000000
00023000
00000000
00030200
00000000
00001300
,
00000001
00001000
00000100
00000010
00001000
00010000
00001000
00000020
,
00000000
00000032
00000000
00000203
00000000
00002300
00000000
00013000
,
00001000
01000000
00010000
00100000
01000000
00010000
01000000
20000000
,
00000000
30200000
00000000
00320000
00000000
00032000
00000000
00003000
,
00000010
00000001
00000100
00001000
,
00010000
00100000
10000000
01000000
,
00010000
00011000
00001000
00001100
,
00000100
00000110
00000010
00000011
,
00000010
00001000
00000100
00010000
00001000
00100000
01000000
20000000
,
00000000
30200000
00000000
02300000
00000000
03020000
00000000
10030000
,
01000000
00010000
00000100
00000010
00000001
00000100
00000010
00002000
,
00000000
00003200
00000000
00020300
00000000
00032000
00000000
00013000
,
00001000
00010000
00000000
00010000
00001000
00000000
00001000
01000000
00000000
00000000
00010000
00000000
00100000
00000000
01000000
00000000
,
10000000
01000000
00010000
01000000
20000000
00000000
30200000
00300000
,
01000000
00010000
00000000
00010000
01000000
00000000
01000000
00001000
00000000
00000000
00010000
00000000
00001000
00000000
00010000
00000000
,
00001000
00000100
00000001
00000100
00002000
00000000
00003200
00000300
,
00000001
00001000
00000000
00001000
00000001
00000000
00000001
00000100
00000000
00000000
00001000
00000000
00000100
00000000
00000001
00000000
,
00001000
00000100
00000000
00000100
00001000
00000000
00001000
00000001
00000000
00000000
00000010
00000000
00000001
00000000
00000010
00000000
,
00000001
00001000
00000000
00001000
00000001
00000000
00000000
00000000
00001000
00000100
00000000
00000100
00001000
00000000
00000000
00000000
,
00000100
00010000
00000000
00001000
00010000
00001000
00000000
00010000
00001000
00010000
00000000
00001000
00010000
00001000
00000000
00010000
,
00002000
00000000
00000000
00000000
00023000
00000000
00000000
01030000
,
10000000
10000000
10010000
00000000
,
00020000
00000000
00000000
00000000
20030000
00000000
00000000
30010000
,
00100000
00100000
01100000
00000000
,
00010000
00000000
10000000
01000000
00000000
00000000
00010000
00001000
,
00000000
00000000
00000100
00000001
00000000
00000000
00000010
00000100
,
00000000
00000000
00010000
00001000
00000000
00000000
01000000
00100000
,
00000000
00000000
00010000
00001000
00000000
00000000
00000010
00000001
,
00000100
00001000
00010000
00000000
00010000
00001000
00100000
00000000
,
00001000
00010000
00000100
00000000
00001000
00000010
00010000
00000000
,
00001000
00010000
00000010
00000000
00010000
00001000
01000000
00000000
,
00010000
00100000
00001000
00000000
00010000
00001000
01000000
00000000
,
00010000
00100000
01000000
10000000
01000000
00100000
00010000
01000000
,
00001000
00100000
00001000
00000010
00000001
00000010
00000001
00000000
,
00001000
00000100
00000010
00000001
00000010
00000100
00001000
00000010
,
00010000
00000100
00010000
01000000
10000000
01000000
10000000
00000000
,
00020000
00000000
00000000
00000000
20030000
00000000
30000000
01000000
,
00010000
00001000
00011000
00000000
,
00020000
00000000
00000000
00000000
00032000
00000000
00000000
00003100
,
00000002
00000023
00000230
00002300
,
00003100
00010000
00001000
00010000
00001000
01000000
00010000
00100000
,
00000000
01000000
00000000
10010000
00000000
01000000
00000000
01100000
,
00000000
00100000
00000000
00101000
00000000
00001000
00000000
00010100
,
00000000
00000100
00000000
00000110
00000000
00000010
00000000
00000000
,
00000001
00001000
00000000
00001000
00000010
00000000
00000010
00000000
00000000
00000000
00001000
00000000
00000100
00000000
00000010
00000000
,
00000001
00000100
00000000
00000100
00000010
00000000
00001000
00000000
00000000
00000000
00000001
00000000
00000100
00000000
00001000
00000000
,
00010000
00001000
00000000
00001000
00010000
00000000
00010000
00000000
00000000
00000000
00010000
00000000
01000000
00000000
10000000
00000000
,
00100000
10000000
00000000
10000000
01000000
00000000
01000000
00000000
00000000
00000000
00100000
00000000
00010000
00000000
10000000
00000000
,
10000000
01000000
00000000
01000000
10000000
00000000
00000000
00000000
01000000
00010000
00000000
00010000
01000000
00000000
00000000
00000000
,
00010000
00001000
00000000
00001000
00010000
00000000
00000000
00000000
00001000
00010000
00000000
00010000
00001000
00000000
00000000
00000000
,
00000100
00001000
00000000
00001000
00000100
00000000
00000000
00000000
00000001
00000100
00000000
00000100
00000001
00000000
00000000
00000000
,
00000200
00000000
00000000
00000010
00000000
00000310
00000000
00000000
,
00001000
00000001
00000010
00000001
00000100
00001000
00010000
00011000
,
00000000
00010000
00000000
01000000
00000000
10000000
00000000
00010000
,
10000000
00100000
10000000
01000000
00010000
00001000
00010000
00011000
,
00000000
00001000
00000000
00000100
00000000
00000001
00000000
00000010
,
00000001
00000100
00001000
00010000
00001000
00010000
01000000
00000000
,
10000000
01000000
00010000
01000000
10000000
01000000
00010000
00000000
,
00001000
00100000
00010000
01000000
00001000
00010000
00001000
00000100
,
00000001
00000010
00000001
00000100
00001000
00010000
00001000
00010000
,
00011000
00000000
00000000
00000000
;
