#TITLE:Imperfection;
#SUBTITLE:(Tycho Brahe remix);
#ARTIST:Real Life;
#BANNER:Imperfection (Tycho Brahe remix).png;
#BACKGROUND:Imperfection (Tycho Brahe remix)-bg.png;
#CDTITLE:./CDTITLES/DANCE DANCE REVOLUTION ULTRAMIX 3.png;
#MUSIC:Imperfection (Tycho Brahe remix).ogg;
#SAMPLESTART:30.677;
#SAMPLELENGTH:15;
#BPMS:0=133;

//---------------dance-single - ----------------
#NOTES:
     dance-single:
     :
     Beginner:
     1:
     :
0000
0000
0000
0000
,
0000
0000
0000
0000
,
0000
0000
0000
0000
,
0000
0000
0000
0000
,
0000
0000
0000
0000
,
1000
0000
1000
0000
,
0001
0000
0001
0000
,
0100
0000
0000
0000
,
0010
0000
0000
0000
,
1000
0000
1000
0000
,
0001
0000
0001
0000
,
0010
0000
0000
0000
,
0100
0000
0000
0000
,
1000
0000
0000
0000
,
0001
0000
0000
0000
,
1000
0000
0000
0000
,
0001
0000
0000
0000
,
0100
0000
0100
0000
,
0010
0000
0010
0000
,
1000
0000
0000
0000
,
0001
0000
0000
0000
,
0010
0000
0010
0000
,
0100
0000
0100
0000
,
1000
0000
0000
0000
,
0001
0000
0000
0000
,
0010
0000
0000
0000
,
0010
0000
0000
0000
,
0001
0000
0000
0000
,
1000
0000
0000
0000
,
0100
0000
0000
0000
,
0010
0000
0000
0000
,
0001
0000
0000
0000
,
1000
0000
0000
0000
,
0010
0000
0000
0000
,
0100
0000
0000
0000
,
0001
0000
0000
0000
,
1000
0000
0000
0000
,
0100
0000
0100
0000
,
0010
0000
0010
0000
,
0001
0000
0000
0000
,
1000
0000
0000
0000
,
0010
0000
0010
0000
,
0100
0000
0100
0000
,
0001
0000
0000
0000
,
1000
0000
0000
0000
,
0100
0000
1000
0000
,
0100
0000
1000
0000
,
0001
0000
0100
0000
,
0001
0000
0100
0000
,
0010
0000
0000
0000
,
1000
0000
0000
0000
,
0001
0000
0000
0000
,
0100
0000
0000
0000
;

//---------------dance-single - ----------------
#NOTES:
     dance-single:
     :
     Easy:
     2:
     :
0000
0000
0000
0000
,
0000
0000
0000
0000
,
0000
0000
0000
0000
,
0000
0000
0000
0000
,
0000
0000
0000
0000
,
0001
0000
0001
0000
,
1000
0000
1000
0000
,
0002
0000
0000
0003
,
2000
0000
0000
3000
,
0010
0000
0010
0000
,
0100
0000
0100
0000
,
0020
0000
0000
0030
,
0200
0000
0000
0300
,
0001
0000
1000
0000
,
0001
0000
1000
0000
,
0010
0000
0100
0000
,
0010
0000
0100
0000
,
0001
0001
0001
0000
,
1000
1000
1000
0000
,
0002
0000
0000
0003
,
2000
0000
0000
3000
,
0010
0010
0010
0000
,
0100
0100
0100
0000
,
0020
0000
0000
0030
,
0200
0000
0000
0300
,
0000
0100
0000
0100
,
0000
0001
0000
0001
,
0000
1000
0000
1000
,
0000
0010
0000
0010
,
0100
0100
0000
0000
,
0001
0001
0000
0000
,
1000
1000
0000
0000
,
0100
0100
0000
0000
,
0010
0010
0000
0000
,
0001
0001
0000
0000
,
1000
1000
0000
0000
,
0200
0000
0000
0300
,
0110
0000
0010
0000
,
0100
0000
1000
0001
,
1000
0000
0001
0000
,
0100
0000
0010
0000
,
0100
0000
0010
0000
,
1000
0000
0001
1000
,
0001
0000
0010
0000
,
0100
0000
1000
0000
,
0010
0000
0100
0000
,
0010
0000
1000
0000
,
0100
0000
0010
0000
,
0001
0000
0010
0000
,
0100
0000
1000
0000
,
0001
0000
1000
0000
,
0010
0000
0100
0000
,
0001
0000
2002
0000
,
3003
0000
0000
0000
;

//---------------dance-single - ----------------
#NOTES:
     dance-single:
     :
     Medium:
     4:
     :
0000
0000
0000
0000
,
0000
0000
0000
0000
,
0000
0000
0000
0000
,
0000
0000
0000
0000
,
0000
0000
0000
0000
,
1000
1000
1000
1000
,
0001
0001
0001
0001
,
0010
0020
0030
0011
,
0100
0200
0300
1100
,
0001
0001
0001
0001
,
1000
1000
1000
1000
,
0010
0020
0030
1010
,
0100
0200
0300
0101
,
1000
1000
0001
0001
,
1000
1000
0001
0001
,
0020
0031
0000
0011
,
0200
1300
0000
1100
,
2000
3002
0000
0100
,
0000
0103
0001
1000
,
0100
0020
0030
0002
,
0003
0200
0300
0020
,
2030
3002
0000
0010
,
0000
0013
0001
1000
,
0010
0200
0300
0002
,
0003
0020
0030
2000
,
3010
0002
0000
1003
,
1000
0020
0000
0130
,
0100
0002
0000
1003
,
1001
0000
0000
1001
,
0001
0100
0000
0010
,
0010
1000
0000
0001
,
0001
1010
0010
0110
,
0100
0101
0001
0011
,
0001
0010
0000
0100
,
0100
1000
0000
0001
,
1000
1100
0100
0110
,
0020
0000
0000
0030
,
0001
1000
0001
1000
,
0010
0100
0010
0100
,
0001
0101
0000
0000
,
1000
1100
0000
0000
,
0010
0100
0010
0100
,
1000
0001
1000
0001
,
0010
0011
0000
0000
,
0100
1100
0000
0000
,
1000
1000
0010
0010
,
0100
0100
0001
0001
,
0100
0220
0000
0330
,
1000
2002
0000
3003
,
1000
0001
1000
0001
,
0100
0010
0100
0010
,
1000
1001
0001
0101
,
0100
0110
0010
1010
;

//---------------dance-single - ----------------
#NOTES:
     dance-single:
     :
     Hard:
     5:
     :
0000
0000
0000
0000
,
0000
0000
0000
0000
,
0000
0000
0000
0000
,
0000
0000
0000
0000
,
0000
0000
0000
0000
,
1000
1000
0001
0001
,
1000
1000
0001
0001
,
1000
0001
0100
0000
1000
0100
0001
0000
,
1000
0001
0010
0000
1000
0010
0001
0000
,
1000
1000
0001
0001
,
1000
1000
0001
0001
,
1000
0001
0010
0000
1000
0010
0001
0000
,
1000
0001
0100
0000
1000
0100
0001
0000
,
1000
1100
0001
0101
,
1000
1100
0001
0101
,
0010
1000
0001
0000
0100
0001
0010
0000
,
0100
1000
0001
0000
0010
0001
0100
0000
,
1010
0102
0000
1000
,
0000
0000
0013
0000
0100
0000
1000
0002
,
0000
2000
0000
0000
3003
0000
0100
0000
,
1000
0010
0100
0000
0001
0010
0100
1000
,
1100
0012
0000
1000
,
0000
0000
0103
0000
0010
0000
1000
0002
,
0000
2000
0000
0000
3003
0000
0010
0000
,
1000
0100
0010
0000
0001
0100
0010
1000
,
0001
1001
0000
0101
,
0000
0110
0000
1010
,
0000
1100
0000
0110
,
0000
0011
0000
1001
,
1000
1000
0010
0010
,
0100
0100
0001
0001
,
1000
0010
1000
0000
0010
0001
0010
0000
,
0001
0100
0001
0000
0100
1000
0100
0000
,
1000
1000
0001
0001
,
0010
0010
0100
0100
,
1000
0001
1000
0000
0010
0100
0010
0000
,
0001
1000
0001
0000
0100
0010
0100
0000
,
1001
0110
0001
0001
,
1000
0000
1000
0000
0001
0100
0010
0100
,
0001
1000
0100
0000
1000
0001
0100
0000
,
0010
1000
0100
0000
0010
0001
0100
0010
,
0110
1001
0010
0010
,
0100
0000
0100
0000
1000
0100
0010
0100
,
1000
0001
0100
0000
0001
1000
0100
0000
,
0010
0001
0100
0000
0010
1000
0100
0000
,
1000
0101
0001
1100
,
0100
0011
0001
1010
,
0100
0001
0010
0000
0100
1000
0010
0000
,
0100
0000
0100
0000
0000
0001
0000
0000
0001
0000
0000
1000
0000
0000
1000
0000
,
0100
1100
0010
1001
,
0010
0101
1000
0110
,
0001
0100
0010
0000
1000
0100
0010
0000
,
0001
0000
0001
0000
0000
1000
0000
0000
1000
0000
0000
0010
0000
0000
0220
0000
,
0000
0000
0000
0330
;

//---------------dance-double - ----------------
#NOTES:
     dance-double:
     :
     Beginner:
     1:
     :
00000000
00000000
00000000
00000000
,
00000000
00000000
00000000
00000000
,
00000000
00000000
00000000
00000000
,
00000000
00000000
00000000
00000000
,
00000000
00000000
00000000
00000000
,
00000001
00000000
00000001
00000000
,
00000100
00000000
00000100
00000000
,
00001000
00000000
00000000
00000000
,
00010000
00000000
00000000
00000000
,
01000000
00000000
01000000
00000000
,
10000000
00000000
10000000
00000000
,
00100000
00000000
00000000
00000000
,
01000000
00000000
00000000
00000000
,
00010000
00000000
00000000
00000000
,
00100000
00000000
00000000
00000000
,
00001000
00000000
00000000
00000000
,
00010000
00000000
00000000
00000000
,
00000100
00000000
00000100
00000000
,
00001000
00000000
00001000
00000000
,
00000001
00000000
00000000
00000000
,
00001000
00000000
00000000
00000000
,
00000010
00000000
00000010
00000000
,
00000100
00000000
00000100
00000000
,
00001000
00000000
00000000
00000000
,
00010000
00000000
00000000
00000000
,
00100000
00000000
00000000
00000000
,
00100000
00000000
00000000
00000000
,
10000000
00000000
00000000
00000000
,
01000000
00000000
00000000
00000000
,
00010000
00000000
00000000
00000000
,
00001000
00000000
00000000
00000000
,
00000100
00000000
00000000
00000000
,
00000001
00000000
00000000
00000000
,
00000010
00000000
00000000
00000000
,
00001000
00000000
00000000
00000000
,
00010000
00000000
00000000
00000000
,
01000000
00000000
00000000
00000000
,
10000000
00000000
10000000
00000000
,
00010000
00000000
00010000
00000000
,
01000000
00000000
00000000
00000000
,
00001000
00000000
00000000
00000000
,
00010000
00000000
00010000
00000000
,
00001000
00000000
00001000
00000000
,
00010000
00000000
00000000
00000000
,
00000100
00000000
00000000
00000000
,
00001000
00000000
00000100
00000000
,
00001000
00000000
00000100
00000000
,
00000010
00000000
00000001
00000000
,
00000010
00000000
00000001
00000000
,
00001000
00000000
00000000
00000000
,
00000100
00000000
00000000
00000000
,
00010000
00000000
00000000
00000000
,
00001000
00000000
00000000
00000000
;

//---------------dance-double - ----------------
#NOTES:
     dance-double:
     :
     Easy:
     2:
     :
00000000
00000000
00000000
00000000
,
00000000
00000000
00000000
00000000
,
00000000
00000000
00000000
00000000
,
00000000
00000000
00000000
00000000
,
00000000
00000000
00000000
00000000
,
00000001
00000000
00000001
00000000
,
00001000
00000000
00001000
00000000
,
00000200
00000000
00000000
00000300
,
00000020
00000000
00000000
00000030
,
00001000
00000000
00001000
00000000
,
00010000
00000000
00010000
00000000
,
00002000
00000000
00000000
00003000
,
00020000
00000000
00000000
00030000
,
01000000
00000000
10000000
00000000
,
01000000
00000000
10000000
00000000
,
00010000
00000000
01000000
00000000
,
00010000
00000000
01000000
00000000
,
00010000
00010000
00010000
00000000
,
00100000
00100000
00100000
00000000
,
00002000
00000000
00000000
00003000
,
00020000
00000000
00000000
00030000
,
00000100
00000100
00000100
00000000
,
00001000
00001000
00001000
00000000
,
00000002
00000000
00000000
00000003
,
00002000
00000000
00000000
00003000
,
00000000
00000100
00000000
00000100
,
00000000
00010000
00000000
00010000
,
00000000
00001000
00000000
00001000
,
00000000
00100000
00000000
00100000
,
00010000
00010000
00000000
00000000
,
10000000
10000000
00000000
00000000
,
00100000
00100000
00000000
00000000
,
00010000
00010000
00000000
00000000
,
00001000
00001000
00000000
00000000
,
00000100
00000100
00000000
00000000
,
00000001
00000001
00000000
00000000
,
00002000
00000000
00000000
00003000
,
00001001
00000000
00000001
00000000
,
00000010
00000000
00001000
00010000
,
00001000
00000000
00010000
00000000
,
01000000
00000000
10000000
00000000
,
00010000
00000000
01000000
00000000
,
10000000
00000000
01000000
00010000
,
01000000
00000000
00010000
00000000
,
00100000
00000000
00001000
00000000
,
00010000
00000000
00000100
00000000
,
00001000
00000000
00000001
00000000
,
00001000
00000000
00000100
00000000
,
00010000
00000000
00001000
00000000
,
00010000
00000000
01000000
00000000
,
10000000
00000000
00010000
00000000
,
00100000
00000000
00001000
00000000
,
00010000
00000000
00022000
00000000
,
00033000
00000000
00000000
00000000
;

//---------------dance-double - ----------------
#NOTES:
     dance-double:
     :
     Medium:
     4:
     :
00000000
00000000
00000000
00000000
,
00000000
00000000
00000000
00000000
,
00000000
00000000
00000000
00000000
,
00000000
00000000
00000000
00000000
,
00000000
00000000
00000000
00000000
,
00001000
00001000
00001000
00001000
,
00010000
00010000
00010000
00010000
,
00100000
20000000
30000000
10010000
,
00010000
02000000
03000000
01100000
,
00100000
00100000
00100000
00100000
,
00010000
00010000
00010000
00010000
,
00001000
00002000
00003000
00011000
,
00010000
00020000
00030000
00011000
,
00001000
00001000
00000100
00000100
,
00000001
00000001
00000010
00000010
,
00000200
00001300
00000000
00001001
,
00000002
00000103
00000000
00000110
,
00002000
00023000
00000000
00000010
,
00000000
00030010
00010000
00001000
,
00100000
00020000
00030000
20000000
,
30000000
02000000
03000000
00020000
,
00032000
00023000
00000000
00000100
,
00000000
00030100
00010000
00000010
,
00001000
00000002
00000003
00000200
,
00000300
00002000
00003000
00000200
,
00000301
00002000
00000000
00003100
,
00000100
00020000
00000000
00031000
,
00001000
00200000
00000000
00310000
,
10010000
00000000
00000000
10010000
,
10000000
00100000
00000000
01000000
,
01000000
00010000
00000000
00100000
,
00100000
00101000
00001000
00011000
,
00010000
00010100
00000100
00001100
,
00001000
00000100
00000000
00000010
,
00000010
00000001
00000000
00000100
,
00000001
00001001
00001000
00001100
,
00000200
00000000
00000000
00000300
,
00010000
00001000
00010000
00001000
,
00100000
00010000
00100000
00010000
,
10000000
10010000
00000000
00000000
,
00010000
10010000
00000000
00000000
,
00010000
01000000
00010000
01000000
,
00001000
00010000
00001000
00010000
,
00000100
00001100
00000000
00000000
,
00000001
00000101
00000000
00000000
,
00000010
00000010
00001000
00001000
,
00000100
00000100
00010000
00010000
,
00001000
00022000
00000000
00033000
,
00100000
00220000
00000000
00330000
,
00010000
10000000
00010000
10000000
,
01000000
00100000
01000000
00100000
,
00010000
00110000
00001000
00011000
,
00000100
00001100
00000010
00000110
;

//---------------dance-double - ----------------
#NOTES:
     dance-double:
     :
     Hard:
     6:
     :
00000000
00000000
00000000
00000000
,
00000000
00000000
00000000
00000000
,
00000000
00000000
00000000
00000000
,
00000000
00000000
00000000
00000000
,
00000000
00000000
00000000
00000000
,
00010000
00010000
00000100
00000100
,
00010000
00010000
00000010
00000010
,
00001000
00000100
00000001
00000000
00001000
00000100
00000010
00000000
,
00001000
00000100
00010000
00000000
00010000
00001000
00010000
00000000
,
00001000
00001000
01000000
01000000
,
00001000
00001000
00100000
00100000
,
00010000
01000000
10000000
00000000
00010000
01000000
00100000
00000000
,
00010000
01000000
00001000
00000000
00001000
00010000
00001000
00000000
,
00010000
00010100
00010000
00010010
,
00001000
00101000
00001000
01001000
,
00001000
00010000
00001000
00000000
00001000
00010000
00000100
00000000
,
00001000
00010000
00000010
00000000
00000010
00001000
00000100
00000000
,
00001100
00020100
00000000
00001000
,
00000000
00000000
00030010
00000000
00010000
00000000
00001000
00200000
,
00000000
00020000
00000000
00000000
00330000
00000000
10000000
00000000
,
00100000
01000000
00010000
00000000
00100000
01000000
10000000
00010000
,
01010000
01002000
00000000
00010000
,
00000000
00000000
00103000
00000000
00001000
00000000
00010000
00000200
,
00000000
00002000
00000000
00000000
00003300
00000000
00000001
00000000
,
00000010
00000100
00001000
00000000
00000010
00000100
00000001
00001000
,
00000100
00001100
00000000
00001010
,
00000000
00010010
00000000
00011000
,
00000000
00101000
00000000
00110000
,
00000000
10010000
00000000
01100000
,
01000000
01000000
00001000
00001000
,
00010000
00010000
00000100
00000100
,
00010000
00001000
00010000
00000000
00000010
00001000
00000010
00000000
,
00000100
00000001
00000100
00000000
00000010
00001000
00000010
00000000
,
00000100
00000100
00001000
00001000
,
00010000
00010000
01000000
01000000
,
10000000
00100000
10000000
00000000
00100000
00010000
00100000
00000000
,
00010000
00001000
00010000
00000000
00001000
00000100
00001000
00000000
,
00000110
00001001
00000010
00000010
,
00000100
00000000
00000100
00000000
00001000
00000100
00000001
00000100
,
00001000
00000010
00010000
00000000
00001000
00100000
00010000
00000000
,
01000000
00010000
00100000
00000000
01000000
10000000
00100000
01000000
,
01100000
10010000
01000000
01000000
,
00100000
00000000
00100000
00000000
00010000
00100000
10000000
00100000
,
00010000
01000000
00001000
00000000
00010000
00000100
00001000
00000000
,
00000010
00001000
00000100
00000000
00000010
00000001
00000100
00000010
,
00001000
00000101
00000001
00001100
,
00001000
00010100
00001000
00011000
,
00010000
00001000
00100000
00000000
00010000
10000000
00100000
00000000
,
01000000
00000000
01000000
00000000
00000000
00010000
00000000
00000000
00010000
00000000
00000000
00100000
00000000
00000000
00100000
00000000
,
00001000
00101000
00010000
00011000
,
00001000
00010100
00001000
00000110
,
00000001
00000100
00000010
00000000
00000100
00001000
00010000
00000000
,
00001000
00000000
00001000
00000000
00000000
00010000
00000000
00000000
00010000
00000000
00000000
01000000
00000000
00000000
02200000
00000000
,
00000000
03300000
00000000
00000000
;
