#TITLE:I Just Wanna Live;
#ARTIST:Good Charlotte;
#BANNER:I Just Wanna Live.png;
#BACKGROUND:I Just Wanna Live-bg.png;
#CDTITLE:./CDTITLES/DANCE DANCE REVOLUTION ULTRAMIX 3.png;
#MUSIC:I Just Wanna Live.ogg;
#SAMPLESTART:31.32;
#SAMPLELENGTH:15;
#BPMS:0=111;

//---------------dance-single - ----------------
#NOTES:
     dance-single:
     :
     Beginner:
     1:
     :
0000
0000
0000
0000
,
0000
0000
0000
0000
,
0000
0000
0000
0000
,
1000
0000
0000
0000
,
0001
0000
0000
0000
,
1000
0000
0000
0000
,
0001
0000
0001
0000
,
1000
0000
1000
0000
,
0001
0000
0000
0000
,
1000
0000
0001
0000
,
1000
0000
0001
0000
,
1000
0000
0000
0000
,
0001
0000
0000
0000
,
0010
0000
0000
0000
,
0100
0000
0000
0000
,
0100
0000
0100
0000
,
0100
0000
0000
0000
,
0010
0000
0010
0000
,
0010
0000
0000
0000
,
1000
0000
1000
0000
,
1000
0000
0000
0000
,
0001
0000
0001
0000
,
0001
0000
0000
0000
,
1001
0000
0000
0000
,
0001
0000
0000
0000
,
1000
0000
0000
0000
,
1000
0000
0000
0000
,
0001
0000
0000
0000
,
0001
0000
0000
0000
,
1000
0000
1000
0000
,
0001
0000
0001
0000
,
1000
0000
0000
0000
,
0001
0000
0000
0000
,
1000
1000
0000
0000
,
0001
0001
0000
0000
,
1000
0000
1000
0000
,
1000
0000
1000
0000
,
0001
0000
0001
0000
,
0001
0000
0000
0000
,
0010
0000
0010
0000
,
0010
0000
0000
0000
,
0100
0000
0100
0000
,
0100
0000
0000
0000
,
1001
0000
0000
0000
;

//---------------dance-single - ----------------
#NOTES:
     dance-single:
     :
     Easy:
     4:
     :
0000
0000
0000
0000
,
0000
0000
0000
0000
,
0000
0000
0000
0000
,
1000
0000
0001
0000
,
1000
0000
0010
0000
,
0100
0000
0010
0000
,
1001
0000
0000
0000
,
0001
0001
1001
0000
,
0001
0000
1000
0000
,
0010
0000
0100
0000
,
0010
0000
0000
0000
,
0001
0001
0001
0001
,
1000
1000
1000
1000
,
0010
0000
0100
0000
,
0110
0000
0000
0000
,
0000
0001
1000
1000
,
0010
0100
0010
0100
,
1000
1000
0001
0001
,
0010
0100
0010
0100
,
1000
0000
1001
0000
,
1001
0000
1001
0000
,
0010
0000
0100
0000
,
0010
0000
0000
0000
,
1000
1000
1000
0000
,
0001
0001
0001
0000
,
0010
0010
0010
0000
,
0100
0100
0100
0000
,
1001
0001
0000
0000
,
1001
1000
0000
0000
,
0010
0000
0100
0000
,
0010
0000
0000
0010
,
0010
1000
0001
1000
,
0001
1000
0010
0000
,
1000
0001
1000
0001
,
0100
0000
0000
0001
,
0001
0001
1000
1000
,
0010
0100
0010
0100
,
1000
1000
0001
0001
,
0010
0100
0010
0100
,
1000
0000
1001
0000
,
1001
0000
1001
0000
,
0010
0000
0100
0000
,
0020
0000
0000
0000
,
0030
0000
0000
0000
;

//---------------dance-single - ----------------
#NOTES:
     dance-single:
     :
     Medium:
     4:
     :
0000
0000
0000
0000
,
0000
0000
0000
0000
,
0000
0000
0000
0000
,
0002
0003
0001
0000
,
2000
3000
1000
0000
,
0020
0030
0010
0000
,
0100
0100
0001
0010
,
0200
0300
0100
0000
,
2000
3000
1000
0000
,
0002
0003
0001
0000
,
1000
0000
0010
0000
1000
0010
1000
0000
,
0002
0000
1000
1003
,
0020
0000
0100
0130
,
0110
0010
1001
0001
,
0001
0000
0010
0000
0100
1000
0100
0000
,
1000
0000
0001
0000
0010
0010
0010
0000
,
0100
1000
0001
0001
,
0100
0001
1000
1000
,
0010
0000
0100
0000
0001
0001
0001
0000
,
1000
0000
0001
0000
0010
0100
0010
0000
,
1000
0000
0001
0000
0000
0010
0010
0000
,
0100
0000
1000
0000
0001
1000
0001
0000
,
1001
1001
2002
3003
,
1000
0010
0100
0100
,
0001
0000
1000
0000
0010
0100
0010
0000
,
1000
0100
0010
0010
,
0001
0000
1000
0000
0010
0100
0010
0000
,
1000
0000
1000
0000
0001
0001
0001
0000
,
1000
0010
1000
0010
1000
0010
1000
0000
,
0100
0000
0010
0000
0001
0001
0001
0000
,
1100
0000
1100
0000
1000
0100
1000
0000
,
0001
1000
0100
0010
,
0001
1000
0010
0010
,
1000
0100
0010
0010
,
0011
0000
0011
0000
0001
0010
0001
0000
,
0020
0001
0001
0031
,
0200
0010
0010
0310
,
2000
0100
0100
3100
,
0002
0100
0100
0103
,
0010
1000
0001
0000
0100
0000
0100
0000
,
0010
0000
1000
0000
0001
0100
0001
0000
,
1000
0000
0001
0000
0100
0010
0100
0000
,
2002
0000
0000
0000
,
3003
0000
0000
0000
;

//---------------dance-single - ----------------
#NOTES:
     dance-single:
     :
     Hard:
     6:
     :
0000
0000
0000
0000
,
0000
0000
0000
0000
,
0000
0000
0000
0000
,
1001
0000
1000
0100
1000
0001
0100
0000
,
1001
0000
0001
0100
0001
1000
0100
0000
,
0110
0000
0010
0001
0100
0010
1000
0100
,
0010
0001
0100
0010
1000
0100
1000
0001
,
0100
0001
1000
0010
1000
0001
0010
0001
,
0000
1000
0100
0001
0100
0010
0001
0100
,
1000
0100
0010
1000
0001
1000
0100
0000
,
0010
0001
1000
0010
0100
0001
0010
0000
,
0002
2003
3002
2003
,
3010
0100
0001
1000
0010
0100
0000
1001
,
0100
0100
0101
0000
0100
0100
1100
0000
,
2002
0000
3003
0110
,
1000
0000
1100
0000
0000
0100
0100
0010
,
0001
0000
0101
0000
0000
0100
0100
0010
,
1000
0000
1010
0000
0000
0010
0010
0100
,
0001
0000
0011
0000
0000
0010
0001
1000
,
0010
0000
1001
0000
0000
0100
1000
0001
,
0100
0000
1001
0000
0000
0100
0001
1000
,
0100
0000
0110
0000
0000
0010
0001
1000
,
0010
0010
0010
0010
,
1000
1000
0001
0001
0200
0000
0310
0000
,
1000
0100
1000
0001
0100
0001
0000
0000
,
0010
0010
0100
0100
2000
0000
3001
0010
,
0001
1000
0010
1000
0100
0100
0000
0000
,
1000
0000
1010
0000
1000
0001
1000
0000
,
0001
0000
0011
0000
0001
1000
0001
0000
,
0100
0000
1001
0000
0010
0100
0010
0000
,
1100
0000
0101
0000
1000
0100
0010
0001
,
0100
0010
1000
0100
0010
0001
0100
0010
,
1000
0100
0010
0001
0000
0000
0010
0100
,
1000
0010
0100
0001
0000
0000
0100
0010
,
1000
0100
0010
0001
1000
1000
0001
0001
,
1001
0000
1100
0000
0000
0010
0001
1000
,
0100
0000
0011
0000
0000
0001
0100
0010
,
1000
0000
0101
0000
0000
0010
1000
0001
,
0100
0000
1010
0000
0000
1000
0001
1000
,
0001
0000
0110
0000
0000
0001
1000
0001
,
1000
0000
0110
0000
0000
0001
0010
0100
,
1000
0000
1001
0000
0000
1000
0010
0100
,
0002
0000
1000
1000
,
1003
0000
0000
0000
;

//---------------dance-double - ----------------
#NOTES:
     dance-double:
     :
     Beginner:
     1:
     :
00000000
00000000
00000000
00000000
,
00000000
00000000
00000000
00000000
,
00000000
00000000
00000000
00000000
,
10000000
00000000
00000000
00000000
,
00010000
00000000
00000000
00000000
,
10000000
00000000
00000000
00000000
,
00010000
00000000
00010000
00000000
,
10000000
00000000
10000000
00000000
,
01000000
00000000
00000000
00000000
,
00010000
00000000
00001000
00000000
,
00010000
00000000
00001000
00000000
,
00010000
00000000
00000000
00000000
,
00000100
00000000
00000000
00000000
,
00000010
00000000
00000000
00000000
,
00000001
00000000
00000000
00000000
,
00000001
00000000
00000001
00000000
,
00000001
00000000
00000000
00000000
,
00000010
00000000
00000010
00000000
,
00000010
00000000
00000000
00000000
,
00000100
00000000
00000100
00000000
,
00000100
00000000
00000000
00000000
,
00010000
00000000
00010000
00000000
,
00010000
00000000
00000000
00000000
,
00011000
00000000
00000000
00000000
,
00100000
00000000
00000000
00000000
,
00010000
00000000
00000000
00000000
,
10000000
00000000
00000000
00000000
,
01000000
00000000
00000000
00000000
,
10000000
00000000
00000000
00000000
,
00010000
00000000
00010000
00000000
,
10000000
00000000
10000000
00000000
,
00010000
00000000
00000000
00000000
,
01000000
00000000
00000000
00000000
,
00001000
00001000
00000000
00000000
,
00010000
00010000
00000000
00000000
,
00000010
00000000
00000010
00000000
,
00000010
00000000
00000000
00000000
,
00001000
00000000
00001000
00000000
,
00001000
00000000
00000000
00000000
,
00000001
00000000
00000001
00000000
,
00000001
00000000
00000000
00000000
,
00000100
00000000
00000100
00000000
,
00000100
00000000
00000000
00000000
,
00001001
00000000
00000000
00000000
;

//---------------dance-double - ----------------
#NOTES:
     dance-double:
     :
     Easy:
     3:
     :
00000000
00000000
00000000
00000000
,
00000000
00000000
00000000
00000000
,
00000000
00000000
00000000
00000000
,
20000000
30000000
00010000
00010000
,
02000000
03000000
00001000
00001000
,
00020000
00030000
00000010
00000010
,
00000200
00000000
00000000
00000300
,
00000001
00000001
00000000
00000000
,
00000200
00000300
00000000
00000000
,
00001000
00000000
00000100
00000000
,
00020000
00000000
00001000
00031000
,
00010000
00000000
00010000
00000000
,
10000000
00000000
10000000
00000000
,
00010000
00000000
01000000
00000000
,
00001000
00000000
00000000
00000000
,
00011000
00000000
00010000
00000000
,
00001000
00000000
00100000
00000000
,
00001000
00000000
00000100
00000000
,
00000010
00000000
00000100
00000000
,
00000002
00000003
00001000
00001000
,
00000002
00000003
00001000
00001000
,
00000001
00000000
00000100
00000000
,
00001000
00010000
00001000
00000000
,
00100000
00100000
00000000
00000000
,
00001000
00001000
00000000
00000000
,
00000010
00000010
00000000
00000000
,
00010000
00010000
00000000
00000000
,
01000000
01000000
00000000
00000000
,
00001000
00001000
00000000
00000000
,
00000100
00000100
00000000
00000000
,
00010000
00010000
00001000
00001000
,
00020000
00000000
00031000
00000100
,
00000001
00000001
00001000
00000000
,
00000100
00010000
00001000
00000000
,
00010000
00001000
01000000
00000000
,
00010000
00000000
00100000
00000000
,
01000000
00000000
10000000
10000000
,
00010000
00000000
00001000
00000000
,
00000001
00000000
00001000
00001000
,
00000100
00000000
00000001
00000001
,
00000100
00000000
00001000
00001000
,
00010000
00000000
00001000
00000000
,
00022000
00000000
00000000
00000000
,
00033000
00000000
00000000
00000000
;

//---------------dance-double - ----------------
#NOTES:
     dance-double:
     :
     Medium:
     4:
     :
00000000
00000000
00000000
00000000
,
00000000
00000000
00000000
00000000
,
00000000
00000000
00000000
00000000
,
00002000
00003000
00010000
00000000
,
00000020
00000030
00001000
00000000
,
00000200
00000300
00010000
00000000
,
00001000
00001000
01000000
00100000
,
02000000
03000000
00010000
00000000
,
20000000
30000000
01000000
00000000
,
20000000
30000000
00100000
00000000
,
10000000
00000000
01000000
00000000
00100000
00001000
00010000
00000000
,
00000020
00000000
00001000
00001030
,
00000200
00000000
00001000
00001300
,
00010100
00001000
01001000
01000000
,
00010000
00000000
00100000
00000000
01000000
00100000
01000000
00000000
,
10000000
00000000
00010000
00000000
00100000
00001000
00010000
00000000
,
00001000
00000100
00000100
00000001
,
00000100
00000100
00001000
00010000
,
00010000
00000000
00001000
00000000
00010000
00010000
00010000
00000000
,
00001000
00000000
01000000
00000000
00100000
01000000
00100000
00000000
,
10000000
00000000
00010000
00000000
00000000
01000000
01000000
00000000
,
00010000
00000000
01000000
00000000
00001000
01000000
00001000
00000000
,
00011000
00011000
00022000
00033000
,
00001000
00010000
00000100
00000100
,
00000010
00000000
00000001
00000000
00000100
00000010
00000100
00000000
,
00001000
00010000
01000000
01000000
,
10000000
00000000
00100000
00000000
01000000
00100000
01000000
00000000
,
00010000
00000000
00010000
00000000
10000000
10000000
10000000
00000000
,
00010000
01000000
00010000
01000000
00010000
01000000
00010000
00000000
,
01000000
00000000
00001000
00000000
00010000
00010000
00010000
00000000
,
00011000
00000000
00011000
00000000
00010000
00001000
00010000
00000000
,
00000100
00000010
00000001
00001000
,
00000100
00010000
00001000
00100000
,
00010000
10000000
01000000
00100000
,
00110000
00000000
00110000
00000000
00010000
00100000
00010000
00000000
,
00200000
00001000
00001000
00301000
,
00020000
00000010
00000010
00030010
,
00002000
00000100
00000100
00003100
,
00000020
00000001
00000001
00000031
,
00001000
00000001
00000100
00000000
00001000
00000000
00001000
00000000
,
00010000
00000000
00001000
00000000
00010000
01000000
10000000
00000000
,
00010000
00000000
10000000
00000000
00100000
00010000
00001000
00000000
,
00022000
00000000
00000000
00000000
,
00033000
00000000
00000000
00000000
;

//---------------dance-double - ----------------
#NOTES:
     dance-double:
     :
     Hard:
     6:
     :
00000000
00000000
00000000
00000000
,
00000000
00000000
00000000
00000000
,
00000000
00000000
00000000
00000000
,
00000010
00000001
00000100
00001000
,
00010000
01000000
10000000
00100000
,
10000000
01000000
00100000
00010000
,
00100000
00000000
01000000
00000000
10000000
01000000
00010000
00000000
,
01000000
00100000
00010000
00000000
01000000
00001000
00010000
00000000
,
00001000
00000100
00000001
00000010
00000100
00001000
00000001
00000000
,
00000100
00001000
00010000
00000000
00001000
00000010
00000100
00000000
,
00010000
00001000
00000010
00000100
00001000
00000001
00001000
00000000
,
00000200
00020300
00032000
02003000
,
03001000
00010000
01000000
10000000
00100000
01000000
00000000
00010000
,
01000000
00100000
10000000
00000000
01000000
00100000
00010000
00000000
,
20020000
00000000
30030000
01000000
,
01100000
10010000
10100000
00110000
,
10010000
00011000
00001001
00011000
,
00010100
00011000
01001000
00011000
,
00011000
10010000
00011000
00001001
,
00000110
00001001
00000011
00001010
,
00001001
00011000
10010000
00011000
,
01001000
00000000
00011000
00000000
00010100
00000000
00011000
00001000
,
00010000
01000000
10000000
00100000
,
10000000
01000000
00100000
00001000
00020000
00000000
00130000
00000000
,
10000000
01000000
00010000
00001000
00000100
00000001
00000000
00000000
,
00001000
00000010
00000100
00000001
00002000
00000000
00003100
00010000
,
01000000
10000000
00100000
10000000
01000000
00100000
00000000
00000000
,
10000000
00000000
10010000
00000000
01000000
00010000
00001000
00000000
,
00010000
00000000
00011000
00000000
00001000
00000100
00000001
00000000
,
00000001
00000000
00001001
00000000
00000010
00000100
00001000
00000000
,
00001100
00000000
00000101
00000000
00000010
00001000
00000010
00000100
,
00000010
00010000
00001000
00010000
00000100
00001000
00000010
00001000
,
00000100
00010000
00001000
00010000
00000000
00000000
00001000
00100000
,
00010000
00100000
00001000
00010000
00000000
00000000
00000010
00000100
,
00000001
00000010
00000100
00001000
00000001
00000100
00001000
00010000
,
00011000
00000000
00011000
00000000
00000000
00001000
00100000
00010000
,
01000000
00000000
10010000
00000000
00000000
00100000
10000000
00100000
,
01000000
00000000
01100000
00000000
00000000
00010000
01000000
00001000
,
00010000
00000000
00011000
00000000
00000000
00010000
00000010
00001000
,
00000100
00000000
00001001
00000000
00000000
00000010
00000001
00000010
,
00000100
00000000
00000110
00000000
00000000
00001000
00000100
00010000
,
00001000
00000000
00011000
00000000
00000000
00001000
00010000
01000000
,
20000000
00000000
00010000
00010000
,
30010000
00000000
00000000
00000000
;
