#TITLE:I Am Gothic;
#SUBTITLE:(2003 Single);
#ARTIST:Spray;
#BANNER:I Am Gothic (2003 Single).png;
#BACKGROUND:I Am Gothic (2003 Single)-bg.png;
#CDTITLE:./CDTITLES/DANCE DANCE REVOLUTION ULTRAMIX 3.png;
#MUSIC:I Am Gothic (2003 Single).ogg;
#SAMPLESTART:56.484;
#SAMPLELENGTH:15;
#DISPLAYBPM:136;
#BPMS:0=134.4,4=136.02;

//---------------dance-single - ----------------
#NOTES:
     dance-single:
     :
     Beginner:
     1:
     :
0000
0000
0000
0000
,
0000
0000
0000
0000
,
0000
0000
0000
0000
,
0000
0000
0000
0000
,
0000
0000
0000
0000
,
0001
0000
0000
0000
,
1000
0000
0000
0000
,
0100
0000
0100
0000
,
0100
0000
0000
0000
,
0010
0000
0010
0000
,
0010
0000
0000
0000
,
0001
0000
1000
0000
,
0001
0000
0000
0000
,
1000
0000
0001
0000
,
1000
0000
0000
0000
,
0010
0000
0000
0000
,
0100
0000
0000
0000
,
0010
0000
0000
0000
,
0100
0000
0100
0000
,
0100
0000
0000
0000
,
0001
0000
0000
0000
,
0100
0000
0000
0000
,
0010
0000
0000
0000
,
1000
0000
1000
0000
,
0001
0000
0001
0000
,
1000
0000
0000
0000
,
0010
0000
0000
0000
,
0010
0000
0010
0000
,
0100
0000
0100
0000
,
0001
0000
0000
0000
,
1000
0000
0000
0000
,
0010
0000
0000
0000
,
0010
0000
0010
0000
,
0100
0000
0000
0000
,
0001
0000
0001
0000
,
1000
0000
0000
0000
,
1000
0000
0001
0000
,
0001
0000
0000
0000
,
0100
0000
0100
0000
,
0010
0000
0000
0000
,
0010
0000
0000
0000
,
1000
0000
0000
0000
,
0001
0000
0000
0000
,
1000
0000
1000
0000
,
0001
0000
0000
0000
,
0010
0000
0000
0000
,
0100
0000
0000
0000
,
0010
0000
0010
0000
,
0100
0000
0000
0000
,
1000
0000
0000
0000
,
0001
0000
0000
0000
,
0100
0000
0100
0000
,
0010
0000
0000
0000
,
0010
0000
0000
0000
,
1000
0000
0000
0000
,
0001
0000
0001
0000
,
1001
0000
0000
0000
;

//---------------dance-single - ----------------
#NOTES:
     dance-single:
     :
     Easy:
     2:
     :
0000
0000
0000
0000
,
0000
0000
0000
0000
,
0000
0000
0000
0000
,
0000
0000
0000
0000
,
0000
0000
0000
0000
,
0110
0000
0000
0000
,
1001
0000
0000
0000
,
0001
0000
0100
0000
,
1000
0000
0100
0000
,
0001
0000
0001
0000
,
0010
0000
0100
0100
,
0100
0000
1000
0000
,
0010
0000
0100
0000
,
0002
0000
0003
1000
,
0002
0000
0000
0003
,
1000
0000
0100
0000
,
1000
0000
0010
0000
,
0100
0000
0000
0001
,
1000
0000
0000
0000
,
0001
0000
0100
0000
,
0001
0000
0001
0000
,
1000
0000
0000
0001
,
1000
0000
0000
0000
,
0001
0000
0001
0000
,
1000
0000
0100
0000
,
0001
0000
0100
0000
,
2000
0000
0000
3000
,
0001
0000
0100
0000
,
1000
0000
0100
0000
,
0002
0000
0000
0003
,
0010
0000
0100
0000
,
0020
0000
0000
0030
,
0001
0000
1000
0000
,
0100
0000
0010
0000
,
0001
0000
0100
0000
,
0010
0000
1000
1000
,
1000
0000
1000
0000
,
0001
0000
0001
0000
,
1000
0000
0100
0000
,
0001
0000
0100
0100
,
0100
0000
1000
0000
,
1000
0000
0001
0000
,
0100
0000
0010
0000
,
1000
0000
0001
0001
,
0001
0000
0100
0000
,
0001
0000
1000
0000
,
0001
0000
0000
0000
,
0010
0000
0100
0100
,
0200
0000
0300
0010
,
0100
0000
1000
1000
,
1000
0000
0000
0001
,
1000
0000
0001
0001
,
0001
0000
0000
0100
,
0010
0000
0100
0100
,
0100
0000
0000
1000
,
0001
0000
1000
1000
,
1000
0000
0000
0000
;

//---------------dance-single - ----------------
#NOTES:
     dance-single:
     :
     Medium:
     4:
     :
0000
0000
0000
0000
,
0000
0000
0000
0000
,
0000
0000
0000
0000
,
0000
0000
0000
0000
,
0000
0000
0000
0000
,
1002
0000
1003
0000
,
0210
0000
0310
0000
,
0001
0001
1000
1000
,
0100
0010
0100
1000
,
0001
0010
0001
1000
,
0100
0001
0100
1000
,
0010
0001
0010
1000
,
0100
0010
0001
0100
,
0001
1000
0010
1000
,
0001
0010
1000
0010
,
1001
0000
0000
0000
1000
0000
0001
1000
,
0200
0000
0300
0000
0010
0000
0001
0020
,
0000
0000
0030
0000
0100
0000
1000
0100
,
2000
0000
3000
0000
0001
0000
0010
0002
,
0000
0000
0003
0000
0100
0000
1000
0100
,
2000
0000
0000
0000
3100
0000
0001
0200
,
0000
0300
0010
1000
,
0001
1000
0001
0000
1000
0100
1000
0000
,
0001
0010
1000
0010
,
0001
0100
1000
0100
,
0001
0000
0100
0000
1000
0000
0100
0020
,
0000
0000
0000
0030
,
1000
0100
0001
0100
,
1000
0010
0001
0010
,
1000
0100
1000
0000
0001
0100
0001
0000
,
1000
0100
0010
0011
,
2002
0000
0000
3003
,
1000
0100
0001
0100
,
1000
0010
0001
0010
,
1000
0100
1000
0001
,
0010
0001
1000
0100
,
0001
0100
1000
0010
,
0001
0010
0001
0010
,
1000
0100
0010
0001
,
1000
0100
0010
0001
,
1000
0001
1000
0000
0100
0000
0010
0000
,
0001
1000
0001
0000
0010
0000
0100
0000
,
1000
0001
1000
0000
0100
0000
0010
0000
,
0001
1000
0001
0000
0010
0000
0100
0000
,
1000
0010
0100
0000
0010
0000
1001
0000
,
0001
0100
0010
0000
1000
0000
1010
0000
,
0001
1000
0100
0000
1000
0000
1001
0000
,
1000
0001
0100
0000
0001
0000
0101
0000
,
0200
0000
0000
0000
0300
0000
0010
2000
,
0000
0000
0000
3000
,
0001
0010
1000
0010
,
0001
0100
1000
0100
,
0001
1000
0100
1000
,
0001
0010
0001
1000
,
0100
0010
0100
1000
,
0100
0010
0011
1100
,
1001
0000
0000
0000
;

//---------------dance-single - ----------------
#NOTES:
     dance-single:
     :
     Hard:
     7:
     :
0000
0000
0000
0000
,
0000
0000
0000
0000
,
0000
0000
0000
0000
,
0000
0000
0000
0000
,
0000
0000
0000
0000
,
0001
0100
0001
0000
0100
0000
0000
0000
1000
0100
1000
0000
0100
0000
0000
0000
,
0001
0100
0001
0000
0100
0000
0000
0000
1000
0100
1000
0000
0100
0000
0000
0000
,
1000
0100
0010
0001
0100
0010
0001
0010
,
1000
0100
1000
0001
0100
0001
0010
0100
,
1000
0001
0100
0010
1000
0100
1000
0001
,
0010
0001
0100
1000
0100
0010
1000
0010
,
0100
0001
0100
0001
0010
1000
0010
0001
,
1000
0100
0010
0001
1000
0010
0100
0001
,
1000
0010
1000
0001
0100
0001
0010
0100
,
1000
0001
0100
0010
1000
0010
0100
0000
,
0002
0000
0000
0000
0103
0000
1000
0200
,
0000
0000
0300
0000
0100
0000
0001
2000
,
0000
0000
3000
0000
0100
0000
0001
0100
,
0000
0000
1000
0100
1000
0100
1000
0000
,
0002
0000
0000
0000
0103
0000
1000
0200
,
0000
0000
0300
0000
0100
0000
0001
2000
,
0000
0000
3000
0000
0100
0000
0001
0100
,
0000
0000
1000
0100
1000
0100
1000
0000
,
0002
0010
0000
0010
0000
0010
0000
0010
,
0000
0010
0000
0013
0000
1000
0010
0001
,
0020
1000
0000
1000
0000
1000
0000
1000
,
0000
1000
0000
1030
0000
1000
0010
0001
,
0010
2000
0000
0010
0000
0010
0000
0010
,
0000
0010
0000
3010
0000
0001
0100
0001
,
1000
0010
1000
0000
0001
0010
0001
0000
,
0010
0001
0100
1000
0100
0001
0010
0000
,
2002
0000
0000
3003
,
0011
0000
1010
0000
0001
0100
0000
1000
,
0000
0100
0000
0000
0000
0000
0000
0000
0100
0000
0100
0000
0100
0000
1100
0000
,
0000
0010
0000
0000
0010
0010
0010
0011
,
0000
0100
0000
0001
0100
1000
0100
0000
,
0001
0000
1000
0000
0001
0001
0001
1001
,
0000
0100
0000
0000
0010
0010
0010
0110
,
0000
1000
0000
0000
0100
0001
0100
1000
,
0000
0001
0100
0001
1000
0010
1000
0000
,
0101
0000
1100
0000
1000
0100
1000
0000
,
0001
0100
0001
0000
1000
0100
1000
0000
,
1001
0000
0110
0000
0010
0100
0010
0000
,
0001
1000
0001
0000
0010
0100
0010
0000
,
1100
0000
0101
0000
0001
0100
0001
0000
,
1000
0100
1000
0000
0001
0100
0001
0000
,
0110
0000
1001
0000
1000
0100
1000
0000
,
0001
0100
0001
0010
0100
0010
0100
1000
,
0200
0000
0000
0000
0000
1300
0100
0020
,
0000
0001
0001
0031
,
0200
1000
1000
1000
,
1000
1000
1000
1300
,
0010
1000
0001
1000
0010
0100
0001
0100
,
1000
0100
0001
0010
0001
0010
0100
1000
,
0001
0100
0010
1000
0010
0001
0010
1000
,
0100
0010
0001
1000
0010
0100
0001
1000
,
1001
0000
0000
0000
;

//---------------dance-double - ----------------
#NOTES:
     dance-double:
     :
     Beginner:
     1:
     :
00000000
00000000
00000000
00000000
,
00000000
00000000
00000000
00000000
,
00000000
00000000
00000000
00000000
,
00000000
00000000
00000000
00000000
,
00000000
00000000
00000000
00000000
,
00010000
00000000
00000000
00000000
,
01000000
00000000
00000000
00000000
,
00001000
00000000
00000000
00000000
,
00010000
00000000
00000000
00000000
,
00000100
00000000
00000000
00000000
,
00000100
00000000
00000000
00000000
,
00000010
00000000
00000000
00000000
,
00000001
00000000
00000000
00000000
,
00000100
00000000
00000000
00000000
,
00001000
00000000
00000000
00000000
,
00010000
00000000
00000000
00000000
,
01000000
00000000
00000000
00000000
,
00100000
00000000
00000000
00000000
,
00010000
00000000
00000000
00000000
,
10000000
00000000
00000000
00000000
,
01000000
00000000
00000000
00000000
,
10000000
00000000
00000000
00000000
,
01000000
00000000
00010000
00000000
,
00010000
00000000
00000000
00000000
,
00001000
00000000
00000000
00000000
,
00000100
00000000
00000000
00000000
,
00000100
00000000
00001000
00000000
,
00001000
00000000
00000000
00000000
,
00010000
00000000
00000000
00000000
,
00000100
00000000
00000000
00000000
,
00001000
00000000
00000000
00000000
,
00000010
00000000
00000000
00000000
,
00000100
00000000
00000000
00000000
,
00000001
00000000
00000000
00000000
,
00000100
00000000
00000000
00000000
,
00001000
00000000
00010000
00000000
,
00010000
00000000
00000000
00000000
,
00001000
00000000
00000000
00000000
,
01000000
00000000
00000000
00000000
,
00010000
00000000
10000000
00000000
,
10000000
00000000
00000000
00000000
,
00010000
00000000
00000000
00000000
,
10000000
00000000
00000000
00000000
,
01000000
00000000
00010000
00000000
,
00010000
00000000
00000000
00000000
,
00001000
00000000
00000000
00000000
,
00000010
00000000
00000000
00000000
,
00000001
00000000
00000010
00000000
,
00000010
00000000
00000000
00000000
,
00000100
00000000
00000000
00000000
,
00010000
00000000
00000000
00000000
,
00010000
00000000
00000000
00000000
,
00100000
00000000
00000000
00000000
,
10000000
00000000
00000000
00000000
,
01000000
00000000
00000000
00000000
,
00010000
00000000
00010000
00000000
,
00011000
00000000
00000000
00000000
;

//---------------dance-double - ----------------
#NOTES:
     dance-double:
     :
     Easy:
     3:
     :
00000000
00000000
00000000
00000000
,
00000000
00000000
00000000
00000000
,
00000000
00000000
00000000
00000000
,
00000000
00000000
00000000
00000000
,
00000000
00000000
00000000
00000000
,
00001001
00000000
00000001
00000000
,
00001000
00000000
00000001
00000000
,
00000100
00001000
00000100
00001000
,
00010000
00000000
01000000
00000000
,
10000000
00000000
00100000
00000000
,
00010000
00000000
00100000
00000000
,
10000000
01000000
10000000
01000000
,
00010000
00000000
00001000
00000000
,
00010000
00000000
00001000
00000000
,
00000100
00000000
00000010
00000000
,
00001000
00000001
00001000
00000001
,
00000010
00000100
00000010
00000100
,
00002000
00000000
00000000
00003000
,
00000020
00000000
00000000
00000030
,
00000100
00001000
00000100
00001000
,
00010000
01000000
00010000
01000000
,
20000000
00000000
00000000
30000000
,
00200000
00000000
00000000
00300000
,
10000000
01000000
10000000
01000000
,
00010000
00001000
00010000
00001000
,
00000100
00000001
00000100
00000001
,
00000020
00000000
00000000
00000030
,
00000001
00000100
00000001
00000100
,
00001000
00010000
00001000
00010000
,
02000000
00000000
00000000
03000000
,
00010000
00000000
00001000
00000000
,
00011000
00000000
00000000
00000000
,
01000000
10000000
01000000
00000000
,
10000000
00100000
10000000
00000000
,
01000000
00010000
01000000
00000000
,
00010000
00001000
00010000
00001000
,
00000100
00000001
00000100
00000000
,
00000001
00000010
00000001
00000000
,
00000100
00001000
00000100
00000000
,
00001000
00010000
00001000
00010000
,
01000000
00000000
01000000
10000000
,
00100000
00000000
10000000
01000000
,
00010000
00000000
00010000
00001000
,
00010000
00000000
00001000
00000100
,
00000001
00000000
00000100
00000001
,
00000010
00000000
00000001
00000100
,
00001000
00000000
00010000
00001000
,
00010000
00000000
00010000
01000000
,
20000000
00000000
00000000
30000000
,
00010000
00000000
10000000
01000000
,
10000000
00000000
01000000
00000000
,
00010000
00000000
00001000
00010000
,
00001000
00000000
00000100
00000000
,
00000001
00000000
00000010
00000001
,
00000010
00000000
00000001
00000000
,
00000100
00000000
00001000
00010000
,
00011000
00000000
00000000
00000000
;

//---------------dance-double - ----------------
#NOTES:
     dance-double:
     :
     Medium:
     5:
     :
00000000
00000000
00000000
00000000
,
00000000
00000000
00000000
00000000
,
00000000
00000000
00000000
00000000
,
00000000
00000000
00000000
00000000
,
00000000
00000000
00000000
00000000
,
00011000
00000000
00001100
00000000
,
00011000
00000000
01010000
00000000
,
10000000
10000000
01000000
01000000
,
00100000
00100000
00010000
00010000
,
00010000
10000000
01000000
00010000
,
00001000
00001000
00000100
00000100
,
00000001
00000001
00000010
00000010
,
00000010
00000001
00000100
00001000
,
00010000
00010000
00010000
00011000
,
01000000
01000000
01000000
01010000
,
10000000
00000000
00010000
00010000
,
10000000
00000000
00100000
00000000
00100000
10000000
00000000
01000000
,
00000000
00000000
00010000
00010000
,
00001000
00000000
00000100
00000000
00000100
00000001
00000000
00001000
,
00000000
00000000
00000001
00000001
,
00001000
00000000
00000010
00000000
00000010
00001000
00000000
00000100
,
00000000
00000100
00000100
00001001
,
00000000
00000000
00001000
00000001
00001000
00000001
00001000
00000000
,
00000001
00000000
00000001
00000000
00000100
00001000
00000000
00001000
,
00000000
00010000
00000000
00010000
00000000
01000000
00000000
01000000
,
00000000
10000000
00000000
10000000
00000000
00100000
00000000
00200000
,
00000000
00000000
00000000
00300000
,
10010000
00000000
00000000
00000000
00010000
00000000
10000000
01000000
,
00000000
00010000
00000000
00000000
00010000
01000000
00000000
20000000
,
00000000
30000000
02000000
03000000
,
00010000
00010000
00001000
00001000
,
00022000
00000000
00000000
00033000
,
00000100
00000000
00000100
00000000
00000001
00000010
00000000
00000001
,
00000000
00001000
00000000
00000000
00000100
00000010
00000000
00000010
,
00000000
00000000
00000000
00000000
00001000
00010000
00000000
00001000
,
00000000
00010000
00000000
00000000
01000000
10000000
00000000
00100000
,
00000000
00000000
00000000
00000000
00100000
10000000
00000000
01000000
,
00000000
10000000
00000000
00000000
01000000
00010000
00000000
01000000
,
00000000
00000000
00000000
00000000
10000000
00100000
00000000
10000000
,
00000000
01000000
00000000
00000000
10000000
01000000
10000000
00000000
,
00010000
01000000
00010000
00000000
10000000
00000000
10000000
00000000
,
01000000
01000000
00010000
00010000
,
00001000
00010000
00001000
00000000
00000100
00000000
00000100
00000000
,
00000001
00000001
00000010
00000010
,
00000001
00001000
00000001
00000000
00000100
00000000
00000100
00000000
,
00001000
00001000
00010000
00010000
,
01000000
10000000
01000000
00000000
10000000
00000000
00100000
10000000
,
00000000
00100000
00000000
01000000
00010000
01000000
00010000
00000000
,
00020000
00000000
00000000
00000000
00000000
10030000
01000000
20000000
,
00000000
00000000
00000000
30000000
,
01000000
00010000
01000000
00000000
00010000
00000000
00010000
00000000
,
00001000
00001000
00000100
00000100
,
00000001
00001000
00000001
00000000
00000010
00000000
00000010
00000000
,
00000001
00000001
00000100
00000100
,
00001000
00010000
00001000
00000000
00010000
00000000
00010000
00000000
,
01000000
01000000
10000000
10000000
,
10010000
00000000
00000000
00000000
;

//---------------dance-double - ----------------
#NOTES:
     dance-double:
     :
     Hard:
     7:
     :
00000000
00000000
00000000
00000000
,
00000000
00000000
00000000
00000000
,
00000000
00000000
00000000
00000000
,
00000000
00000000
00000000
00000000
,
00000000
00000000
00000000
00000000
,
00100000
10000000
01000000
00000000
00100000
10000000
00100000
00000000
,
10000000
01000000
00010000
00000000
01000000
00010000
01000000
00000000
,
00010000
00000000
00001000
00000000
00001000
00010000
00001000
00000100
,
00000100
00000000
00000001
00000000
00000001
00000010
00000001
00001000
,
00001000
00000000
00000100
00000000
00000010
00000001
00000010
00000001
,
00000001
00000000
00000100
00000000
00001001
00000100
00001001
00000000
,
00001000
00000000
00000010
00000000
00010000
00001000
00010000
01000000
,
01000000
00000000
10000000
00000000
00100000
10000000
00100000
01000000
,
01000000
00000000
00010000
00000000
10000000
00010000
10000000
00100000
,
00100000
00000000
01000000
00000000
00001000
00010000
00001000
00000100
,
00000100
00000002
00002003
00003200
,
00020300
00000000
00032000
00000000
00013000
00001000
00000000
00000100
,
00000000
00000002
00002003
00003002
,
00000023
00000000
00000032
00000000
00001003
00000010
00000100
00000000
,
00000002
00000203
00002300
00023000
,
02030000
00000000
23000000
00000000
31000000
10000000
00100000
10000000
,
01000000
00010000
01000000
00000000
00010000
01000000
00010000
00000000
,
01000000
10000000
01000000
00000000
00010000
01000000
00010000
00000000
,
00001000
00010000
00001000
01000000
00010000
01000000
00100000
10000000
,
00100000
01000000
00010000
01000000
00001000
00010000
00001000
00000100
,
00000002
00002003
00003020
00000230
,
00000320
00000000
00000000
00000030
,
00010000
00001000
00010000
00000100
00001000
00000100
00000010
00000001
,
00000010
00000100
00001000
00000100
00010000
00001000
00010000
00000000
,
00001000
00000100
00001000
00000000
00000100
00000001
00000100
00000000
,
00000010
00001000
00000001
00000100
00001000
00010000
01000000
10000000
,
00200000
00000000
00000000
00300000
,
10000000
00010000
10000000
00000000
00010000
10000000
00010000
00000000
,
10000000
01000000
00010000
01000000
10000000
01000000
00010000
00000000
,
00010000
00001000
00010000
00000000
00001000
00010000
00001000
00000000
,
00000100
00001000
00010000
01000000
00010000
00001000
00000100
00000000
,
00000001
00001000
00000001
00000000
00001000
00000001
00001000
00000000
,
00000001
00000100
00001000
00000100
00000001
00000100
00001000
00000000
,
00001000
00010000
00001000
00000000
00010000
00001000
00010000
00000000
,
01000000
00010000
00001000
00000100
00001000
00010000
01000000
00000000
,
00010000
00001000
00000010
00000001
,
00001001
00000101
00001001
00001100
,
00000001
00000010
00001000
00010000
,
00011000
00101000
00110000
10010000
,
10000000
01000000
00010000
01000000
10000000
01000000
00010000
00000000
,
00001000
00010000
01000000
00010000
00001000
00010000
01000000
00000000
,
00010000
00001000
00010000
00000000
00001000
00000100
00001000
00000000
,
00000100
00001000
00010000
00001000
00000100
00001000
00010000
00001000
,
00000200
00000000
00000000
00000000
00000000
00001300
00000100
00000002
,
00000000
00000000
00000000
00000003
,
00000010
00000001
00000100
00000000
00000010
00000001
00000010
00000000
,
00000010
00000001
00001000
00000001
00000100
00001000
00010000
01000000
,
10000000
00010000
10000000
00000000
00010000
01000000
00010000
00000000
,
10000000
01000000
10000000
00000000
01000000
00010000
01000000
00000000
,
10000000
00010000
10000000
00100000
10000000
01000000
00010000
01000000
,
00010000
00001000
00000100
00001000
00000100
00000001
00000010
00000100
,
00001001
00000000
00000000
00000000
;
