#TITLE:Hey Mama;
#ARTIST:Black Eyed Peas;
#BANNER:Hey Mama.png;
#BACKGROUND:Hey Mama-bg.png;
#CDTITLE:./CDTITLES/DANCE DANCE REVOLUTION ULTRAMIX 3.png;
#MUSIC:Hey Mama.ogg;
#SAMPLESTART:69.15;
#SAMPLELENGTH:15;
#DISPLAYBPM:0:100;
#BPMS:0=100.08,28=100,59=100.26,112=99.8,128=100.2;
#STOPS:128=1.223;

//---------------dance-single - ----------------
#NOTES:
     dance-single:
     :
     Beginner:
     1:
     :
0000
0000
0000
0000
,
0000
0000
0000
0000
,
0000
0000
0000
0000
,
1000
0000
0000
0000
,
0001
0000
0000
0000
,
1000
0000
0000
0000
,
2000
0000
0000
3000
,
1000
0000
0001
0000
,
0001
0000
1000
0000
,
0010
0000
0010
0000
,
0100
0000
0100
0000
,
0001
0000
1000
0000
,
1000
0000
0001
0000
,
0010
0000
0010
0000
,
0100
0000
0000
0000
,
0100
0000
0100
0000
,
0010
0000
0010
0000
,
0001
0000
0001
0000
,
1000
0000
0000
0000
,
0001
0000
1000
0000
,
1000
0000
0000
0000
,
0001
0001
0000
0000
,
1000
1000
0000
0000
,
0100
0000
0100
0000
,
1000
0000
1000
0000
,
0001
0001
0000
0000
,
1000
1000
0000
0000
,
0010
0000
0100
0000
,
0010
0000
0000
0000
,
1000
0000
1000
0000
,
1000
0000
0001
0000
,
0001
0000
0001
0000
,
0010
0000
0001
0000
,
0001
0000
1000
0000
,
1000
0000
0001
0000
,
0002
0000
0000
0003
,
0001
0000
1000
0000
,
0001
0000
1000
0000
;

//---------------dance-single - ----------------
#NOTES:
     dance-single:
     :
     Easy:
     2:
     :
0000
0000
0000
0000
,
0000
0000
0000
0000
,
0000
0000
0000
0000
,
0001
0000
0000
0000
,
1000
0000
0000
0000
,
0001
0000
1000
0000
,
2002
0000
0000
3003
,
1000
0000
1000
0000
,
0001
0001
0001
0000
,
0010
0000
0010
0000
,
0100
0100
0100
0000
,
0001
0000
0001
0000
,
1000
1000
1000
0000
,
1000
0000
0001
0000
,
0200
0000
0000
0300
,
0010
0000
0010
0000
,
0100
0000
0100
0000
,
0001
0000
0001
0000
,
1000
0000
0100
0100
,
0100
0000
0010
0010
,
0010
0000
0100
0000
,
0010
0000
0010
0000
,
0001
0000
0001
0000
,
1000
0000
1000
0000
,
0100
0000
0100
0000
,
0010
0000
0010
0000
,
0001
0000
0001
0000
,
1000
0000
1000
0000
,
0010
0000
0100
0000
,
1001
0001
0000
0000
,
1001
1000
0000
0000
,
1001
0001
0000
0000
,
1001
1000
0001
1000
,
0000
0001
1000
0001
,
0000
1000
0001
1000
,
0020
0000
0000
0030
,
0100
0010
0100
0010
,
1000
0001
1000
0001
;

//---------------dance-single - ----------------
#NOTES:
     dance-single:
     :
     Medium:
     4:
     :
0000
0000
0000
0000
,
0000
0000
0000
0000
,
0000
0000
0000
0000
,
1000
0000
1000
0000
,
0100
0100
0100
0100
,
0001
0010
1000
0100
,
2002
0000
0000
3003
,
0001
0100
0001
0100
,
0010
1000
0010
1000
,
0100
1000
0100
1000
,
0001
0010
0001
0010
,
0001
1000
0001
1000
,
0001
0100
0001
1000
,
1000
0010
0001
0100
,
2000
0000
0000
3000
,
0100
0010
0001
0011
,
0100
0010
1000
1010
,
0010
0000
1000
0000
0001
1000
0001
0000
,
1000
0200
0000
0000
1000
0000
0001
0000
,
1300
0020
0000
0000
1000
0000
0001
0000
,
1030
0010
1000
0000
0001
0100
0001
0000
,
1001
0000
1001
0000
,
1010
0000
1010
0000
,
0010
1000
0001
0100
,
0001
0100
0001
0000
1000
0010
1000
0000
,
1001
0000
1001
0000
,
0011
0000
0011
0000
,
1000
0001
1000
0000
0001
1000
0001
0000
,
2002
3003
0220
0330
,
0010
0000
0100
0000
0010
0000
0000
0001
,
1000
0000
0001
1000
0001
0000
0000
0001
,
1000
0000
0010
0000
0100
0000
0000
0001
,
1000
0001
1000
0001
,
1001
0001
0010
0001
,
1000
0100
1000
0010
,
0200
0000
0000
0300
,
0010
0100
0001
0100
,
1000
0100
0001
0010
;

//---------------dance-single - ----------------
#NOTES:
     dance-single:
     :
     Hard:
     7:
     :
0000
0000
0000
0000
,
0000
0000
0000
0000
,
0000
0000
0000
0000
,
0000
0000
0000
0000
0000
0000
1000
0000
1000
0000
0000
0001
0000
0000
0100
0000
,
0020
0000
0000
0030
,
1001
0000
0000
0000
0001
0000
0000
0000
1000
0000
0000
0001
0000
0000
1000
0000
,
0002
0000
0000
0003
,
1000
0000
0000
0000
0001
0000
0000
0000
1000
0000
0000
0010
0000
0000
1000
0000
,
0100
0010
0001
1000
,
0001
0000
0000
0000
0100
0000
0000
0000
0001
0000
0000
0010
0000
0000
0100
0000
,
1000
0000
0000
0000
0100
0000
0010
0000
0100
0000
0000
1000
0000
0000
0010
0000
,
0100
0000
0000
0000
0001
0000
0000
0000
1000
0000
0000
0100
0000
0000
0010
0000
,
0001
0100
0010
0100
,
0001
0000
0000
0000
1000
0000
0000
0000
0100
0000
0000
0010
0000
0000
0001
0000
,
2000
0000
0000
3000
,
0001
0100
0001
0000
1000
0100
1000
0000
,
0001
0010
0001
0000
1000
0010
1000
0000
,
0010
0010
0010
0000
0100
0100
0100
0000
,
0001
2000
0000
0000
0001
0000
0010
0000
,
3001
0200
0000
0000
0010
0000
1000
0000
,
0310
2000
0000
0000
3002
0000
0003
0000
,
0010
0000
0000
0000
1000
0000
0000
0000
0100
0000
0000
1000
0000
0000
0001
0000
,
0100
0000
0000
0000
0001
0000
0000
0000
1000
0000
0000
0010
0000
0000
0100
0000
,
0001
0000
1000
0000
0000
0100
0000
0000
0010
0000
0100
0000
0000
1000
0000
0000
,
0001
0000
0010
0000
0000
0100
0000
0000
1000
0000
0001
0000
0000
1000
0000
0000
,
0001
0000
0000
0000
0100
0000
0000
0000
0010
0000
0000
0100
0000
0000
1000
0000
,
0010
0000
0000
0000
1000
0000
0000
0000
0010
0000
0000
0001
0000
0000
0100
0000
,
1000
0000
0000
0000
0100
0000
0000
0000
0010
0000
0001
0000
1000
0100
0000
0000
,
0000
0001
0100
0001
0100
0001
0000
0000
0000
1000
0100
1000
0100
1000
0000
0000
,
0100
0000
0000
0000
1000
0000
0000
0000
0100
0000
0000
1000
0000
0000
0100
0000
,
0010
0000
0000
0000
0001
0000
0100
0000
0001
0000
0000
0010
0000
0000
0100
0000
,
0010
0000
0000
0000
1000
0000
0000
0000
0100
0000
0000
0001
0000
0000
1000
0000
,
0010
0000
0000
0000
0001
0000
0000
0000
1000
0000
0000
0001
0000
1000
0100
0000
,
0100
0000
1000
0000
0010
0000
0010
0000
1000
0000
0010
0100
0000
0100
0001
0000
,
0100
0000
0001
0000
0001
0000
0010
0000
0100
0000
1000
0001
0000
0001
0000
1000
,
0010
0000
0000
0000
0000
0000
0000
0000
0000
0000
0001
0100
0001
0100
0001
0000
,
0010
0000
0100
0010
0100
0010
0100
0000
1000
0000
0010
1000
0010
1000
0010
0000
,
0100
0000
0001
1000
0001
1000
0001
0000
0100
0000
0010
0100
0010
0100
0010
0000
;

//---------------dance-double - ----------------
#NOTES:
     dance-double:
     :
     Beginner:
     1:
     :
00000000
00000000
00000000
00000000
,
00000000
00000000
00000000
00000000
,
00000000
00000000
00000000
00000000
,
10000000
00000000
00000000
00000000
,
00010000
00000000
00000000
00000000
,
10000000
00000000
00000000
00000000
,
02000000
00000000
00000000
03000000
,
01000000
00000000
00100000
00000000
,
00100000
00000000
00010000
00000000
,
10000000
00000000
10000000
00000000
,
01000000
00000000
01000000
00000000
,
00010000
00000000
00010000
00000000
,
00001000
00000000
00001000
00000000
,
00010000
00000000
00010000
00000000
,
00001000
00000000
00000000
00000000
,
00000100
00000000
00000100
00000000
,
00000010
00000000
00000010
00000000
,
00001000
00000000
00000000
00000000
,
00000001
00000000
00000000
00001000
,
00001000
00000000
00000001
00000000
,
00000001
00000000
00000000
00000000
,
00001000
00001000
00000000
00000000
,
00000001
00000001
00000000
00000000
,
00000100
00000000
00000100
00000000
,
00001000
00000000
00001000
00000000
,
00010000
00010000
00000000
00000000
,
00001000
00001000
00000000
00000000
,
00010000
00000000
01000000
00000000
,
10000000
00000000
00000000
00000000
,
00010000
00000000
00010000
00000000
,
10000000
00000000
10000000
00000000
,
00100000
00000000
00100000
00000000
,
10000000
00000000
01000000
00000000
,
01000000
00000000
00010000
00000000
,
00010000
00000000
00001000
00000000
,
00001000
00000000
00000000
00000000
,
00010000
00000000
00010000
00000000
,
00001000
00000000
00001000
00000000
;

//---------------dance-double - ----------------
#NOTES:
     dance-double:
     :
     Easy:
     2:
     :
00000000
00000000
00000000
00000000
,
00000000
00000000
00000000
00000000
,
00000000
00000000
10000000
00000000
,
00000000
00000000
00000000
00000000
,
01000000
00000000
00010000
00000000
,
00022000
00000000
00000000
00033000
,
00001000
00000000
00001000
00000000
,
00000100
00000100
00000000
00000000
,
00000001
00000000
00000001
00000000
,
00000100
00000100
00000100
00000000
,
00001000
00000000
00001000
00000000
,
00010000
00000000
00001000
00001000
,
00001000
00000000
01000000
00000000
,
01000000
00000000
00000000
00000000
,
00100000
00000000
00100000
00000000
,
01000000
00000000
00000000
00000000
,
00010000
00000000
10000000
00000000
,
01000000
00000000
00010000
00010000
,
00010000
00000000
00001000
00001000
,
00001000
00000000
00010000
00000000
,
00000100
00000000
00000100
00000000
,
00000010
00000000
00000100
00000000
,
00001000
00000000
00001000
00000000
,
00000001
00000000
00000001
00000000
,
00000100
00000000
00000100
00000000
,
00001000
00000000
00001000
00000000
,
00010000
00000000
00010000
00000000
,
01000000
00000000
10000000
00000000
,
10010000
00000000
00010000
00000000
,
00011000
00001000
00000000
00000000
,
00011000
00010000
00000000
00000000
,
00011000
00001000
00000000
00000000
,
00011000
00100000
01000000
00100000
,
00000000
01000000
00100000
01000000
,
00000000
00001000
00010000
00001000
,
00020000
00000000
00000000
00030000
,
00000100
00000010
00000100
00000010
,
00000001
00001000
00000001
00001000
;

//---------------dance-double - ----------------
#NOTES:
     dance-double:
     :
     Medium:
     5:
     :
00000000
00000000
00000000
00000000
,
00000000
00000000
00000000
00000000
,
00000000
00000000
00000000
00000000
,
00010000
10000000
01000000
00010000
,
00001000
00001000
00001000
00001000
,
00010000
00001000
00000100
00000001
,
00002002
00000000
00000000
00003003
,
00000001
00000100
00000001
00001000
,
00000100
00010000
00000100
00001000
,
00000010
00010000
00001000
00100000
,
00001000
00100000
00010000
10000000
,
00100000
10000000
00010000
01000000
,
00001000
01000000
00010000
10000000
,
01000000
00010000
00001000
00010000
,
00002000
00000000
00000000
00003000
,
00010000
00001000
00000010
00000011
,
00000001
00000100
00001000
00011000
,
00001000
00000000
01000000
00000000
00001000
00010000
00001000
00000000
,
00021000
00000000
00100000
00031000
,
00010000
00002000
00000000
00000000
00000010
00000000
00013000
00000000
,
00010000
01000000
10000000
00000000
00010000
01000000
00100000
00000000
,
10010000
00000000
10010000
00000000
,
11000000
00000000
11000000
00000000
,
01000000
00010000
00001000
00000100
,
00000010
00000001
00000010
00000000
00000100
00001000
00000100
00000000
,
00001001
00000000
00001001
00000000
,
00000101
00000000
00000101
00000000
,
00000001
00000100
00001000
00000000
00010000
00001000
00010000
00000000
,
00011000
00000000
01100000
00000000
,
00100000
00000000
00000000
00000000
01000000
00000000
00000000
00000000
00010000
00000000
00000000
10000000
00000000
00000000
01000000
00000000
,
00010000
00000000
00000000
00000000
00001000
00000000
00010000
00000000
00001000
00000000
00000000
00000100
00000000
00000000
00000001
00000000
,
00001000
00000000
00000000
00000000
00000010
00000000
00000000
00000000
00000100
00000000
00000000
00000001
00000000
00000000
00000100
00000000
,
00001000
00010000
00001000
01000000
,
00010000
01000000
00100000
10000000
,
01000000
00010000
00001000
00000100
,
00000020
00000000
00000000
00000030
,
00000001
00000100
00000001
00000100
,
00001000
00010000
00001000
00010000
;

//---------------dance-double - ----------------
#NOTES:
     dance-double:
     :
     Hard:
     7:
     :
00000000
00000000
00000000
00000000
,
00000000
00000000
00000000
00000000
,
00000000
00000000
00000000
00000000
,
00000000
00000000
00000000
00000000
00000000
00000000
00010000
00000000
10000000
00000000
00000000
00100000
00000000
00000000
00010000
00000000
,
00002000
00000000
00000000
00003000
,
00010000
00000000
00000000
00000000
00000010
00000000
00000000
00000000
00001000
00000000
00000000
00000001
00000000
00000000
00000100
00000000
,
00000020
00000000
00000000
00000030
,
00000100
00000000
00000000
00000000
00000001
00000000
00000000
00000000
00001000
00000000
00000000
00000100
00000000
00000000
00010000
00000000
,
00001000
01000000
00010000
10000000
,
00100000
00000000
00000000
00000000
10000000
00000000
00000000
00000000
00010000
00000000
00000000
00100000
00000000
00000000
00001000
00000000
,
00010000
00000000
00000000
00000000
00000010
00000000
00001000
00000000
00000001
00000000
00000000
00000100
00000000
00000000
00000001
00000000
,
00001000
00000000
00000000
00000000
00000100
00000000
00000000
00000000
00010000
00000000
00000000
00001000
00000000
00000000
01000000
00000000
,
00010000
10000000
00100000
01000000
,
00010000
00000000
00000000
00000000
00100000
00000000
00000000
00000000
00001000
00000000
00000000
00010000
00000000
00000000
00001000
00000000
,
00020000
00000000
00000000
00030000
,
00001000
00010000
00001000
00000000
00100000
00010000
00100000
00000000
,
00001000
00010000
00001000
00000000
00000010
00001000
00000010
00000000
,
00000001
00000001
00000001
00000000
00001000
00001000
00001000
00000000
,
00010000
00002000
00000000
00000000
00010000
00000000
01000000
00000000
,
00013000
00020000
00000000
00000000
00000100
00000000
00001000
00000000
,
00030100
00020000
00000000
00000000
00032000
00000000
00003000
00000000
,
01000000
00000000
00000000
00000000
00010000
00000000
00000000
00000000
10000000
00000000
00000000
00100000
00000000
00000000
01000000
00000000
,
00010000
00000000
00000000
00000000
00100000
00000000
00000000
00000000
00001000
00000000
00000000
00010000
00000000
00000000
00000010
00000000
,
00001000
00000000
00000001
00000000
00000000
00000100
00000000
00000000
00000001
00000000
00001000
00000000
00000000
00000001
00000000
00000000
,
00000010
00000000
00000001
00000000
00000000
00001000
00000000
00000000
00000100
00000000
00010000
00000000
00000000
00001000
00000000
00000000
,
01000000
00000000
00000000
00000000
00010000
00000000
00000000
00000000
10000000
00000000
00000000
01000000
00000000
00000000
00010000
00000000
,
00001000
00000000
00000000
00000000
00000100
00000000
00000000
00000000
00000001
00000000
00000000
00000010
00000000
00000000
00001000
00000000
,
00010000
00000000
00000000
00000000
00001000
00000000
00000000
00000000
00000100
00000000
00000001
00000000
00001000
00000100
00000000
00000000
,
00000000
00010000
00001000
00010000
00001000
00010000
00000000
00000000
00000000
00001000
00010000
00001000
00010000
00001000
00000000
00000000
,
00011000
00000000
00000000
00000000
00010000
00000000
00000000
00000000
01000000
00000000
00000000
10000000
00000000
00000000
00010000
00000000
,
10000000
00000000
00000000
00000000
01000000
00000000
00010000
00000000
00001000
00000000
00000000
00000100
00000000
00000000
00000001
00000000
,
00001001
00000000
00000000
00000000
00000001
00000000
00000000
00000000
00000010
00000000
00000000
00001000
00000000
00000000
00010000
00000000
,
00001000
00000000
00000000
00000000
10000000
00000000
00000000
00000000
01000000
00000000
00000000
00100000
00000000
00010000
10000000
00000000
,
10000000
00000000
01000000
00000000
00010000
00000000
00010000
00000000
00001000
00000000
00000100
00000001
00000000
00000001
00000010
00000000
,
00000001
00000000
00001000
00000000
00001000
00000000
00000001
00000000
00000100
00000000
00000010
00010000
00000000
00010000
00000000
00001000
,
00010000
00000000
00000000
00000000
00000000
00000000
00000000
00000000
00000000
00000000
00100000
10000000
00100000
10000000
00100000
00000000
,
10000000
00000000
00010000
01000000
00010000
01000000
00010000
00000000
00100000
00000000
00001000
00010000
00001000
00010000
00001000
00000000
,
00010000
00000000
00000100
00001000
00000100
00001000
00000100
00000000
00000010
00000000
00000001
00000010
00000001
00000010
00000001
00000000
;
