#TITLE:Hateful;
#ARTIST:The Clash;
#BANNER:Hateful.png;
#BACKGROUND:Hateful-bg.png;
#CDTITLE:./CDTITLES/DANCE DANCE REVOLUTION ULTRAMIX 3.png;
#MUSIC:Hateful.ogg;
#SAMPLESTART:18.6;
#SAMPLELENGTH:15;
#DISPLAYBPM:115;
#BPMS:0=115.8,35=116.4,44=115.5,63=116,68=112.48,92=113.3,96=115,99=118,100=120,101=122,102=120,103=113.6,120=113.9,132=115.2,135=112.8,142=112.3,152=111.5,164=110.6,172=110;

//---------------dance-single - ----------------
#NOTES:
     dance-single:
     :
     Beginner:
     1:
     :
0000
0000
0000
0000
,
0000
0000
0000
0000
,
0000
0000
0000
0000
,
0000
0000
0000
0000
,
0000
0000
0000
0000
,
0001
0000
0000
0000
,
1000
0000
0000
0000
,
0001
0000
0000
0000
,
0000
0000
0000
0000
,
0010
0000
0000
0000
,
0100
0000
0000
0000
,
1000
0000
0000
0000
,
1000
0000
0000
0000
,
0001
0000
0000
0000
,
0001
0000
0000
0000
,
0010
0000
0000
0000
,
0010
0000
0000
0000
,
0001
0000
0001
0000
,
1000
0000
1000
0000
,
0010
0000
0010
0000
,
1000
0000
1000
0000
,
0001
0000
0000
0000
,
0001
0000
0000
0000
,
1000
0000
0000
0000
,
2000
0000
0000
3000
,
1000
0000
0000
0000
,
0010
0000
0100
0000
,
0100
0000
0001
0000
,
0001
0000
0010
0000
,
0010
0000
0100
0000
,
0100
0000
1000
0000
,
1000
0000
0010
0000
,
1000
0000
0001
0000
,
0100
0000
0001
0000
,
1000
0000
0001
0000
,
1000
0000
0010
0000
,
0100
0000
0010
0000
,
1000
0000
1000
0000
,
0010
0000
0010
0000
,
0100
0000
0100
0000
,
0001
0000
0001
0000
,
1000
0000
0010
0000
,
0100
0000
0001
0000
,
0100
0000
0001
0001
;

//---------------dance-single - ----------------
#NOTES:
     dance-single:
     :
     Easy:
     3:
     :
0000
0000
0000
0000
,
0000
0000
0000
0000
,
0000
0000
0000
0000
,
0000
0000
0000
0000
,
0000
0000
0000
0000
,
1000
0000
1000
0000
,
0001
0001
0000
0000
,
0100
0000
0100
0000
,
0010
0010
0000
0100
,
0100
0001
0100
0000
,
0100
0001
1000
0100
,
2000
0000
0000
3000
,
1000
0000
1000
0000
,
0010
1000
0010
0000
,
1000
0001
0000
0100
,
0010
1000
0010
0100
,
0000
0100
0000
0100
,
0002
0000
0003
1000
,
0020
0030
1000
1000
,
0200
0000
0300
0010
,
0020
0030
0001
1000
,
1001
0000
0001
1000
,
0100
1000
0001
0100
,
0200
0000
0300
0001
,
0200
0000
0000
0300
,
0001
0100
0010
1000
,
1000
0002
0003
1000
,
0010
0200
0300
0001
,
1000
1000
0001
0001
,
1000
0100
0001
0010
,
1000
0001
0100
0010
,
2000
0000
3000
0001
,
1000
1000
0010
1000
,
0002
0000
0003
1001
,
1000
0001
0100
0000
,
0100
0001
0020
0030
,
0001
1000
0100
0000
,
1000
0010
0100
0001
,
2000
3000
0001
1000
,
0002
0003
0010
0100
,
1000
0001
1000
0001
,
2000
3000
0010
0100
,
0002
0003
0010
0100
,
2000
3000
0001
1001
;

//---------------dance-single - ----------------
#NOTES:
     dance-single:
     :
     Medium:
     5:
     :
0000
0000
0000
0000
,
0000
0000
0000
0000
,
0000
0000
0000
0000
,
0000
0000
0000
0000
,
0000
0000
0000
0000
,
0000
1000
0000
1000
0000
0001
0100
0000
,
0000
0010
0000
0010
0000
1000
0100
0000
,
0000
0001
0000
0001
0000
1000
0010
0000
,
0000
0100
0000
0100
0000
0001
1000
0000
,
1000
0100
1000
0000
0000
0010
0100
0000
,
0001
1000
1000
0000
0000
0001
0100
0000
,
0001
1000
0010
0000
0000
0100
0001
0000
,
0010
0001
0100
0000
0000
0001
0010
0000
,
0100
1000
0001
0100
0000
0010
0100
0000
,
0001
0010
0001
1000
0000
0100
1000
0000
,
0010
0100
0010
1000
0000
1000
0100
0000
,
1000
0100
1000
0010
0000
0100
0100
0000
,
0001
0010
0001
0100
0010
0000
0000
0000
,
1000
0001
0100
0010
1000
0000
0000
0000
,
1000
0001
1000
0001
1000
0000
0000
0000
,
0010
0100
0010
0100
0010
0000
0000
0000
,
1000
0002
0000
0000
0000
0000
0003
0000
,
0020
0000
0000
0130
,
0100
0200
0000
0000
0300
0000
1000
0001
,
1000
0020
0000
0000
0000
0000
0030
0000
,
1000
0100
0010
0001
,
1000
0010
0100
0010
1000
0000
0000
0100
,
1000
0001
2000
0000
0000
0000
3000
0001
,
0100
0001
0020
0000
0000
0000
0030
0000
,
0100
1000
0200
0000
0000
0000
0300
0000
,
1000
0010
1000
0001
2000
0000
0000
0000
,
3001
0100
0002
0000
0000
0000
0003
0000
,
1000
0001
0200
0000
0000
0000
0300
0000
,
2002
0000
0000
3003
,
1000
0100
0010
0010
0001
0000
0000
0000
,
0001
0001
1000
0100
1000
0000
0001
0000
,
0100
0010
0100
0010
1000
0000
0000
0000
,
1000
0001
0100
0100
0010
0000
1000
0000
,
0100
0010
0100
1000
0001
0000
0000
0000
,
0010
0100
1000
0010
0100
0000
0100
0000
,
0001
1000
1000
0010
0100
0000
0001
0000
,
0010
0100
1000
0001
1000
0000
0010
0000
,
0100
0010
1000
0001
0010
0000
0100
0000
,
1000
0100
1000
0010
1000
0001
1001
0000
;

//---------------dance-single - ----------------
#NOTES:
     dance-single:
     :
     Hard:
     6:
     :
0000
0000
0000
0000
,
0000
0000
0000
0000
,
0000
0000
0000
0000
,
0000
0000
0000
0000
,
0000
0000
0000
0000
,
0001
0000
1000
0000
0001
1000
0002
0000
0000
0000
0103
0000
0101
0000
0000
0000
,
0010
0000
1000
0000
0001
0100
0010
0000
0000
0000
0010
0000
1000
0000
0100
0000
,
1000
0000
0001
0000
1000
0100
2000
0000
0000
0000
3001
0000
0011
0000
0000
0000
,
0200
1000
0000
1000
0300
1000
0020
0000
,
0000
0130
0000
0001
0000
1000
0001
0000
,
0200
0010
0000
0001
0000
0010
0310
0000
,
0001
1000
0000
0100
0000
0010
0001
0001
,
0001
0100
0000
0010
0000
1000
0002
0000
,
0000
1003
0000
0001
0000
1000
0100
0000
,
0000
1100
0000
0101
0000
0010
1000
0000
,
0001
0100
0000
0010
0000
0010
1000
0000
,
1010
0000
1010
0000
0100
0100
0100
0000
,
0002
0023
0230
2300
3002
0000
1003
0000
,
0020
0000
2030
0000
3002
0000
0023
0000
0230
0000
1300
0001
0000
0000
1000
0000
,
0002
0023
0230
2300
3001
0000
0101
0000
,
2000
3020
0230
0302
1000
1000
1003
0000
,
0001
0000
0010
0000
0001
1000
0001
0000
0000
0000
0100
0000
0010
0000
1000
0000
,
0000
0001
0000
1000
0000
0100
0010
0000
,
0001
0000
1000
0000
0010
1000
0200
0000
0000
0000
0300
0000
1000
0000
0010
0000
,
1000
0000
0001
0000
1000
0001
0200
0000
0000
0000
0300
0000
0001
0000
0100
0000
,
2000
3200
0320
0032
0023
0230
2300
3200
,
0001
0001
0001
0001
0000
0010
0310
0000
,
1000
0001
0000
0100
0000
0010
1000
0010
,
0001
0010
1000
0200
0000
0010
0310
0000
,
0001
0100
1000
0100
0001
0010
0200
0000
,
1300
0100
1000
0100
0020
0000
0000
0130
,
0100
0100
0000
1000
0000
1010
0001
0000
,
0100
0001
0100
0001
0000
1000
0001
0000
,
0202
0000
0000
0303
,
2000
3200
0320
0032
1003
0000
1100
0000
,
0002
0000
0023
0000
0230
0000
2300
0000
3001
0000
0100
0001
0000
0001
0100
0000
,
0020
0000
0230
0000
0320
0030
2000
0000
3002
0000
0000
0000
0203
0000
0000
0000
,
0302
0023
0230
2300
0100
0100
3100
0000
,
2000
0000
3002
0000
0103
1000
0100
0000
,
0002
0000
2003
0000
3010
0010
0010
0000
,
2000
3002
0023
0230
,
2300
0000
3002
0000
1000
0100
1003
0000
,
1000
0010
0100
0001
0020
0000
0000
0030
,
0002
0023
0230
2300
3002
0103
0101
0000
;

//---------------dance-double - ----------------
#NOTES:
     dance-double:
     :
     Beginner:
     1:
     :
00000000
00000000
00000000
00000000
,
00000000
00000000
00000000
00000000
,
00000000
00000000
00000000
00000000
,
00000000
00000000
00000000
00000000
,
00000000
00000000
00000000
00000000
,
00010000
00000000
00000000
00000000
,
10000000
00000000
00000000
00000000
,
01000000
00000000
00000000
00000000
,
00000000
00000000
00000000
00000000
,
00010000
00000000
00000000
00000000
,
00001000
00000000
00000000
00000000
,
00001000
00000000
00000000
00000000
,
00000100
00000000
00000000
00000000
,
00000001
00000000
00000000
00000000
,
00000001
00000000
00000000
00000000
,
00000010
00000000
00000000
00000000
,
00000010
00000000
00000000
00000000
,
00000100
00000000
00000100
00000000
,
00001000
00000000
00001000
00000000
,
00000001
00000000
00000001
00000000
,
00000100
00000000
00000100
00000000
,
00001000
00000000
00000000
00000000
,
00010000
00000000
00000000
00000000
,
01000000
00000000
00000000
00000000
,
20000000
00000000
00000000
30000000
,
10000000
00000000
00000000
00000000
,
01000000
00000000
00100000
00000000
,
00100000
00000000
00010000
00000000
,
00010000
00000000
00100000
00000000
,
00100000
00000000
01000000
00000000
,
01000000
00000000
00010000
00000000
,
00010000
00000000
00001000
00000000
,
00001000
00000000
00001000
00000000
,
00000100
00000000
00000001
00000000
,
00000001
00000000
00000100
00000000
,
00000010
00000000
00000010
00000000
,
00001000
00000000
00001000
00000000
,
00000001
00000000
00000001
00000000
,
00000100
00000000
00000100
00000000
,
00001000
00000000
00010000
00000000
,
00010000
00000000
01000000
00000000
,
10000000
00000000
10000000
00000000
,
01000000
00000000
00010000
00000000
,
00001000
00000000
00010000
00010000
;

//---------------dance-double - ----------------
#NOTES:
     dance-double:
     :
     Easy:
     3:
     :
00000000
00000000
00000000
00000000
,
00000000
00000000
00000000
00000000
,
00000000
00000000
00000000
00000000
,
00000000
00000000
00000000
00000000
,
00000000
00000000
00000000
00000000
,
00000001
00000000
00000001
00000000
,
00001000
00001000
00000000
00000000
,
00000100
00000000
00000100
00000000
,
00010000
00010000
00000000
00001000
,
00001000
00010000
01000000
00000000
,
00100000
00010000
10000000
01000000
,
20000000
00000000
00000000
30000000
,
00010000
00000000
00010000
00000000
,
10000000
01000000
10000000
00000000
,
00100000
01000000
00000000
00010000
,
00100000
00001000
00010000
00001000
,
00000000
01000000
00000000
01000000
,
00020000
00000000
00030000
10000000
,
00200000
00300000
10000000
10000000
,
00020000
00000000
00030000
00100000
,
00002000
00003000
00010000
00000100
,
00000020
00000030
00000001
00001000
,
00000100
00001000
00000001
00000010
,
00000200
00000000
00000300
00001000
,
00000002
00000000
00000000
00000003
,
00001000
00000100
00000010
00000001
,
00001000
00000200
00000300
00010000
,
00000010
00020000
00030000
00001000
,
01000000
01000000
00010000
00010000
,
10000000
00010000
00100000
01000000
,
10000000
00010000
01000000
00100000
,
20000000
00000000
30000000
00010000
,
10000000
10000000
00100000
01000000
,
00002000
00000000
00003000
00011000
,
00010000
00001000
01000000
00000000
,
01000000
00010000
00200000
00300000
,
00010000
10000000
01000000
00000000
,
10000000
00100000
01000000
00010000
,
20000000
30000000
00010000
01000000
,
00002000
00003000
00010000
00000100
,
00000010
00000001
00001000
00000001
,
00000200
00000300
00000010
00000100
,
00000002
00000003
00000100
00000010
,
00000002
00000003
00001000
00001001
;

//---------------dance-double - ----------------
#NOTES:
     dance-double:
     :
     Medium:
     5:
     :
00000000
00000000
00000000
00000000
,
00000000
00000000
00000000
00000000
,
00000000
00000000
00000000
00000000
,
00000000
00000000
00000000
00000000
,
00000000
00000000
00000000
00000000
,
00000000
00000001
00000000
00000001
00000000
00001000
00000100
00000000
,
00000000
00000010
00000000
00000010
00000000
00000001
00000100
00000000
,
00000000
00000010
00000000
00000010
00000000
00010000
00001000
00000000
,
00000000
00001000
00000000
00001000
00000000
00100000
00010000
00000000
,
10000000
00010000
10000000
00000000
00000000
10000000
00010000
00000000
,
00010000
00100000
00100000
00000000
00000000
01000000
10000000
00000000
,
10000000
01000000
00010000
00000000
00000000
00001000
00010000
00000000
,
00001000
00000100
00000001
00000000
00000000
00000010
00000100
00000000
,
00001000
00000001
00000100
00000010
00000000
00001000
00000001
00000000
,
00001000
00000010
00001000
00000100
00000000
00010000
00001000
00000000
,
00010000
01000000
10000000
00100000
00000000
10000000
00010000
00000000
,
00010000
01000000
00100000
00100000
00000000
10000000
10000000
00000000
,
00100000
01000000
00010000
00100000
00100000
00000000
00000000
00000000
,
00001000
00010000
00001000
00000100
00000001
00000000
00000000
00000000
,
00000010
00000100
00000010
00000100
00000010
00000000
00000000
00000000
,
00001000
00000001
00001000
00000001
00001000
00000000
00000000
00000000
,
00000001
00000200
00000000
00000000
00000000
00000000
00000300
00000000
,
00000020
00000000
00000030
00001000
,
00000100
00020000
00000000
00000000
00030000
00000000
00001000
00010000
,
00001000
00020000
00000000
00000000
00000000
00000000
00030000
00000000
,
00001000
00100000
00100000
00010000
,
10000000
00100000
01000000
01000000
00010000
00000000
00000000
00010000
,
10000000
01000000
20000000
00000000
00000000
00000000
30000000
01000000
,
00010000
00001000
00020000
00000000
00000000
00000000
00030000
00000000
,
00000100
00001000
00000002
00000000
00000000
00000000
00000003
00000000
,
00001000
00000010
00000010
00001000
00000002
00000000
00000000
00000000
,
00000103
00001000
00020000
00000000
00000000
00000000
00030000
00000000
,
01000000
10000000
00200000
00000000
00000000
00000000
00300000
00000000
,
20200000
00000000
00000000
30300000
,
10000000
00100000
01000000
01000000
00010000
00000000
00000000
00000000
,
10000000
00010000
10000000
01000000
00010000
00000000
00001000
00000000
,
00010000
00001000
00000100
00000001
00001000
00000000
00000000
00000000
,
00000010
00000100
00000001
00001000
00000100
00000000
00010000
00000000
,
01000000
10000000
00100000
01000000
00010000
00000000
00000000
00000000
,
01000000
00100000
10000000
00100000
01000000
00000000
00001000
00000000
,
00010000
00001000
00001000
00000100
00000001
00000000
00000010
00000000
,
00000100
00001000
00000001
00000100
00000010
00000000
00010000
00000000
,
00001000
00010000
01000000
10000000
00100000
00000000
10000000
00000000
,
10000000
01000000
00010000
00001000
00010000
00001000
00011000
00000000
;

//---------------dance-double - ----------------
#NOTES:
     dance-double:
     :
     Hard:
     7:
     :
00000000
00000000
00000000
00000000
,
00000000
00000000
00000000
00000000
,
00000000
00000000
00000000
00000000
,
00000000
00000000
00000000
00000000
,
00000000
00000000
00000000
00000000
,
10000000
00000000
00010000
00000000
01000000
00010000
02000000
00000000
00000000
00000000
03010000
00000000
01001000
00000000
00000000
00000000
,
00100000
00000000
00001000
00000000
00010000
00000100
00000010
00000000
00000000
00000000
00000001
00000000
00000010
00000000
00000001
00000000
,
00001000
00000000
00000100
00000000
00000010
00000001
00000020
00000000
00000000
00000000
00000031
00000000
00001001
00000000
00000000
00000000
,
00000200
00000001
00000000
00000001
00000300
00000001
00002000
00000000
,
00000000
00003001
00000000
00001000
00000000
00000001
00000100
00000000
,
00000020
00001000
00000000
00001000
00000000
00000100
00000130
00000000
,
00000001
00001000
00000000
00000010
00000000
00000100
00000001
00000001
,
00000001
00001000
00000000
00000100
00000000
00000010
00000002
00000000
,
00000000
00001003
00000000
00000100
00000000
00010000
00001000
00000000
,
00000000
00011000
00000000
01010000
00000000
00100000
10000000
00000000
,
00010000
01000000
00000000
00100000
00000000
00100000
10000000
00000000
,
00110000
00000000
00110000
00000000
10000000
10000000
10000000
00000000
,
00020000
00230000
02300000
23000000
30020000
00000000
01030000
00000000
,
00200000
00000000
20300000
00000000
32000000
00000000
03020000
00000000
00032000
00000000
00003010
00000001
00000000
00000000
00000010
00000000
,
00000002
00002003
00003002
00000203
00000310
00000000
00000110
00000000
,
00002000
00003020
00000230
00000302
00000100
00000100
00000103
00000000
,
00000010
00000000
00001000
00000000
00000010
00000100
00000001
00000000
00000000
00000000
00001000
00000000
00000100
00000000
00001000
00000000
,
00000000
00000001
00000000
00001000
00000000
00000100
00000010
00000000
,
00000001
00000000
00000010
00000000
00000001
00000010
00000200
00000000
00000000
00000000
00000300
00000000
00001000
00000000
00000010
00000000
,
00001000
00000000
00000100
00000000
00010000
00001000
02000000
00000000
00000000
00000000
03000000
00000000
00010000
00000000
10000000
00000000
,
00020000
02030000
03200000
20300000
32000000
03200000
00320000
02030000
,
00100000
00100000
00100000
00100000
00000000
00010000
03010000
00000000
,
10000000
00010000
00000000
01000000
00000000
00100000
10000000
00100000
,
00010000
00100000
10000000
00020000
00000000
00100000
00130000
00000000
,
00010000
10000000
00010000
10000000
00010000
00100000
02000000
00000000
,
13000000
01000000
10000000
01000000
00200000
00000000
00000000
00310000
,
00010000
00010000
00000000
00100000
00000000
00110000
10000000
00000000
,
00010000
01000000
00010000
01000000
00000000
00001000
00010000
00000000
,
00022000
00000000
00000000
00033000
,
00020000
00030200
00000320
00000032
00001003
00000000
00001001
00000000
,
00000002
00000000
00000023
00000000
00000230
00000000
00002300
00000000
00003000
00000000
00000001
00000100
00000000
00000100
00000001
00000000
,
00002000
00003200
00000320
00000032
00000023
00000000
00000230
00000000
,
00020300
00032000
02003000
03200000
10000000
10000000
10300000
00000000
,
20000000
00000000
30020000
00000000
10030000
01000000
00100000
00000000
,
00002000
00000000
00023000
00000000
00030100
00000100
00000100
00000000
,
00000020
00000032
00000203
00000320
,
00002030
00000000
00003002
00000000
00001000
00000100
00001003
00000000
,
00000010
00001000
00000001
00000100
00000020
00000000
00000000
00000030
,
00002000
00003020
00000230
00000302
00002003
00003001
00001001
00000000
;
