#TITLE:HOT ON THE PHONE;
#ARTIST:BOYJAZZ;
#BANNER:HOT ON THE PHONE.png;
#BACKGROUND:HOT ON THE PHONE-bg.png;
#CDTITLE:./CDTITLES/DANCE DANCE REVOLUTION ULTRAMIX 3.png;
#MUSIC:HOT ON THE PHONE.ogg;
#SAMPLESTART:43.162;
#SAMPLELENGTH:15;
#DISPLAYBPM:172;
#BPMS:0=174,4=172,42=172.4,59=170.4,74=171.8,91=173.8,131=168.3,148=171,164=174.6,193.5=176,204=167,207=170.8,220.5=168.2,243=170,259=172.9;

//---------------dance-single - ----------------
#NOTES:
     dance-single:
     :
     Beginner:
     1:
     :
0000
0000
0000
0000
,
0000
0000
0000
0000
,
0000
0000
0000
0000
,
1000
0000
0000
0000
,
0001
0000
0000
0000
,
0010
0000
0000
0000
,
0010
0000
0000
0000
,
1000
0000
1000
0000
,
1000
0000
1000
0000
,
0001
0000
0000
0000
,
0000
0000
0000
0000
,
0100
0000
0100
0000
,
0100
0000
0100
0000
,
0010
0000
0000
0000
,
0000
0000
0000
0000
,
1000
0000
0000
0000
,
0001
0000
0000
0000
,
1001
0000
0000
0000
,
0001
0000
0000
0000
,
0100
0000
0000
0000
,
0100
0000
0000
0000
,
0110
0000
0000
0000
,
0010
0000
0000
0000
,
1000
0000
0000
0000
,
1000
0000
0000
0000
1000
0000
0000
0002
,
0000
0000
0000
0003
,
0000
0000
0000
0000
,
0100
0000
0000
0000
,
0100
0000
0000
0000
0100
0000
0000
0020
,
0000
0000
0000
0030
,
0000
0000
0000
0000
,
1000
0000
0000
0000
,
0001
0000
0000
0000
,
1001
0000
0000
0000
,
0100
0100
0100
0100
,
0200
0000
0000
0300
,
0000
0000
0000
0000
,
0010
0000
0000
0000
,
0100
0000
0000
0000
,
1000
0000
0000
0000
,
0001
0000
0000
0000
,
1000
0000
0100
0000
,
1000
0000
0000
0000
1000
0000
0000
0020
,
0000
0000
0000
0030
,
0000
0000
0000
0000
,
0001
0000
0100
0000
,
0001
0000
0000
0000
0001
0000
0000
0020
,
0000
0000
0000
0030
,
0000
0000
0000
0000
,
1000
0000
0000
0000
,
0010
0000
0000
0000
,
1001
0000
0000
0000
,
0000
0000
0000
0000
,
0002
0000
0000
0003
,
0000
0000
0000
0000
,
2000
0000
0000
3000
,
0000
0000
1000
0000
,
0002
0000
0000
0003
,
0000
0000
0000
0000
,
0200
0000
0000
0300
,
0000
0000
0100
0000
,
0010
0000
0000
0000
,
0100
0000
0000
0000
,
0001
0000
0000
0000
,
1001
0000
0000
0000
,
0100
0000
0000
0000
,
0001
0000
0000
0000
,
1000
0000
1000
0000
,
1001
0000
0000
0000
;

//---------------dance-single - ----------------
#NOTES:
     dance-single:
     :
     Easy:
     3:
     :
0000
0000
0000
0000
,
0000
0000
0000
0000
,
0000
0000
0000
0000
,
1000
0000
0000
0000
,
0001
0000
0000
0000
,
0010
0000
0000
0000
,
0100
0000
0000
0000
,
0010
0001
0010
0000
,
0001
0100
0001
0000
,
1000
0001
1000
0000
,
0010
0100
0010
0000
,
1000
0010
1000
0000
,
0100
1000
0100
0000
,
0100
1000
0001
0000
,
0010
0001
1000
0000
,
2000
0000
0000
3000
,
0002
0000
0000
0003
,
0001
0001
0100
0000
,
0100
0100
0010
0000
,
0020
0000
0000
0030
,
0200
0000
0000
0300
,
0100
0010
1000
0000
,
1000
0010
1000
0000
,
2000
0000
0000
0000
,
0000
0000
0000
0000
0000
0000
3000
0002
,
0000
0000
0000
0003
,
2000
0000
0000
3000
,
0020
0000
0000
0000
,
0000
0000
0000
0000
0000
0000
0030
0200
,
0000
0000
0000
0300
,
0020
0000
0000
0030
,
2000
0000
0000
0000
,
0000
0000
0000
0000
0000
0000
0000
0000
0000
0000
0000
0000
3000
0000
0000
0200
,
0000
0000
0000
0300
,
1000
0000
0001
0000
0001
0000
0000
0002
,
0000
0000
0000
0003
,
0100
0100
0010
0010
,
1000
0000
0000
0000
,
0100
0000
0000
0000
,
1000
0000
0000
0000
,
0001
0000
0000
0000
,
0200
0000
0000
0000
,
0000
0000
0000
0000
0000
0000
0300
0002
,
0000
0000
0000
0003
,
2000
0000
0000
3000
,
0200
0000
0000
0000
,
0000
0000
0000
0000
0000
0000
0300
0020
,
0000
0000
0000
0030
,
0200
0000
0000
0300
,
1000
0000
0001
0000
,
0001
0000
0100
0000
,
0020
0000
0000
0030
,
0010
0000
0010
0000
1000
0000
0000
1000
,
0000
0000
0000
0100
0000
0000
0000
0001
,
0000
0000
0000
1000
0000
0000
0000
0001
,
0000
0000
0000
0100
0000
0000
0000
0010
,
0000
0000
0000
1000
0000
0000
0000
0010
,
0000
0000
0000
0100
0000
0000
0000
0010
,
0000
0000
0000
1000
0000
0000
0000
0110
,
0000
0000
0000
0000
,
0000
0000
0000
1001
,
0100
0100
1000
1000
,
0010
0000
0000
0000
,
1000
1000
0010
0010
,
0100
0000
0000
0000
,
0001
0001
1000
1000
,
0100
0000
0000
1000
,
1001
0000
1001
0000
,
2002
0000
0000
3003
;

//---------------dance-single - ----------------
#NOTES:
     dance-single:
     :
     Medium:
     4:
     :
0000
0000
0000
0000
,
0000
0000
0000
0000
,
0000
0000
0000
0000
,
1000
0010
0000
0010
,
1000
0001
0000
0001
,
0100
0001
0000
1000
,
0100
0010
0000
0001
,
0100
0001
0010
0100
,
1000
1000
0001
1000
,
0010
0100
0001
0000
,
0010
0100
0010
0000
,
0100
0010
0001
0100
,
0001
1000
0100
1000
,
0100
1000
0010
0100
,
0010
0100
0001
0000
,
2000
0000
0100
3000
,
0002
0000
0010
0003
,
1000
0001
0100
0000
,
0100
0100
0010
0000
,
0020
0000
1000
0030
,
0200
0000
1000
0300
,
0100
0010
0001
0000
,
0001
0010
0100
0000
,
1000
0000
0000
0010
0000
1000
0000
0100
,
0000
0010
0000
0001
1000
1000
0000
0200
,
0000
0000
0000
2300
0000
0000
0000
3002
,
0000
0000
0000
0023
0000
0000
0000
0030
,
0001
0000
0000
0001
0000
0100
0000
0010
,
0000
1000
0000
0001
0100
0001
0000
2000
,
0000
0000
0000
3020
0000
0000
0000
0230
,
0000
0000
0000
0302
0000
0000
0000
0003
,
1000
0000
0000
0100
0000
1000
0000
0010
,
0000
0000
0100
0000
0000
0000
0001
0000
0000
0000
0001
0000
0000
0000
0000
2000
,
0000
0000
0000
0001
0000
0000
3001
0000
,
0100
0000
0001
0000
0001
1000
0001
2000
,
0000
0000
0000
3000
,
0100
0010
0100
0000
0010
0100
0010
0000
,
0001
0000
0000
0001
,
0100
0000
0000
0100
,
0010
0000
0000
0010
,
1000
0000
0000
0000
,
0001
0000
0000
0001
0000
1000
0000
0001
,
0000
0010
0000
0001
1000
0100
0000
0020
,
0000
0000
0000
0230
0000
0000
0000
2300
,
0000
0000
0000
3002
0000
0000
0000
0003
,
0010
0000
0000
0010
0000
0001
0000
0100
,
0000
0001
0000
0010
0100
0010
0000
0002
,
0000
0000
0000
2003
0000
0000
0000
3020
,
0000
0000
0000
2030
0000
0000
0000
0000
,
3100
0000
0000
1000
0000
0010
0000
1000
,
0000
0001
0000
1000
0000
1000
0000
0000
,
0020
0000
0000
0100
0000
0000
0030
0000
,
0010
0000
0010
0000
1000
0001
1000
0001
,
0000
0100
0010
1000
0000
0001
0010
0100
,
0000
1000
0001
0010
0000
0100
1000
0100
,
0000
0010
0001
0100
0000
0010
0100
0020
,
0000
0030
0110
0110
,
0000
1000
0001
1000
0000
0100
1000
0010
,
0000
0100
0001
0100
0000
0010
1000
0100
,
0000
1000
0001
0100
0000
0010
1000
0100
,
0000
0010
0001
0010
0000
0100
0100
0000
,
1000
0001
0010
0000
0001
0000
0001
0000
,
0200
0000
0000
0300
,
0001
0100
0001
0000
0100
0000
0100
0000
,
0020
0000
0000
0030
,
1000
0001
1000
0000
0001
0000
0001
0000
,
0020
0000
0000
0030
,
0110
0110
0000
0000
1001
1001
0000
0000
,
1000
0001
1000
1001
0000
0000
0000
0000
;

//---------------dance-single - ----------------
#NOTES:
     dance-single:
     :
     Hard:
     7:
     :
0000
0000
0000
0000
,
0000
0000
0000
0000
,
0000
0000
0000
0000
,
0001
0100
0001
2000
0000
3001
0100
0000
,
0010
1000
0010
2000
0000
3001
0100
0000
,
0001
1000
0001
0020
0000
0130
0010
0000
,
0100
1000
0100
0020
0000
0031
0010
0000
,
0011
0000
0011
0000
1000
0100
1000
0000
,
1010
0110
1010
1001
,
1000
0010
1000
0100
0010
0001
0010
0100
,
1000
0100
1000
0100
0010
0001
0010
0000
,
0002
1003
2000
3010
,
0020
1030
2000
3100
,
0010
0001
0010
0100
1000
0010
0100
0001
,
0010
0001
0010
0100
1000
0100
0010
0000
,
0100
1000
0010
0100
0002
0000
1003
0000
,
0010
1000
0010
1000
0010
1000
0010
0000
,
2002
0000
0000
0000
,
0000
0000
3003
0000
0000
0100
0010
0100
,
0020
0000
1030
0200
0000
0310
0010
0000
,
0001
0100
0010
0000
1000
0100
0010
0000
,
0001
1000
0001
2000
0000
3100
0100
0000
,
1000
0001
1000
0002
0000
0013
0010
0000
,
2001
0000
0000
0020
0000
0000
3030
0000
,
1010
0000
1010
0000
2020
0000
0000
3030
,
0000
0010
1000
0100
0000
0100
1000
0010
,
0000
0010
0100
0001
0000
0001
0100
0010
,
0120
0000
0000
2000
0000
0000
3030
0000
,
0110
0000
0110
0000
0220
0000
0000
0330
,
0000
1000
0100
1000
0000
0001
0100
0001
,
0000
1000
0100
1000
0000
0001
0100
0001
,
0102
0100
0100
0103
,
1000
0100
0010
0001
,
1001
0000
0000
1001
0000
0000
1001
0000
,
0101
0000
1001
0000
1100
0000
0000
2002
,
0000
0000
0000
3003
,
1000
0100
1000
0100
1000
0100
1000
0000
,
0001
0010
0100
1000
0100
1000
1000
0000
,
0010
1000
0100
1000
0010
0100
0100
0000
,
0001
1000
0001
0100
0001
0010
0010
0000
,
0100
1000
0010
0100
0001
1000
1000
0000
,
0001
0000
2000
0100
0000
3001
0000
0101
,
0000
1000
0000
1100
0000
0001
0000
0101
,
0000
0010
1000
0010
0000
0010
1000
0100
,
0000
0010
0001
0010
0000
0010
0001
0100
,
0010
0000
2000
0001
3000
0100
0000
1100
,
0000
0100
0000
0110
0000
0010
0000
0011
,
0000
0001
1000
0100
0000
0100
1000
0010
,
0000
0010
0100
0001
0000
0001
1000
0100
,
1000
0000
0200
0010
0300
0010
0000
0110
,
0000
1001
0000
0220
0000
0000
0330
0000
,
2000
0000
0000
0002
0000
0000
3003
0000
,
0001
0000
0010
0000
0100
0000
0000
2200
,
0000
0000
0000
0000
,
0000
0000
0000
3300
,
0000
1000
0100
0001
0000
0001
0100
1000
,
0000
0100
1000
0010
0000
0010
1000
0100
,
0000
1000
0001
0100
0000
0100
0001
0010
,
0000
0010
0001
1000
0000
1000
0100
1000
,
0000
0001
0100
0001
0000
0001
0010
0200
,
0000
0000
0000
0300
0000
1000
1000
0000
,
0001
0100
0001
1000
0001
0010
0001
1000
,
0001
0100
0010
0100
0010
0100
0100
0010
,
1000
0001
1000
0010
1000
0100
1000
0010
,
1000
0100
0010
0100
0010
0100
0100
0010
,
0001
1000
0001
0100
0001
1000
0001
0010
,
0001
0100
0010
0100
0010
0100
0100
0000
,
0110
0110
0000
0000
1010
1010
0000
0000
,
0011
0011
0100
1100
0000
0000
0000
0000
;

//---------------dance-double - ----------------
#NOTES:
     dance-double:
     :
     Beginner:
     1:
     :
00000000
00000000
00000000
00000000
,
00000000
00000000
00000000
00000000
,
00000000
00000000
00000000
00000000
,
00000001
00000000
00000000
00000000
,
00000010
00000000
00000000
00000000
,
00000100
00000000
00000000
00000000
,
00010000
00000000
00000000
00000000
,
00001000
00000000
00001000
00000000
,
00001000
00000000
00001000
00000000
,
01000000
00000000
00000000
00000000
,
00000000
00000000
00000000
00000000
,
00100000
00000000
00100000
00000000
,
00100000
00000000
00100000
00000000
,
10000000
00000000
00000000
00000000
,
00000000
00000000
00000000
00000000
,
10000000
00000000
00000000
00000000
,
00010000
00000000
00000000
00000000
,
10010000
00000000
00000000
00000000
,
00010000
00000000
00000000
00000000
,
01000000
00000000
00000000
00000000
,
00001000
00000000
00000000
00000000
,
00011000
00000000
00000000
00000000
,
00000100
00000000
00000000
00000000
,
00001000
00000000
00000000
00000000
,
00000001
00000000
00000000
00000000
00000001
00000000
00000000
00002000
,
00000000
00000000
00000000
00003000
,
00000000
00000000
00000000
00000000
,
00000100
00000000
00000000
00000000
,
00000100
00000000
00000000
00000000
00000100
00000000
00000000
00000020
,
00000000
00000000
00000000
00000030
,
00000000
00000000
00000000
00000000
,
00001000
00000000
00000000
00000000
,
00000001
00000000
00000000
00000000
,
00001001
00000000
00000000
00000000
,
00001000
00001000
00001000
00001000
,
00002000
00000000
00000000
00003000
,
00000000
00000000
00000000
00000000
,
00000100
00000000
00000000
00000000
,
00010000
00000000
00000000
00000000
,
00001000
00000000
00000000
00000000
,
01000000
00000000
00000000
00000000
,
00010000
00000000
01000000
00000000
,
00010000
00000000
00000000
00000000
00010000
00000000
00000000
00200000
,
00000000
00000000
00000000
00300000
,
00000000
00000000
00000000
00000000
,
01000000
00000000
10000000
00000000
,
01000000
00000000
00000000
00000000
01000000
00000000
00000000
00200000
,
00000000
00000000
00000000
00300000
,
00000000
00000000
00000000
00000000
,
00010000
00000000
00000000
00000000
,
00100000
00000000
00000000
00000000
,
10010000
00000000
00000000
00000000
,
00000000
00000000
00000000
00000000
,
00020000
00000000
00000000
00030000
,
00000000
00000000
00000000
00000000
,
02000000
00000000
00000000
03000000
,
00000000
00000000
00001000
00000000
,
00020000
00000000
00000000
00030000
,
00000000
00000000
00000000
00000000
,
00000200
00000000
00000000
00000300
,
00000000
00000000
00001000
00000000
,
00000001
00000000
00000000
00000000
,
00000100
00000000
00000000
00000000
,
00000001
00000000
00000000
00000000
,
00001001
00000000
00000000
00000000
,
00000100
00000000
00000000
00000000
,
00000001
00000000
00000000
00000000
,
00001000
00000000
00001000
00000000
,
00001001
00000000
00000000
00000000
;

//---------------dance-double - ----------------
#NOTES:
     dance-double:
     :
     Easy:
     4:
     :
00000000
00000000
00000000
00000000
,
00000000
00000000
00000000
00000000
,
00000000
00000000
00000000
00000000
,
00001000
00000000
00000000
00000000
,
00010000
00000000
00000000
00000000
,
00001000
00000000
00000000
00000000
,
00010000
00000000
00000000
00000000
,
00001000
00000100
00000001
00000000
,
00000010
00000100
00000010
00000000
,
00000001
00000100
00000001
00000000
,
00000001
00000100
00001000
00000000
,
00010000
01000000
10000000
00000000
,
10000000
00010000
01000000
00000000
,
00010000
01000000
00100000
00000000
,
00100000
01000000
00010000
00000000
,
20000000
00000000
30000000
10000000
,
02000000
00000000
00000000
03000000
,
01000000
01000000
00010000
00000000
,
00001000
00000100
00000001
00000000
,
00000002
00000000
00000003
00000001
,
00002000
00000000
00000000
00003000
,
00001000
00000001
00000100
00000000
,
00000010
00001000
00001000
00000000
,
00000200
00000000
00000000
00000000
,
00000000
00000000
00000000
00000000
00000000
00000000
00000300
00020000
,
00000000
00000000
00000000
00030000
,
00002000
00000000
00000000
00003000
,
02000000
00000000
00000000
00000000
,
00000000
00000000
00000000
00000000
00000000
00000000
03000000
00020000
,
00000000
00000000
00000000
00030000
,
02000000
00000000
00000000
03000000
,
00020000
00000000
00000000
00030000
,
02000000
00000000
00000000
00000000
00000000
00000000
00000000
00000000
00000000
00000000
00000000
00000000
03000000
00000000
00000000
00200000
,
00000000
00000000
00000000
00300000
,
10000000
00000000
00100000
00000000
01000000
00000000
00000000
00020000
,
00000000
00000000
00030000
00000000
,
01000000
01000000
00100000
00100000
,
00100000
00000000
00000000
00000000
,
01000000
00000000
00000000
00000000
,
00010000
00000000
00000000
00000000
,
01000000
00000000
00000000
00000000
,
00200000
00000000
00000000
00000000
,
00000000
00000000
00000000
00000000
00000000
00000000
00300000
20000000
,
00000000
00000000
00000000
30000000
,
02000000
00000000
00000000
03000000
,
00020000
00000000
00000000
00000000
,
00000000
00000000
00000000
00000000
00000000
00000000
00030000
00002000
,
00000000
00000000
00000000
00003000
,
00000200
00000000
00000000
00000300
,
00000002
00000000
00000000
00000003
,
00000020
00000000
00000000
00000030
,
00000200
00000000
00000000
00000300
,
00000100
00000000
00001000
00000000
00010000
00000000
00000000
00011000
,
00000000
00000000
00000000
00000000
00000000
00000000
00000000
00001000
,
00000000
00000000
00000000
00000000
00000000
00000000
00000000
01000000
,
00000000
00000000
00000000
00000000
00000000
00000000
00000000
00100000
,
00000000
00000000
00000000
00000000
00000000
00000000
00000000
10000000
,
00000000
00000000
00000000
00000000
00000000
00000000
00000000
00010000
,
00000000
00000000
00000000
00000000
00000000
00000000
00000000
01000000
,
00000000
00000000
00000000
00000000
00000000
00000000
00000000
00100000
,
00000000
00000000
00000000
01100000
,
00100000
00100000
01000000
01000000
,
00100000
00000000
00000000
00000000
,
10000000
10000000
01000000
01000000
,
00010000
00000000
00000000
00000000
,
00010000
00010000
00001000
00001000
,
00010000
00000000
00000000
00001000
,
00011000
00000000
00011000
00000000
,
00022000
00000000
00000000
00033000
;

//---------------dance-double - ----------------
#NOTES:
     dance-double:
     :
     Medium:
     5:
     :
00000000
00000000
00000000
00000000
,
00000000
00000000
00000000
00000000
,
00000000
00000000
00000000
00000000
,
00010000
00001000
00010000
00001000
00000000
00001000
00010000
00000000
,
01000000
10000000
00100000
10000000
,
00010000
10000000
00010000
10000000
00000000
10000000
00010000
00000000
,
10000000
01000000
10000000
00010000
,
01000000
00000000
01000000
00000000
00100000
00100000
00100000
00000000
,
02200000
03300000
20020000
30030000
,
10000000
00010000
00100000
01000000
,
00010000
10000000
00100000
01000000
,
00020000
00030000
00002000
00003000
,
00000200
00000300
00000002
00000003
,
00000010
00000010
00000100
00001000
,
00000010
00001000
00000010
00000000
00000010
00001000
00000010
00000000
,
00000200
00000000
00000001
00001300
,
00000001
00000100
00001000
00000100
,
00000020
00000000
00000000
00000000
,
00000000
00000000
00000030
00000000
00000000
00001000
00000010
00001000
,
00000002
00000000
00001003
00000100
00000000
00000010
00000010
00000000
,
00000002
00000000
00000023
00000000
,
00000130
00001000
00000001
00000100
,
00000010
00001000
00000010
00001000
,
00010000
01000000
00100000
10000000
,
10100000
00000000
10100000
00000000
20200000
00000000
00000000
30300000
,
00000000
00100000
00000000
01000000
00000000
00100000
00000000
01000000
,
00000000
00100000
00000000
10000000
00000000
01000000
00000000
00100000
,
00020000
00000000
00000000
20000000
00000000
00000000
30030000
00000000
,
01100000
00000000
01100000
00000000
02200000
00000000
00000000
03300000
,
00000000
10000000
00000000
10000000
00000000
00010000
00000000
00010000
,
00000000
00100000
00000000
10000000
00000000
00010000
00000000
00010000
,
20000000
00000000
00000000
30000000
,
02000000
03000000
00200000
00300000
,
00010000
00000000
00000000
10000000
00000000
00000000
00010000
00000000
,
01000000
00000000
10000000
00000000
01000000
00000000
00000000
02000000
,
00000000
00000000
00000000
03000000
,
10000000
00010000
00010000
10000000
,
00010000
00100000
01000000
00000000
10000000
00000000
10000000
00000000
,
00100000
10000000
00010000
00000000
01000000
00000000
01000000
00000000
,
00010000
10000000
00010000
00000000
10000000
00000000
00100000
00000000
,
01000000
00010000
00001000
00000000
00000100
00000000
00000010
00000000
,
00000220
00000000
00000330
00000000
00000000
00000001
00000000
00000100
,
00000000
00000010
00000000
00000100
00000000
00000001
00000000
00000100
,
00000000
00000100
00000000
00000110
00000000
00000001
00000000
00001100
,
00000000
00000001
00000000
00001100
00000000
00000010
00000000
00000000
,
00002020
00000000
00003030
00000000
00000000
00000100
00000000
00000001
,
00000000
00001000
00000000
01000000
00000000
00100000
00000000
00010000
,
00000000
10000000
00000000
01010000
00000000
01000000
00000000
10100000
,
00000000
10000000
00000000
01010000
00000000
00010000
00000000
02200000
,
00000000
00000000
00000000
00000000
,
00000000
00000000
00000000
03300000
,
02000000
00000000
00000000
00200000
00000000
00000000
03300000
00000000
,
00100000
00000000
00100000
00000000
01000000
00000000
00000000
20020000
,
00000000
00000000
00000000
00000000
,
00000000
00000000
00000000
30030000
,
00000000
20000000
00000000
30020000
00000000
00230000
00000000
02300000
,
00000000
23000000
00000000
30200000
00000000
20300000
00000000
30020000
,
00000000
20030000
00000000
32000000
00000000
03200000
00000000
02300000
,
00000000
03200000
00000000
00320000
00000000
02030000
00000000
03020000
,
00000000
00230000
00000000
02300000
00000000
23000000
00000000
30020000
,
00000000
00000000
00000000
00030000
00000000
01000000
01000000
00000000
,
00010000
00011000
00001000
00001001
,
00000100
00000110
00001000
00011000
,
01000000
01010000
00010000
00011000
,
00000100
00001100
00000010
00000011
,
00000100
00001100
00001000
00001001
,
00000100
00000110
00000010
00000101
,
00001000
00000100
00000000
00000000
00000001
00000100
00000000
00000000
,
00000001
00000010
00000100
00001000
00000000
00000000
00000000
00000000
;

//---------------dance-double - ----------------
#NOTES:
     dance-double:
     :
     Hard:
     8:
     :
00000000
00000000
00000000
00000000
,
00000000
00000000
00000000
00000000
,
00000000
00000000
00000000
00000000
,
10000000
01000000
10000000
00020000
00000000
10030000
01000000
00000000
,
00010000
00001000
00000100
00000002
00000000
00001003
00000100
00000000
,
00001000
00000001
00001000
00000200
00000000
00000310
00000100
00000000
,
00000010
00000001
00000010
00000200
00000000
00010300
00000100
00000000
,
00010100
00000000
00010100
00000000
00010000
00001000
00010000
00000000
,
00001000
00100000
00101000
00110000
,
00010000
01000000
00001000
01000000
00010000
10000000
00100000
01000000
,
00010000
01000000
00010000
01000000
00100000
01000000
00001000
00000000
,
00020000
00030100
00002000
00003010
,
00020000
00030100
00002000
00003001
,
00000100
00000001
00000100
00000010
00010000
00000100
00001000
00000010
,
00000100
00001000
00000100
00000001
00000100
00000001
00001000
00000000
,
00000010
00010000
00001000
00100000
00002000
00000000
00013000
00000000
,
00001000
00100000
00001000
00100000
00001000
00100000
00001000
00000000
,
00022000
00000000
00000000
00000000
,
00000000
00000000
00033000
00000000
00000000
00010000
01000000
10000000
,
00200000
00000000
10300000
02000000
00000000
03010000
01000000
00000000
,
10000000
00100000
00010000
00000000
00001000
00000010
00000001
00000000
,
00001000
00000001
00001000
00000002
00000000
00000013
00000010
00000000
,
00000001
00001000
00000001
00002000
00000000
00003100
00000100
00000000
,
00001200
00000000
00000000
00020000
00000000
00000000
00030300
00000000
,
00011000
00000000
00011000
00000000
02002000
00000000
00000000
03003000
,
00000000
00010000
10000000
00100000
00000000
01000000
00010000
00100000
,
00000000
01000000
00010000
00001000
00000000
00010000
00001000
00010000
,
00021000
00000000
00000000
00000200
00000000
00000000
00030300
00000000
,
00001100
00000000
00001100
00000000
00002002
00000000
00000000
00003003
,
00000000
00000001
00000010
00000001
00000000
00001000
00000010
00001000
,
00000000
00000001
00000010
00000001
00000000
00001000
00000010
00001000
,
00002010
00000010
00000010
00003010
,
00000100
00010000
00001000
01000000
,
01001000
00000000
00000000
01010000
00000000
00000000
10010000
00000000
,
00110000
00000000
01010000
00000000
01100000
00000000
00000000
20200000
,
00000000
00000000
00000000
30300000
,
00010000
10000000
00010000
10000000
00010000
10000000
00010000
00000000
,
01000000
00010000
01000000
00001000
01000000
00010000
00010000
00000000
,
00100000
00001000
00010000
00000010
00001000
00000010
00000100
00000000
,
00000001
00001000
00001000
00000010
00001000
00000100
00000100
00000000
,
00000010
00000001
00000100
00000010
00001000
00000001
00000001
00000000
,
00000100
00000000
00002000
00010000
00003000
00010000
00000000
00011000
,
00000000
00001000
00000000
01001000
00000000
00010000
00000000
01010000
,
00000000
01000000
00010000
01000000
00000000
01000000
00010000
00100000
,
00000000
01000000
10000000
01000000
00000000
01000000
10000000
01000000
,
00100000
00000000
00002000
00010000
00003000
01000000
00000000
01010000
,
00000000
01001000
00000000
00011000
00000000
00001000
00000000
00010100
,
00000000
00001000
00000100
00000010
00000000
00000100
00001000
00000010
,
00000000
00000100
00000010
00001000
00000000
00001000
00000001
00000010
,
00000001
00000000
00000020
00000100
00000030
00000100
00000000
00001001
,
00000000
00001100
00000000
00020200
00000000
00000000
00030300
00000000
,
00002000
00000000
00000000
00020000
00000000
00000000
00033000
00000000
,
00010000
00000000
01000000
00000000
10000000
00000000
00000000
22000000
,
00000000
00000000
00000000
00000000
,
00000000
00000000
00000000
33000000
,
00000000
10000000
01000000
00010000
00000000
00001000
00000100
00000001
,
00000000
00001000
00000001
00000100
00000000
00000100
00000001
00000010
,
00000000
00000001
00001000
00000010
00000000
00000010
00010000
00001000
,
00000000
00100000
00010000
10000000
00000000
00010000
01000000
00001000
,
00000000
00010000
01000000
10000000
00000000
00010000
00100000
02000000
,
00000000
00000000
00000000
03000000
00000000
10000000
00010000
00000000
,
10000000
00100000
01000000
00010000
01000000
00001000
01000000
00010000
,
10000000
00100000
00010000
00001000
00000010
00000001
00000001
00000100
,
00000010
00000100
00000010
00001000
00000001
00000100
00001000
00010000
,
01000000
10000000
00010000
01000000
00100000
01000000
01000000
00010000
,
00100000
01000000
10000000
00010000
01000000
00100000
01000000
01000000
,
00001000
00010000
00000010
00001000
00000100
00010000
00010000
00000000
,
00011000
00011000
00000000
00000000
00010100
00010100
00000000
00000000
,
00001100
00001100
00000001
00000101
00000000
00000000
00000000
00000000
;
