#TITLE:HIGHER;
#SUBTITLE:(next morning mix);
#ARTIST:NM feat. Sunny;
#BANNER:HIGHER (next morning mix).png;
#BACKGROUND:HIGHER (next morning mix)-bg.png;
#CDTITLE:./CDTITLES/Song Pack 15.png;
#MUSIC:HIGHER (next morning mix).ogg;
#SAMPLESTART:63.588;
#SAMPLELENGTH:15;
#DISPLAYBPM:132;
#BPMS:0=132.1;

//---------------dance-single - ----------------
#NOTES:
     dance-single:
     :
     Beginner:
     1:
     :
0000
0000
0000
0000
,
0000
0000
0000
0000
,
0000
0000
0000
0000
,
0000
0000
0000
0000
,
0000
0000
0000
0000
,
0001
0000
0000
0000
,
1000
0000
0000
0000
,
0010
0000
0000
0000
,
0100
0000
0000
0000
,
0000
0001
0001
0000
,
0000
1000
0000
1000
,
0000
0010
0000
0010
,
0000
0000
0000
0100
,
0100
0000
0000
0000
,
0001
0000
0000
0100
,
0100
0000
0000
0100
,
0100
0000
0000
0000
,
1000
0000
0000
0000
,
0010
0000
0100
0000
,
0010
0000
0000
0000
,
1000
0000
0001
0000
,
1000
0000
0000
0000
,
0001
0000
0000
0000
,
0010
0000
0000
0000
,
0100
0000
0010
0000
,
0200
0000
0000
0300
,
0000
0000
0000
0000
,
0001
0001
0000
0000
,
1000
1000
0000
0000
,
0100
0100
0000
0000
,
0100
0000
0010
0000
,
1000
0000
0000
0000
,
0001
0000
0000
0000
,
0100
0000
0001
0000
,
1000
0000
0000
0000
,
0100
0000
0000
0000
,
0001
0000
0000
0000
,
1000
0000
0010
0000
,
1000
0000
0000
0000
,
0001
0000
0000
0000
,
0100
0000
0000
0000
,
0010
0000
0000
0000
,
0001
0000
1000
0000
,
0100
0000
0000
0000
,
1000
0000
0000
0000
,
0001
0000
0010
0000
,
0001
0000
0000
0000
,
0100
0000
0000
0000
,
0001
0000
0000
0000
,
0100
0000
0000
0000
,
1001
0000
0001
0000
,
0010
0000
0000
0000
,
0110
0000
0000
0000
;

//---------------dance-single - ----------------
#NOTES:
     dance-single:
     :
     Easy:
     3:
     :
0000
0000
0000
0000
,
0000
0000
0000
0000
,
0000
0000
0000
0000
,
0000
0000
0000
0000
,
0000
0000
0000
0000
,
1000
0001
1000
0000
,
0000
0100
0100
0020
,
0030
0010
0100
0200
,
0300
2000
3000
0002
,
0003
1000
0002
0003
,
0020
0000
0000
0030
,
0200
0000
0000
0300
,
0001
1000
1000
0100
,
1000
0100
0100
0001
,
1000
0000
0010
0100
,
0200
0300
0100
0010
,
0020
0000
0000
0030
,
0002
0000
0000
0003
,
1000
1000
0100
0000
,
0001
0001
0100
0100
,
0001
0001
1000
1000
,
0010
1000
0001
1000
,
0001
0100
0100
0000
,
0010
0010
1000
0000
,
0100
0010
0100
0010
,
0220
0000
0000
0000
,
0330
0000
0000
0000
,
1001
0000
0000
0000
,
0110
0000
0000
0000
,
1001
0000
0000
0000
,
1000
1000
0001
0001
,
1001
0000
0100
0010
,
0010
0000
0010
1000
,
0010
0100
0010
1000
,
0001
0000
0000
0000
,
1000
1000
0100
0100
,
1000
1000
0001
0001
,
0100
0010
0100
0010
,
1000
0100
0100
0000
,
0001
0100
0100
0000
,
0010
1000
0100
0000
,
2002
0000
0000
3003
,
1000
1000
0001
0001
,
1001
0000
0000
0100
,
0020
0000
0000
0030
,
1000
0100
0100
1000
,
0100
0100
0001
0100
,
0010
0000
0000
0001
,
0100
0000
0000
1000
,
0200
0000
0000
0300
,
1000
0001
1000
0001
,
0000
0110
0000
1001
,
1001
0000
0000
0000
;

//---------------dance-single - ----------------
#NOTES:
     dance-single:
     :
     Medium:
     5:
     :
0000
0000
0000
0000
,
0000
0000
0000
0000
,
0000
0000
0000
0000
,
0000
0000
0000
0000
,
0000
0000
0000
0000
,
0010
1000
0011
0000
,
0000
0100
1000
0000
0110
0000
1001
0000
,
0000
0100
0001
0000
0110
0000
1001
0000
,
0110
0000
0100
0000
0101
0000
0001
1000
,
0000
1001
0000
1000
0000
0010
0100
0000
,
0010
1100
0000
0011
,
0000
0101
0000
1010
,
0010
0100
0001
0000
0001
0000
1000
0000
,
0010
0100
0001
1000
,
0010
1000
0100
0000
0010
1000
0100
0000
,
0001
0100
1000
0010
,
0100
0001
0200
0000
0000
0000
0300
0000
,
0010
1000
0020
0000
0000
0000
0030
0000
,
1001
0000
0100
0001
0000
0000
0100
0000
,
0010
1000
0100
0000
0001
0100
1000
0000
,
1100
0000
0010
0100
0000
0000
0001
0000
,
0100
0110
0001
1100
,
0100
0010
0001
1000
,
0010
0010
0001
0010
,
1000
0000
0001
0000
0010
0100
1000
0002
,
0000
0100
0000
0103
,
0010
0001
0100
1000
,
0100
1001
0000
0110
,
0000
0011
0000
0110
,
0000
1100
0000
0110
,
0000
0101
0000
1001
,
0010
0100
0100
0010
,
1000
0001
0100
1000
,
0100
0001
0010
0000
0001
1000
0010
0200
,
0000
0000
0010
0310
,
0001
1000
1000
0001
,
0010
0100
0100
1000
,
0010
1000
0100
0000
0010
1000
0100
0000
,
0001
0100
1000
0010
,
1001
0000
0010
0100
0000
0100
1000
0001
,
0000
0000
0010
0100
0000
0100
0001
1000
,
0000
0101
0000
1100
,
0000
0101
0000
1100
,
0010
0001
0100
0000
0010
0001
0100
0000
,
1000
0001
0010
0001
,
1000
0100
0001
0000
1000
0100
0001
0000
,
0010
0100
0010
0001
,
0110
0000
0001
1000
0000
1000
0010
0100
,
0000
0000
0001
1000
0000
1000
0100
0010
,
0000
0110
0000
1001
,
0000
1010
0000
0011
,
1000
1100
0001
0101
,
1001
0000
0000
0000
;

//---------------dance-single - ----------------
#NOTES:
     dance-single:
     :
     Hard:
     7:
     :
0000
0000
0000
0000
,
0000
0000
0000
0000
,
0000
0000
0000
0000
,
0000
0000
0000
0000
,
0000
0000
0000
0000
,
2000
3002
0023
0030
,
0000
0000
0010
0000
1000
0000
0000
0000
0101
0000
0000
1001
0000
0000
0101
0000
,
0000
0000
0001
0000
1000
0000
0000
0000
1100
0000
0000
1001
0000
0000
1100
0000
,
0000
0020
0000
1000
0000
0001
0000
1000
,
0000
0001
0000
1030
0000
0010
1000
0000
,
0002
0000
0000
0000
0000
1003
0010
0200
,
0000
0310
1000
0001
0000
0010
0000
0100
,
0010
0001
0100
0001
0010
0001
0100
0001
,
0010
0001
0100
0010
1000
0100
1000
0010
,
1000
0100
1000
0010
1000
0100
0010
0001
,
1000
0010
0100
0001
0100
1000
0100
0001
,
0000
1000
0010
0000
0100
0100
0100
0100
,
0000
0001
0020
0000
0000
0000
0031
0000
,
1010
0000
0000
1001
0000
0000
1010
0000
0000
0000
1000
0000
0100
0000
0010
0000
,
0011
0000
0000
1001
0000
0000
0011
0000
0000
0000
0000
0000
2000
0000
0000
0000
,
3002
0000
0000
0103
0000
0000
0010
0000
0010
0000
0000
0100
0000
0000
0001
0000
,
0010
0001
0100
0001
0000
1000
0010
0100
,
0101
0000
0000
1001
0000
0000
0101
0000
0000
0000
0001
0000
0010
0000
0100
0000
,
1000
0001
0010
0200
0000
0000
0320
0000
,
0031
0000
0000
1000
0000
0000
0001
0000
0010
0000
0001
0000
0100
0000
0001
0000
,
0000
0000
0010
0000
0100
0000
0010
0000
0100
0000
0000
1000
0000
0000
0010
0000
,
0200
0000
0001
0000
1000
0000
0301
1000
,
0020
0000
0000
1030
0000
0001
1000
0001
,
0020
0000
0000
1000
0000
0000
0031
0000
,
2000
0010
0000
0100
,
0000
0010
0000
3100
,
0010
0001
0010
0100
1000
0100
0001
0100
,
0010
0001
0010
0100
1000
0100
0001
0100
,
1000
0000
0001
0000
1000
0000
0000
0000
0011
0000
0000
0110
0000
0000
1100
0000
,
0000
0000
0100
0000
1000
0000
0000
0000
0001
0000
0000
0100
0000
0000
0010
0000
,
1000
0100
1000
0010
0100
0001
0100
0000
,
1000
0001
0010
0001
0100
0010
0100
0000
,
0001
1000
0100
1000
0001
1000
0100
1000
,
0010
0000
1000
0000
0100
0000
0001
0000
0100
0000
1000
0000
0000
0020
0000
0000
,
0230
0301
1000
0100
0000
0010
1000
0100
,
0000
0001
1000
0010
0000
0100
1000
0010
,
0000
0100
0001
0010
0001
0100
0001
0020
,
0000
0031
1000
0200
0000
0310
1001
0000
,
0001
0100
0001
0010
0001
0100
0010
1000
,
0100
0010
0001
0010
1000
0010
0001
0100
,
0001
1000
0100
1000
0010
0100
0010
0001
,
0010
0000
0100
0000
1000
0000
0100
0000
0001
0000
0100
0000
0000
0020
0000
0000
,
1030
1000
0001
0100
0000
0010
0001
0100
,
0000
1000
0001
0010
0000
0100
0001
0020
,
0000
1000
0000
0001
0000
1000
0000
0100
,
0000
1000
0000
0001
0000
0130
0000
0000
,
0000
1001
0000
0000
0000
0110
0000
0000
0000
1100
0000
0000
0101
0000
0000
1001
;

//---------------dance-single - ----------------
#NOTES:
     dance-single:
     :
     Challenge:
     7:
     :
0000
0000
0000
0000
,
0000
0000
0000
0000
,
0000
0000
0000
0000
,
0000
0000
0000
0000
,
0000
0000
0000
0000
,
1010
0101
1001
0000
,
0000
0000
0001
0000
1000
0000
0000
0000
0001
0000
0000
1000
0000
0000
0010
0000
,
0000
0000
1000
0000
0001
0000
0000
0000
0010
0000
0000
1000
0000
0000
0100
0000
,
0002
0000
0000
0003
,
0000
0110
0000
1001
0000
1010
0101
0000
,
0000
0001
0000
1000
,
0000
0000
0100
0000
0000
0100
0010
0000
,
0001
1000
0100
1000
0001
0100
0001
1000
,
0010
1000
0100
1000
0010
0100
0001
0010
,
0100
1000
0001
0100
0010
0100
0001
1000
,
0001
0010
1000
0010
0001
1000
0100
0001
,
0100
1000
0001
0010
0100
1000
0001
0100
,
0010
0100
0001
0100
1000
0100
0001
1000
,
0010
0000
0000
0100
0000
0000
0001
0000
0000
0000
1000
0000
0001
0000
0100
0000
,
0010
0000
0000
1000
0000
0000
0100
0000
0010
0000
0000
0000
0010
0000
0000
0000
,
0010
0000
0000
0001
0000
0000
1000
0000
0001
0000
0000
1000
0000
0000
0010
0000
,
1000
0000
0100
0010
0000
0100
0000
0000
0000
0000
1000
0000
0001
0000
0100
0000
,
0010
0000
0000
1000
0000
0000
0001
0000
0000
0000
0100
0000
0010
0000
1000
0000
,
0001
0110
1100
0011
,
1000
0000
0000
0100
0000
0000
0010
0000
0001
0000
0100
0000
0010
0000
1000
0000
,
0000
0000
0001
0000
1000
0000
0000
0000
0010
0000
0000
1000
0000
0000
0001
0000
,
0110
0000
1001
0000
0110
0000
0001
1000
,
0200
0001
0000
1000
,
0000
0000
0001
0000
0000
1000
1300
0001
,
0200
0000
1000
0000
0000
0000
0301
1000
,
0100
0101
1100
0101
,
1000
0001
1000
0100
1000
0010
1000
0000
,
0001
1000
0001
0010
0001
0100
0001
0000
,
0000
0000
1000
0000
0100
0000
0000
0000
0010
0000
0000
0001
0000
0000
0100
0000
,
0000
1000
0001
0000
0100
0000
0000
0000
0010
0000
1000
0000
0001
1000
0000
0000
,
0010
1000
0010
0001
0010
0100
0010
0000
,
0100
0001
0100
1000
0100
0010
0100
0000
,
0001
1000
0010
0100
0001
0010
0100
0000
,
1000
0000
0010
0000
0100
0000
0001
0000
0000
0000
0110
0000
0000
1001
0000
0000
,
0010
1000
0001
0100
1000
0100
0001
0000
,
0010
0001
1000
0100
0001
0100
1000
0000
,
0010
1000
0100
0001
0100
1000
0001
0100
,
1000
0100
0001
0010
0001
1000
0100
0000
,
0010
0100
0001
0001
0010
0100
1000
1000
,
0010
0010
0100
0100
0001
0001
1000
1000
,
0010
1000
0100
0010
0001
0100
0010
0100
,
0001
0000
0010
0000
0100
0000
1000
0000
0100
0000
0010
0000
0000
0001
0000
0000
,
0010
0001
0010
0100
1000
0100
0010
0000
,
0001
1000
0001
0010
0100
0010
0001
0000
,
1000
0100
0001
0100
0010
0001
0100
1000
,
0100
0010
1000
0100
0001
0100
1000
0000
,
0000
1001
0000
0000
0000
0110
0000
0000
0000
1100
0000
0000
0101
0000
0000
1001
;

//---------------dance-double - ----------------
#NOTES:
     dance-double:
     :
     Beginner:
     1:
     :
00000000
00000000
00000000
00000000
,
00000000
00000000
00000000
00000000
,
00000000
00000000
00000000
00000000
,
00000000
00000000
00000000
00000000
,
00000000
00000000
00000000
00000000
,
00001000
00000000
00000000
00000000
,
00010000
00000000
00000000
00000000
,
00000100
00000000
00000000
00000000
,
00001000
00000000
00000000
00000000
,
00000000
00000001
00000001
00000000
,
00000000
00001000
00000000
00001000
,
00000000
00010000
00000000
00010000
,
00000000
00000000
00000000
00100000
,
00100000
00000000
00000000
00000000
,
01000000
00000000
00000000
10000000
,
10000000
00000000
00000000
00010000
,
00010000
00000000
00000000
00000000
,
01000000
00000000
00000000
00000000
,
00001000
00000000
00001000
00000000
,
00010000
00000000
00000000
00000000
,
00000100
00000000
00000100
00000000
,
00001000
00000000
00000000
00000000
,
00010000
00000000
00000000
00000000
,
00100000
00000000
00000000
00000000
,
10000000
00000000
10000000
00000000
,
00020000
00000000
00000000
00030000
,
00000000
00000000
00000000
00000000
,
00001000
00001000
00000000
00000000
,
00000001
00000001
00000000
00000000
,
00000100
00000100
00000000
00000000
,
00000001
00000000
00000100
00000000
,
00000100
00000000
00000000
00000000
,
00010000
00000000
00000000
00000000
,
00001000
00000000
00001000
00000000
,
00010000
00000000
00000000
00000000
,
00000100
00000000
00000000
00000000
,
00001000
00000000
00000000
00000000
,
00010000
00000000
00010000
00000000
,
01000000
00000000
00000000
00000000
,
10000000
00000000
00000000
00000000
,
00010000
00000000
00000000
00000000
,
00001000
00000000
00000000
00000000
,
00000100
00000000
00000100
00000000
,
00000001
00000000
00000000
00000000
,
00001000
00000000
00000000
00000000
,
00000100
00000000
00000100
00000000
,
00001000
00000000
00000000
00000000
,
00010000
00000000
00000000
00000000
,
01000000
00000000
00000000
00000000
,
00011000
00000000
00000000
00000000
,
00001001
00000000
00000001
00000000
,
00000100
00000000
00000000
00000000
,
00011000
00000000
00000000
00000000
;

//---------------dance-double - ----------------
#NOTES:
     dance-double:
     :
     Easy:
     3:
     :
00000000
00000000
00000000
00000000
,
00000000
00000000
00000000
00000000
,
00000000
00000000
00000000
00000000
,
00000000
00000000
00000000
00000000
,
00000000
00000000
00000000
00000000
,
00002000
00003002
00000203
00000300
,
00000002
00000000
00000000
00000103
,
00002000
00000000
00000000
00013000
,
02000000
03000000
20000000
30000000
,
10000000
10000000
00010000
00010000
,
00200000
00000000
00000000
00300000
,
00002000
00000000
00000000
00003000
,
00010000
00010000
00010000
00010000
,
00000100
00000100
00000010
00000010
,
00001001
00000000
00000000
00000000
,
00011000
00000000
00000000
00000000
,
10000000
00010000
10000000
00010000
,
00001000
00000100
00001000
00000100
,
00000001
00000000
00000000
00001000
,
00000100
00000001
00000100
00000000
,
00010000
00000000
00000000
01000000
,
00010000
01000000
10000000
00100000
,
10000000
00000000
00010000
01000000
,
00010000
00000000
00100000
00000000
,
00001000
00010000
00001000
00010000
,
00001000
00000000
00000000
00000000
,
00000001
00000010
00000001
00000010
,
00000002
00000000
00000000
00000003
,
00002000
00000000
00000000
00003000
,
00020000
00000000
00000000
00030000
,
01000000
01000000
10000000
01000000
,
00010000
00001000
00010000
01000000
,
10000000
01000000
01000000
00010000
,
00001000
00001000
00000100
00000001
,
00000200
00000000
00000000
00000300
,
00011000
00000000
00010000
00001000
,
00010000
00000000
01000000
10000000
,
01000000
00010000
01000000
10000000
,
01000000
00010000
00001000
00010000
,
00001000
00000000
00000000
00000001
,
00000002
00000000
00000003
00001000
,
00000001
00000100
00001000
00010000
,
00001000
00000100
00001000
00010000
,
02000000
00000000
03000000
10000000
,
00020000
00000000
00000000
00030000
,
01000000
10000000
01000000
00010000
,
01000000
10000000
01000000
00010000
,
00002000
00000000
00003000
00010000
,
00000200
00000000
00000300
00000100
,
00001000
00000100
00000001
00000100
,
00001000
00000100
00001000
00010000
,
00000000
01000000
00000000
00010000
,
00011000
00000000
00000000
00000000
;

//---------------dance-double - ----------------
#NOTES:
     dance-double:
     :
     Medium:
     5:
     :
00000000
00000000
00000000
00000000
,
00000000
00000000
00000000
00000000
,
00000000
00000000
00000000
00000000
,
00000000
00000000
00000000
00000000
,
00000000
00000000
00000000
00000000
,
00000100
00000100
00010000
00000000
,
00000000
00010000
00001000
00000000
00000100
00000000
00000001
00000000
,
00000000
00000100
00001000
00000000
00010000
00000000
01000000
00000000
,
00000000
11000000
00000000
00110000
,
00000000
00001000
00000000
00010000
00000000
00001000
00000100
00000000
,
00000010
00001001
00000000
00000110
,
00000000
00001100
00000000
00011000
,
00010000
01000000
10000000
00000000
00100000
00000000
01000000
00000000
,
00100000
01000000
00001000
00010000
,
00001000
00000100
00000001
00000000
00000010
00000000
00000100
00000000
,
00001000
00000100
00000001
00000000
00000100
00000000
00010000
00000000
,
01000000
10000000
01000000
00000000
00000000
00000000
00000000
00010000
,
00000000
10000000
00100000
00000000
00000000
00000000
00000000
00000000
,
10000000
00010000
00100000
01000000
,
00100000
01000000
00010000
00001000
,
00000100
00000001
00000010
00000000
00000010
00000001
00000100
00000000
,
00000001
00000100
00001000
00010000
,
00100000
10000000
01000000
00000000
01000000
10000000
00100000
00000000
,
01000000
00010000
00100000
00000000
00010000
00000000
00000000
00000000
,
10000000
00000000
00010000
00000000
10000000
01000000
00010000
00001000
,
00000000
00000000
00010000
00000000
00001000
00000000
00000100
00000001
,
00000010
00001001
00000101
00001100
,
00020000
00000000
00000000
00000000
00000000
00001000
00001000
00001000
,
00032000
00000000
00000000
02000000
00000000
00000000
03003000
00000000
,
02000000
00000000
00000000
00000000
,
00100000
00100000
00100000
03100000
,
10000000
01000000
00010000
00000000
01000000
00000000
10000000
00000000
,
01000000
00010000
00001000
00000000
00010000
00000000
01000000
00000000
,
00010000
00001000
00000100
00000000
00000001
00000010
00000001
00000200
,
00000000
00000000
00000000
00000300
,
00000001
00000100
00001000
00010000
,
00100000
10000000
00100000
00010000
,
00001000
00010000
01000000
00000000
00100000
00010000
10000000
00000000
,
01000000
00100000
00001000
00010000
,
00001000
00000100
00000001
00000100
00000000
00000000
00000100
00001000
,
00000000
00000000
00010000
01000000
00000000
00000000
00100000
02000000
,
00000000
00000000
00000000
00000000
00000000
13000000
01000000
10000000
,
00000000
00010000
01000000
00010000
00000000
00000000
01100000
00000000
,
10000000
01000000
00010000
00000000
00001000
00000100
00000001
00000000
,
00001000
00000100
00000010
00000001
,
00000001
00000100
00001000
00000000
00010000
01000000
10000000
00000000
,
00010000
00100000
01000000
10000000
,
01000000
00010000
00001000
00010000
00000000
00000000
00000010
00000100
,
00000000
00000000
00000001
00001000
00000000
00000000
00010000
00002000
,
00000000
00000000
00000000
00000000
00000000
00013000
01000000
00010000
,
00000000
01000000
00000000
10000000
00000000
01000000
00000000
00010000
,
00000000
00001000
00000000
00000100
00000000
00000001
00000000
00000010
,
00000100
00000000
00000000
00000000
;

//---------------dance-double - ----------------
#NOTES:
     dance-double:
     :
     Hard:
     7:
     :
00000000
00000000
00000000
00000000
,
00000000
00000000
00000000
00000000
,
00000000
00000000
00000000
00000000
,
00000000
00000000
00000000
00000000
,
00000000
00000000
00000000
00000000
,
00000101
00001100
00011000
00000000
,
00000000
00000000
00010000
00000000
01000000
00000000
00000000
00000000
00200000
00000000
00000000
00320000
00000000
00000000
20030000
00000000
,
00000000
00000000
31000000
00000000
00010000
00000000
00000000
00000000
00002000
00000000
00000000
00003020
00000000
00000000
00000032
00000000
,
00000000
00001000
00000000
00000100
00000000
00001000
00000000
00000100
,
00000000
00001000
00000000
00000103
00000000
00000001
00001000
00000000
,
00000200
00000000
00000000
00000000
00000000
00010300
00001000
00010000
,
00000000
01000000
00100000
01000000
00000000
10000000
00000000
00010000
,
10000000
01000000
00010000
01000000
10000000
00100000
00010000
00001000
,
00000010
00000001
00000100
00001000
00010000
00001000
00000100
00001000
,
00010000
00100000
01000000
00100000
00010000
00001000
00000010
00000001
,
00001000
00000001
00000100
00001000
00010000
00001000
00000100
00001000
,
00010000
00100000
10000000
01000000
10000000
01000000
00100000
00010000
,
00100000
01000000
00010000
00001000
00010000
00001000
00000100
00000000
,
00000001
00000000
00000000
00001000
00000000
00000000
00001001
00000000
00000000
00000000
00000000
00000000
00000110
00000000
00000000
00000000
,
00000010
00000000
00000000
00001000
00000000
00000000
00010000
00000000
01100000
00000000
00000000
00000000
00000000
00000000
00000000
00000000
,
10000000
00000000
00000000
00010000
00000000
00000000
00001000
00000000
00000100
00000000
00000000
00000001
00000000
00000000
00000100
00000000
,
00001000
00000000
00000000
00000100
00000000
00000000
00000110
00000000
00000000
00000000
00000000
00000000
00000001
00000000
00000000
00000000
,
00000100
00000000
00000000
00001000
00000000
00000000
00010000
00000000
01000000
00000000
00000000
00000000
00010000
00000000
00000000
00000000
,
00010000
00000000
00000000
01000000
00000000
00000000
10000000
00000000
00100000
00000000
00000000
00000000
01000000
00000000
00000000
00000000
,
00010000
00000000
00000000
10000000
00000000
00000000
01000000
00000000
00010000
00000000
00001000
00000000
00000100
00000000
00000001
00000000
,
00000000
00000000
00000100
00000000
00000010
00000000
00000100
00000000
00000010
00000000
00000000
00010000
00000000
00000000
00002000
00000000
,
00010000
00000000
01000000
00000000
00010000
00000000
01003000
00010000
,
00100000
00000000
00000000
00001000
00000000
00100000
01000000
00100000
,
01000000
00000000
00000000
00010000
00000000
00000000
00001000
00000100
,
00001000
00000110
00000000
00001001
,
00000101
00001100
00000101
00001001
,
00000100
00000001
00000010
00001000
00010000
00100000
10000000
01000000
,
00010000
01000000
00100000
00010000
00100000
01000000
00010000
00001000
,
00000100
00000010
00000100
00001000
00010000
00100000
10000000
01000000
,
00010000
00001000
00000100
00000001
00000010
00000001
00000010
00000100
,
00001000
00000100
00000010
00000001
00001000
00000100
00010000
00000000
,
01000000
10000000
01000000
00100000
01000000
00010000
01000000
00000000
,
00010000
00001000
00000100
00001000
00000100
00000010
00000100
00000001
,
00000100
00001000
00000100
00000001
00000100
00001000
00010000
00000000
,
00010000
01000000
10000000
01000000
00000000
00010000
00001000
00000010
,
00000000
00000001
00000100
00001000
00000000
00010000
01000000
10000000
,
00000000
00100000
01000000
00100000
01000000
00001000
00010000
00001000
,
00010000
00000100
00000010
00000100
00000010
00000100
00000010
00000000
,
00000001
00001000
00000100
00001000
00000010
00001000
00000100
00000000
,
00010000
01000000
10000000
00100000
10000000
01000000
10000000
00000000
,
01000000
00010000
01000000
00010000
00001000
00000100
00001000
00000100
,
00000001
00000010
00000001
00000010
00000100
00001000
00000100
00000000
,
00010000
01000000
10000000
00100000
00000000
00010000
00001000
00000010
,
00000000
00000001
00000100
00001000
00000000
00010000
01000000
10000000
,
00000000
00110000
00000000
00101000
00000000
00010000
00001000
00010000
,
00000000
00000100
00000010
00000100
00000000
00000001
00001000
00000001
,
00000000
00001100
00000000
00000000
00000000
00011000
00000000
00000000
00000000
01001000
00000000
00000000
01010000
00000000
00000000
10010000
;

//---------------dance-double - ----------------
#NOTES:
     dance-double:
     :
     Challenge:
     7:
     :
00000000
00000000
00000000
00000000
,
00000000
00000000
00000000
00000000
,
00000000
00000000
00000000
00000000
,
00000000
00000000
00000000
00000000
,
00000000
00000000
00000000
00000000
,
00010010
00101000
00011000
00000000
,
00000000
00000000
00000001
00000000
00001000
00000000
00000000
00000000
00000001
00000000
00000000
00000100
00000000
00000000
00001000
00000000
,
00000000
00000000
00010000
00000000
00100000
00000000
00000000
00000000
00010000
00000000
00000000
01000000
00000000
00000000
10000000
00000000
,
00200000
00000000
00000000
00300000
,
00000000
00110000
00000000
00011000
00000000
00001100
00001010
00000000
,
00000002
00000010
00000000
00000010
,
00000000
00000000
00000100
00000000
00000003
00000100
00001000
00000000
,
00010000
01000000
10000000
00100000
01000000
00010000
10000000
01000000
,
00010000
00001000
00000100
00000001
00000010
00000100
00001000
00000001
,
00000100
00001000
00010000
00100000
00010000
00001000
00000100
00000001
,
00000010
00001000
00010000
00100000
10000000
01000000
00010000
00001000
,
00000100
00001000
00010000
00100000
00010000
00001000
00000010
00000001
,
00000100
00001000
00010000
01000000
10000000
00100000
00010000
00001000
,
00100000
00000000
00000000
00010000
00000000
00000000
01000000
00000000
00000000
00000000
10000000
00000000
01000000
00000000
00010000
00000000
,
10000000
00000000
00000000
00100000
00000000
00000000
00010000
00000000
00001000
00000000
00000000
00000000
00001000
00000000
00000000
00000000
,
00001000
00000000
00000000
00000100
00000000
00000000
00000001
00000000
00001000
00000000
00000000
00000100
00000000
00000000
00000001
00000000
,
00000100
00000000
00001000
00000001
00000000
00000010
00000000
00000000
00000000
00000000
00000001
00000000
00000100
00000000
00001000
00000000
,
00010000
00000000
00000000
00100000
00000000
00000000
01000000
00000000
00010000
00000000
10000000
00000000
01000000
00000000
00010000
00000000
,
00001000
00010010
01001000
10010000
,
00100000
00000000
00000000
01000000
00000000
00000000
00010000
00000000
00001000
00000000
00000100
00000000
00000001
00000000
00000010
00000000
,
00000000
00000000
00000001
00000000
00001000
00000000
00000000
00000000
00000010
00000000
00000000
00001000
00000000
00000000
00000100
00000000
,
00010010
00000000
00101000
00000000
00010100
00000000
01001000
00010000
,
00200000
00010000
00000000
00010000
,
00000000
00000000
00010000
00000000
00000000
00010000
00310000
00000000
,
00000200
00001000
00000000
00001000
,
00001000
00000010
00001000
00000310
,
00000010
00000001
00000100
00001000
00000100
00001000
00010000
00000000
,
00100000
10000000
01000000
00010000
01000000
00010000
00001000
00000000
,
00000000
00000000
00000010
00000000
00000001
00000000
00000000
00000000
00001000
00000000
00000000
00000001
00000000
00000000
00000100
00000000
,
00000000
00000010
00000100
00000000
00001000
00000000
00000000
00000000
00010000
00000000
01000000
00000000
00100000
01000000
00000000
00000000
,
00100000
00010000
01000000
00100000
10000000
01000000
00010000
00000000
,
00000010
00001000
00000100
00000010
00000001
00000100
00001000
00000000
,
00010000
00100000
10000000
01000000
00010000
00001000
00000100
00000001
,
00000010
00000000
00001000
00000000
00010000
00000000
00001000
00000000
00000000
00000000
00100000
00000000
00000000
01000000
00000000
00000000
,
10000000
01000000
00010000
00001000
00000100
00000001
00000010
00000000
,
00000001
00000100
00001000
00010000
01000000
10000000
00100000
02000000
,
00000000
10000000
00000000
00010000
00000000
10000000
00000000
00010000
,
00000000
00100000
00000000
03001000
00000000
00010000
00000100
00000000
,
00000010
00000001
00000100
00000001
00000010
00001000
00010000
00000000
,
00100000
10000000
01000000
10000000
00100000
00010000
00001000
00000000
,
00000010
00001000
00010000
00100000
00010000
00001000
00000100
00001000
,
00010000
00000000
01000000
00000000
00010000
00000000
00001000
00000000
00010000
00000000
00000010
00000000
00000000
00000100
00000000
00000000
,
00000001
00001000
00000010
00000100
00000001
00000100
00001000
00000000
,
00010000
01000000
10000000
01000000
00100000
00010000
10000000
00020000
,
00000000
00100000
00000000
01000000
00000000
00100000
00000000
01000000
,
00000000
10000000
00000000
01000000
00000000
00100000
00030000
00000000
,
00000000
00101000
00000000
00000000
00000000
00010010
00000000
00000000
00000000
01001000
00000000
00000000
00010100
00000000
00000000
00011000
;
