#TITLE:GHOST REVIVAL;
#SUBTITLE:(Brownboy Mix);
#ARTIST:L.E.D.;
#BANNER:GHOST REVIVAL (Brownboy Mix).png;
#BACKGROUND:GHOST REVIVAL (Brownboy Mix)-bg.png;
#CDTITLE:./CDTITLES/Song Pack 13.png;
#MUSIC:GHOST REVIVAL (Brownboy Mix).ogg;
#SAMPLESTART:43.783;
#SAMPLELENGTH:15;
#DISPLAYBPM:148;
#BPMS:0=148.001;

//---------------dance-single - ----------------
#NOTES:
     dance-single:
     :
     Beginner:
     1:
     :
0000
0000
0000
0000
,
0000
0000
0000
0000
,
0000
0000
0000
0000
,
0000
0000
0000
0000
,
1000
0000
0000
0000
,
0001
0000
0000
0000
,
0100
0000
0000
0000
,
0010
0000
0000
0000
,
1000
0000
0000
0000
,
0001
0000
0000
0000
,
1001
0000
0000
0000
,
1000
1000
0000
0000
,
0100
0100
0000
0000
,
0001
0001
0000
0000
,
0100
0100
0000
0000
,
1000
1000
0000
0000
,
0010
0010
0000
0000
,
0001
0001
0000
0000
,
0010
0010
0000
0000
,
1000
0000
1000
0000
,
0001
0000
0000
0010
,
0010
0000
0010
0000
,
0100
0000
0000
1000
,
1000
0000
0000
0000
,
0010
0000
0000
0000
,
0100
0000
0100
0000
,
0001
0001
0001
0000
,
1000
0000
0000
0000
,
0001
0000
0000
1000
,
1000
0000
0000
0000
,
0100
0000
0000
0010
,
0010
0000
0000
0000
,
0001
0000
0000
0000
,
0100
0100
0000
0000
,
1000
0000
0000
0100
,
0100
0000
0000
0000
,
0001
0000
0000
0000
,
0010
0000
0000
0000
,
0100
0000
0000
0000
,
1000
0000
0000
0000
,
0001
0000
0000
0000
,
1000
0000
0000
0000
,
0010
0000
0010
0000
,
0010
0000
0000
0100
,
0100
0000
0100
0100
,
0100
0000
0000
0000
,
0001
0000
0000
0010
,
0010
0000
0010
0010
,
0010
0000
0000
0000
,
0100
0000
0000
1000
,
1000
0000
1000
1000
,
1000
0000
0000
0000
,
0100
0000
0000
0000
,
0001
0000
0000
0000
,
0100
0000
0000
1000
,
1000
0000
0000
0001
,
0001
0000
0000
1000
,
1000
0000
0001
0000
,
0001
0000
0100
0000
,
0100
0000
0010
0000
,
0010
0000
0000
1000
,
1000
0000
1000
0000
,
0001
0000
0000
0001
,
0001
0000
0000
0000
,
0100
0000
0000
0000
,
0010
0000
0010
0000
,
1000
1000
0000
0001
,
0001
0000
0000
0000
;

//---------------dance-single - ----------------
#NOTES:
     dance-single:
     :
     Easy:
     3:
     :
0000
0000
0000
0000
,
0000
0000
0000
0000
,
0000
0000
0000
0000
,
0000
0000
0000
0000
,
0002
0000
0000
0003
,
0020
0000
0000
0030
,
0100
0000
0010
0000
,
0001
0000
0010
0000
,
1000
0000
1000
0000
,
0010
1000
0100
0001
,
2002
0000
0000
3003
,
0010
1000
0001
0000
,
0100
0001
1000
0000
,
0001
0100
0010
0000
,
1000
0001
1000
1000
,
1000
0010
0100
0000
,
0001
1000
0100
0000
,
1000
0001
0010
0000
,
0100
0001
0001
0001
,
0100
0010
0000
0001
,
1000
0000
0010
0100
,
0010
0100
0000
0001
,
0100
0000
1000
0100
,
1000
0100
0000
0010
,
0100
0000
0001
1000
,
0001
1000
0000
0010
,
0001
0000
0010
1000
,
1000
1000
0010
0001
,
0010
0010
0000
0000
,
1000
0100
0100
0100
,
1000
0100
0000
0000
,
0001
0100
0100
0100
,
0001
0100
0000
0000
,
1000
0010
0010
1000
,
0010
0001
0001
0010
,
0001
0000
0000
1000
,
0001
0000
0000
0000
,
0110
0000
0000
0001
,
1000
0000
0000
0000
,
0110
0000
0000
1000
,
0001
1000
0100
0100
,
1000
0001
0100
0100
,
0010
0010
0100
0100
,
0001
0000
0000
1000
,
0100
0100
0100
0100
,
1000
0000
0000
0001
,
0100
0100
0100
0001
,
0100
0000
0000
1000
,
0100
0100
1000
0100
,
1000
0000
0000
0001
,
0100
0001
0100
0001
,
0100
0000
0000
1000
,
0010
0000
0001
0010
,
0010
0000
0000
1000
,
0100
0000
0001
0100
,
0100
0000
0000
0010
,
0100
0000
1000
0001
,
0001
0000
1001
0000
,
0010
0100
0010
0010
,
0100
1000
0000
0001
,
1000
0100
0000
1000
,
0001
0010
0000
0100
,
0001
0010
0000
0100
,
1000
0100
0010
0001
,
0001
0001
0100
0010
,
0010
1000
0001
0001
,
0100
0100
0100
0100
,
1001
0000
0000
0000
;

//---------------dance-single - ----------------
#NOTES:
     dance-single:
     :
     Medium:
     5:
     :
0000
0000
0000
0000
,
0000
0000
0000
0000
,
0000
0000
0000
0000
,
0000
0000
0000
0000
,
0011
0000
0000
0000
,
1100
0000
0000
0000
,
1001
0010
0001
0010
,
1000
0001
0100
1001
,
0110
1000
0001
1000
,
0010
0100
0001
1000
,
0220
0000
0000
0330
,
0001
0010
0001
0010
,
1000
0100
1000
0100
,
0010
0100
0010
0100
,
0001
0000
0100
0000
0001
0000
0100
1000
,
0010
0100
0010
0100
,
0001
1000
0001
1000
,
0001
0100
0001
0100
,
1000
0000
0100
0000
1000
0000
0100
0001
,
0100
1001
0000
1000
,
0100
0010
0000
1000
,
0100
0010
0000
1000
,
0100
0010
0000
0100
,
1001
0100
0000
0001
,
0110
0001
0000
0010
,
1001
0010
0000
1000
,
0110
1000
1001
0100
,
0002
0100
0000
0100
0000
0100
0000
0100
,
0000
0100
0000
0100
0000
0103
0000
1000
,
0200
0010
0000
0010
0000
0010
0000
0010
,
0000
0010
0000
0010
0000
0310
0000
0001
,
2000
0100
0000
0100
0000
0100
0000
0100
,
0000
0100
0000
0100
0000
3100
0000
1000
,
0002
0010
0000
0010
0000
0010
0000
0010
,
0000
0010
0000
0010
0000
0013
0000
0100
,
0100
1100
0000
0101
,
0000
0011
0000
0001
,
0010
0100
0000
1010
,
0000
0110
0000
0100
,
0010
0001
0000
1001
,
0000
0110
0000
0010
,
0100
1000
0000
0100
,
0010
0100
0010
0100
,
0001
1000
0001
1000
0000
0000
0001
0000
,
0000
0010
0000
0100
,
1000
0001
1000
0001
0000
0000
1000
0000
,
0000
0001
0000
1000
,
0010
0100
0010
0100
0000
0000
0001
0000
,
0000
1000
0000
0001
,
0100
0010
0100
0010
0000
0000
0010
0000
,
0000
1000
0000
0001
,
1000
0100
1000
0100
0000
0000
0001
0000
,
0010
0001
0010
0001
0000
0000
0100
0000
,
0010
0100
0010
0100
0000
0000
0001
0000
,
0100
0001
0100
0001
0000
0000
1000
0000
,
0001
0100
0000
0000
0010
0100
0000
0000
,
1000
0100
0000
0000
0010
0100
0000
0000
,
0001
0010
0000
0000
0100
0010
0000
0000
,
1000
0010
0000
0000
0100
0010
0000
0000
,
0001
0000
1000
0100
0000
0001
0100
0000
,
1000
0000
0100
0010
0000
0010
0100
0000
,
0001
0000
0100
0001
0000
0001
0100
0000
,
1000
0000
0001
0100
0000
1000
0100
0000
,
0001
1000
0001
1000
0000
0000
0110
0000
,
0010
0100
0010
0100
0000
0000
1001
0000
,
1000
0100
0010
0000
0001
0010
0100
0000
,
2000
0100
0000
0100
0000
3100
0000
0001
,
0010
0000
0000
0000
;

//---------------dance-single - ----------------
#NOTES:
     dance-single:
     :
     Hard:
     8:
     :
0000
0000
0000
0000
,
0000
0000
0000
0000
,
0000
0000
0000
0000
,
0000
0000
0000
0000
,
1100
0000
0000
0101
0000
0000
0000
0000
0000
0000
0000
0000
0000
0000
0000
0000
,
1010
0000
0000
0011
0000
0000
1001
0000
0000
0000
0000
0000
0000
0000
0000
0000
,
1001
0100
0010
0100
,
0010
0100
0010
0100
,
0001
0000
0000
0001
0000
0000
0001
0000
1000
0000
0000
1000
0000
0000
1000
0000
,
0100
0010
0001
0100
0010
1000
0100
0000
,
2002
0000
0000
3000
0003
0001
1000
1000
,
1001
0100
0001
1000
,
0100
0000
1000
0000
0001
0000
0010
0001
,
1000
0010
0001
0010
,
1000
0000
0100
0000
0001
0000
0100
1000
,
0001
0010
0001
1000
,
0010
0000
0001
0000
0010
0000
1000
0001
,
0100
0100
0100
0100
0010
0010
0010
0010
,
1000
0001
0000
0100
0010
0100
0000
0001
1000
0001
1000
0001
0100
0000
0010
0000
,
1001
1000
1000
1000
,
0010
0100
0100
0100
,
0001
0010
0010
0010
,
0100
0000
1000
0000
1000
0000
1000
0001
,
0010
0100
1000
0001
,
0100
0000
0010
0000
1000
0000
0010
0100
,
0001
0001
0010
0010
0100
0100
1000
1000
,
0100
0010
0100
1000
0001
0100
0010
0100
,
1001
0000
0000
0000
0100
0000
0000
0010
0001
0000
0000
0000
1000
0000
0001
0000
,
0100
0000
0000
0000
0010
0000
0000
1000
0100
0000
0000
0000
0010
0000
0100
0000
,
0001
0000
0000
0000
0100
0000
0000
1000
0010
0000
0000
0000
0100
0000
0001
0000
,
0010
0000
0000
0000
0100
0000
0000
0001
0100
0000
1000
0000
0001
0000
1000
0000
,
1001
0000
0000
0000
0001
0000
0000
1000
0010
0000
0000
0000
0100
0000
0001
0000
,
0001
0000
0000
0000
1000
0000
0000
0001
0010
0000
0000
0000
0100
0000
1000
0000
,
1000
0000
0000
0000
0001
0000
0000
0010
0100
0000
0000
0000
1000
0000
0001
0000
,
1000
0000
0100
0000
0001
0000
0100
0000
0010
0001
0000
1000
0000
0001
0100
0000
,
1001
0000
0000
0000
0100
0000
0000
0000
0001
0000
0000
0100
0000
0000
0001
0000
,
1000
0000
0000
0000
0100
0000
0000
0000
1000
0000
0000
0100
0000
0000
1000
0000
,
0010
0000
0000
0000
1000
0000
0000
0000
0010
0000
0000
1000
0000
0000
0010
0000
,
0100
0000
0000
0000
0001
0000
0000
0000
0100
0000
0000
0001
1000
0000
0010
0000
,
0020
0000
0000
0000
0130
0000
0000
0000
1000
0010
0000
0010
0100
0000
0001
0000
,
0200
0000
0000
0000
0310
0000
0000
0000
0001
0100
0000
0100
0010
0000
1000
0000
,
0200
0000
0000
0000
0310
0000
0001
0000
1000
0001
0000
0001
1000
0000
0001
0000
,
0010
0000
0011
0000
0000
1001
0000
0000
0101
0000
0000
0110
0000
0000
1010
0000
,
1002
0000
1003
0100
0010
0001
1000
0001
,
0100
0010
1000
0001
1000
0100
0010
0100
,
2000
0000
3001
0010
0100
1000
0001
1000
,
0010
0100
0001
1000
0001
0010
0100
0010
,
0002
0000
0103
0001
0010
0100
1000
0100
,
0010
1000
0010
0001
0100
0010
1000
0001
,
2000
0000
3010
1000
0100
0010
0001
0010
,
0100
0001
0100
1000
0010
0100
0001
1000
,
0100
0010
0001
0010
0100
1000
0010
0100
,
0001
0100
0010
1000
0001
0100
0010
1000
,
0100
0001
0100
1000
0001
0100
0010
0001
,
0010
0100
1000
0100
0010
1000
0010
0001
,
0010
0100
0001
1000
0001
0010
0100
0001
,
0100
0010
1000
0010
0001
1000
0010
0100
,
0001
1000
0100
0010
0100
0001
0100
0010
,
0100
1000
0010
0001
0010
0100
0010
1000
,
0001
0000
0010
0000
0100
1000
0000
0001
0000
0010
0100
0000
1000
0000
0001
0000
,
0010
0000
0001
0000
1000
0010
0000
0100
0000
0001
1000
0000
0010
0000
0100
0000
,
0001
0000
0010
0000
0001
1000
0000
0100
0000
1000
0010
0000
0100
0000
0010
0000
,
1000
0000
0100
0000
1000
0001
0000
0010
0000
0001
0100
0000
0010
0000
0100
0000
,
0001
0000
1000
0000
0100
0010
0000
0100
0000
0010
0001
0000
0100
0000
0001
1000
,
0001
0000
1000
0000
0010
0100
0000
0010
0000
0100
0001
0000
1000
0000
0100
0010
,
0100
0000
1000
0000
0001
0000
0100
0010
0100
0000
0001
0000
1000
0000
1001
0000
,
0110
0000
0101
0000
0000
1001
0000
0000
0110
0000
0000
1100
0000
0000
0011
0000
,
1001
0000
0000
0000
;

//---------------dance-double - ----------------
#NOTES:
     dance-double:
     :
     Beginner:
     1:
     :
00000000
00000000
00000000
00000000
,
00000000
00000000
00000000
00000000
,
00000000
00000000
00000000
00000000
,
00000000
00000000
00000000
00000000
,
00000001
00000000
00000000
00000000
,
00001000
00000000
00000000
00000000
,
01000000
00000000
00000000
00000000
,
00100000
00000000
00000000
00000000
,
00001000
00000000
00000000
00000000
,
00010000
00000000
00000000
00000000
,
00001001
00000000
00000000
00000000
,
00000001
00000001
00000000
00000000
,
00001000
00001000
00000000
00000000
,
00010000
00010000
00000000
00000000
,
01000000
01000000
00000000
00000000
,
00001000
00001000
00000000
00000000
,
00100000
00100000
00000000
00000000
,
00010000
00010000
00000000
00000000
,
10000000
10000000
00000000
00000000
,
00010000
00000000
00000000
00000000
,
00000000
00000000
00000000
00000010
,
00000010
00000000
00000000
00000000
,
00000000
00000000
00000000
00001000
,
00001000
00000000
00000000
00000000
,
01000000
00000000
00000000
00000000
,
00010000
00000000
00010000
00000000
,
00001000
00001000
00001000
00000000
,
00001000
00000000
00000000
00000000
,
00000001
00000000
00000000
00010000
,
00010000
00000000
00000000
00000000
,
00001000
00000000
00000000
01000000
,
01000000
00000000
00000000
00000000
,
00001000
00000000
00000000
00000010
,
00000010
00000000
00000000
00000000
,
00001000
00000000
00000000
01000000
,
01000000
00000000
00000000
00000000
,
00000001
00000000
00000000
00000000
,
00010000
00000000
00000000
00000000
,
01000000
00000000
00000000
00000000
,
00000100
00000000
00000000
00000000
,
10000000
00000000
00000000
00000000
,
00000100
00000000
00000000
00000000
,
00010000
00000000
00010000
00000000
,
00010000
00000000
00000000
00000100
,
00000100
00000000
00000100
00000100
,
00000100
00000000
00000000
00000000
,
00010000
00000000
00000000
01000000
,
01000000
00000000
01000000
01000000
,
01000000
00000000
00000000
00000000
,
00001000
00000000
00000000
00000010
,
00000010
00000000
00000010
00000010
,
00000010
00000000
00000000
00000000
,
00001000
00000000
00000000
00000000
,
00010000
00000000
00000000
00000000
,
00000001
00000000
00000000
00010000
,
00010000
00000000
00000000
01000000
,
01000000
00000000
00000000
00001000
,
00001000
00000000
00010000
00000000
,
00010000
00000000
01000000
00000000
,
01000000
00000000
00000000
00000000
,
00000000
00000000
00000000
00001000
,
00001000
00000000
00000000
00000000
,
00000000
00000000
00000000
00010000
,
00010000
00000000
00000000
00000000
,
00000010
00000000
00000000
00000000
,
00000001
00000000
00000001
00000000
,
00001000
00001000
00000000
00000100
,
00000100
00000000
00000000
00000000
;

//---------------dance-double - ----------------
#NOTES:
     dance-double:
     :
     Easy:
     4:
     :
00000000
00000000
00000000
00000000
,
00000000
00000000
00000000
00000000
,
00000000
00000000
00000000
00000000
,
00000000
00000000
00000000
00000000
,
00020000
00000000
00000000
00030000
,
00002000
00000000
00000000
00003000
,
00010000
00000000
00100000
00000000
,
00010000
00000000
00001000
00000000
,
00000100
00000000
00001000
00000000
,
00010000
00100000
00010000
00001000
,
00022000
00000000
00000000
00033000
,
00001000
00000000
00000100
00000000
,
00000001
00001000
00000001
00000000
,
00000010
00000000
00001000
00000000
,
00010000
00001000
00010000
00000000
,
00100000
00000000
10000000
00000000
,
00010000
10000000
00010000
00000000
,
00100000
00000000
00001000
00000000
,
00010000
00001000
00010000
00001000
,
00010000
00000100
00000000
00001000
,
00000010
00000100
00000000
00000001
,
00000100
00001000
00000000
00010000
,
00001000
00001000
00010000
00010000
,
00100000
01000000
00000000
00010000
,
10000000
01000000
00000000
00100000
,
00010000
01000000
00000000
00001000
,
00010000
00100000
00010000
00001000
,
00010000
00001000
00000100
00000000
,
00000010
00001000
00000100
00000000
,
00000010
00000001
00000100
00000000
,
00000001
00001000
00000100
00010000
,
00001000
00010000
00100000
00000000
,
10000000
00010000
00100000
00000000
,
01000000
00100000
01000000
00000000
,
00010000
00001000
00000100
00001000
,
00010000
00000000
00000000
00000100
,
00000010
00000000
00000000
00000000
,
00011000
00000000
00000000
00100000
,
01000000
00000000
00000000
00000000
,
00011000
00000000
00000000
00000100
,
00000010
00000000
00000000
00001000
,
00011000
00010000
00011000
00001000
,
00100000
00010000
01000000
00100000
,
01100000
00000000
01000000
00000000
,
00100000
10000000
01000000
00010000
,
00001000
00000000
00001000
00000000
,
00000100
00000001
00000010
00001000
,
00010000
00000000
00010000
00000000
,
01000000
10000000
00100000
00010000
,
00001000
00000000
00001000
00000000
,
00000100
00000001
00000010
00000100
,
00001002
00000003
00000002
00000003
,
00001000
00000100
00010000
00001000
,
00020000
00030000
02000000
03000000
,
10000000
00010000
01000000
00010000
,
00200000
00300000
00002000
00003000
,
00010000
00001000
00010000
00000100
,
00002000
00003000
00000002
00000003
,
00000100
00001000
00010000
00001000
,
00011000
00010000
01000000
01000000
,
10000000
10000000
00200000
00300000
,
01000000
01000000
00100000
00100000
,
00010000
00010000
00002000
00003000
,
00010000
00010000
00001000
00001000
,
00000100
00000001
00002000
00003000
,
00000010
00010000
00001000
00100000
,
00001000
00010000
00000100
00010000
,
00011000
00000000
00000000
00000000
;

//---------------dance-double - ----------------
#NOTES:
     dance-double:
     :
     Medium:
     5:
     :
00000000
00000000
00000000
00000000
,
00000000
00000000
00000000
00000000
,
00000000
00000000
00000000
00000000
,
00000000
00000000
00000000
00000000
,
10010000
00000000
00000000
00000000
,
00010000
00000000
00000000
00000000
,
00001001
00000000
00000000
00000000
,
00000001
00000000
00000000
00000000
,
00001000
00000000
00010000
00000000
,
10000000
00000000
00010000
00000000
10000000
00010000
10000000
00010000
,
02000000
00000000
10000000
03010000
,
10000000
01000000
00100000
01000000
,
00010000
00001000
00010000
00000100
,
00001000
00000100
00000010
00000001
,
00000100
00000000
00000010
00000000
00001000
00000000
00000100
00000100
,
00000100
00010000
00001000
00100000
,
00001000
01000000
00010000
00100000
,
01000000
10000000
00010000
01000000
,
00001000
00100000
00001000
00010000
00000000
00010000
00000000
00010000
,
00001000
00000100
00000001
00000100
,
00001000
00000000
00000100
00000000
00000001
00000000
00000010
00001000
,
00010000
01000000
10000000
01000000
,
00010000
00000000
01000000
10000000
00010000
00000000
01000000
00001000
,
00010000
00001000
00100000
00001000
,
00010000
00000000
00001000
00000000
00100000
00000000
00001000
00010000
,
00000100
00010000
00001000
00010000
,
00000100
00010000
00000100
00000000
00001000
00000010
00000100
00000001
,
00001000
00000100
00000010
00001000
,
00000010
00000000
00000100
00000000
00001000
00000000
00000100
00010000
,
00001000
00010000
00000100
00000000
00010000
00000000
00001000
00000000
,
00100000
00000000
00001000
00100000
00010000
00000000
00010000
00100000
,
01000000
00100000
00010000
00100000
,
01000000
00000000
10000000
00000000
01000000
00000000
00010000
00001000
,
00100000
00001000
00010000
00000000
00001000
00000000
00010000
00000000
,
00001000
00010000
00000100
00000000
00000100
00001000
00000010
00000000
,
00000100
00000002
00000003
00001000
,
00000100
00020000
00030000
00001000
,
00100000
00020000
00030000
10000000
,
00100000
01000000
00010000
10000000
,
10020000
00030000
20000000
30000000
,
02000000
03000000
00020000
00030000
,
00002000
00003100
00000002
00000013
,
00002000
00000000
00013000
00000000
00001000
00010000
00001000
00010000
,
00001000
00010000
00100000
10000000
,
01000000
00000000
00010000
00000000
00001000
00010000
00000100
00010000
,
00001000
00000100
00000001
00000010
,
00001000
00000000
00010000
00000000
01000000
10000000
00100000
10000000
,
01000000
00010000
00001000
00000010
,
00000001
00000000
00000100
00000000
00001000
00010000
00000100
00010000
,
00001000
00010000
00100000
10000000
,
01000000
00000000
00010000
00000000
00001000
00010000
00001000
00010000
,
00001000
00100000
00001000
00010000
,
00000100
00010000
00001000
00000000
00100000
00001000
00010000
00000000
,
00001000
00010000
00001000
00000100
,
00000001
00000010
00000100
00000000
00001000
00000010
00000100
00000000
,
00000001
00000010
00001000
00010000
,
00001000
00100000
00010000
00000000
00010000
01000000
00100000
00000000
,
10000000
00010000
00100000
01000000
,
10000000
01000000
10000000
00000000
00010000
00100000
00010000
00000000
,
10010000
00100000
00010000
00001000
,
00000100
00000000
00000001
00000000
00001000
00000001
00001000
00000000
,
00001001
00000010
00001000
00010000
,
01000000
00000000
10000000
00000000
00010000
10000000
00010000
00000000
,
10010000
01000000
00100000
00010000
,
00011000
00001000
00000100
00000010
,
00001001
00000100
00000110
00001000
,
00011000
00101000
00011000
00010010
,
00011000
00000000
00000000
00000000
;

//---------------dance-double - ----------------
#NOTES:
     dance-double:
     :
     Hard:
     9:
     :
00000000
00000000
00000000
00000000
,
00000000
00000000
00000000
00000000
,
00000000
00000000
00000000
00000000
,
00000000
00000000
00000000
00000000
,
10000000
00000000
00000000
10010000
00000000
00000000
00000000
00000000
00000000
00000000
00000000
00000000
00000000
00000000
00000000
00000000
,
00000001
00000000
00000000
00001001
00000000
00000000
00000000
00000000
00000000
00000000
00000000
00000000
00000000
00000000
00000000
00000000
,
10000000
00010000
10000000
00010000
,
00001000
00000001
00000001
00000100
,
00000100
00001000
00001000
00100000
,
00100000
00001000
00001000
00000100
,
00000200
00000000
00000000
00000300
,
00000001
00000000
00001000
00000010
00000100
00000000
00000000
00000000
,
00000010
00000000
00010000
00001000
00010000
00000000
00000000
00000000
,
00001000
00000000
01000000
00100000
10000000
00000000
00000000
00000000
,
00010000
00000000
10000000
00100000
01000000
00000000
00000000
00000000
,
10000000
00000000
00010000
01000000
00100000
00000000
00000000
00000000
,
01000000
00000000
00001000
00010000
00001000
00000000
00000000
00000000
,
00010000
00000000
00000100
00000010
00000001
00000000
00000000
00000000
,
00001001
00000000
00000000
00000101
00000000
00000000
00001001
00000000
00001001
00000000
00000000
00001100
00000000
00000000
00001001
00000000
,
00001001
00000000
00000001
00000100
00001000
00010000
00000000
00000010
,
00001000
00000000
00000001
00000100
00001000
00010000
00000000
01000000
,
10000000
00000000
10000000
00100000
00010000
00001000
00000000
01000000
,
10000000
00000000
10000000
00100000
00010000
00001000
00000000
00000010
,
00000001
00000000
00000100
00001000
00010000
01000000
00000000
00001000
,
00010000
00000000
01000000
00010000
00001000
00000100
00000000
00010000
,
00001000
00000000
00000000
00100000
01000000
00000000
00000000
00100000
,
00010000
01000000
00010000
00100000
00001000
00010000
00001000
00010000
,
00001000
00010000
00001000
00000000
00000000
00000000
00000110
00000000
,
00000001
00001000
00000010
00000000
00000000
00000000
00001100
00000000
,
00000100
00010000
00001000
00000000
00000000
00000000
00011000
00000000
,
00001000
00100000
00010000
00000000
00000000
00000000
00110000
00000000
,
00010000
10000000
01000000
00000000
00000000
00000000
10010000
00000000
,
01000000
00001000
00010000
00000000
00000000
00000000
00000110
00000000
,
00000001
00000100
00000001
00000000
00001000
00000100
00001000
00000000
,
00000001
00001000
00000001
00000100
00001000
00010000
00001000
01000000
,
01010000
00000000
01010000
00010000
10000000
00000000
00000000
00100000
,
01100000
00000000
01100000
01000000
00001000
00000000
00000000
00010000
,
00011000
00000000
00011000
00001000
00000100
00000000
00000000
00000010
,
00000011
00000000
00000011
00000001
00001000
00000000
00000000
00000100
,
00001100
00000000
00001100
00000100
00010000
00000000
01000000
10000000
,
00100000
00000000
00010000
00001000
00000010
00000000
00000001
00000100
,
00001000
00000000
00010000
00001000
00000010
00000000
00001000
00010000
,
00100000
00000000
00000000
00000000
10000000
00000000
00010000
00000000
00100000
00000000
00000000
01000000
00000000
00000000
01000000
00000000
,
00100000
00010000
01000000
00001000
00010000
00000100
00001000
00000010
,
00000100
00000010
00001000
00000100
00000010
00000001
00000100
00000010
,
00010000
00001000
00100000
00010000
10000000
01000000
00100000
00001000
,
00010000
00000010
00001000
00000100
00010000
00001000
00100000
00010000
,
01000000
00001000
00010000
00000010
00001000
00000100
00010000
00001000
,
00100000
00010000
01000000
00100000
01000000
00100000
01000000
00100000
,
01000000
00010000
10000000
01000000
00010000
00001000
00000100
00000001
,
00000010
00000100
00000010
00000100
00000010
00000100
00000010
00000000
,
00000001
00000000
00001000
00000100
00001000
00000100
00000000
00000200
00000000
00000000
00000000
00000000
00000300
00000000
00000000
00000000
,
00000100
00000000
00010000
00001000
00010000
00001000
00000000
00002000
00000000
00000000
00000000
00000000
00003000
00000000
00000000
00000000
,
00001000
00000000
01000000
00010000
01000000
00010000
00000000
00020000
00000000
00000000
00000000
00000000
00030000
00000000
00000000
00000000
,
00010000
00000000
10000000
01000000
10000000
01000000
00000000
01000000
00000000
00000000
10000000
00000000
01000000
00000000
00100000
00000000
,
00010000
00000000
10000000
01000000
10000000
01000000
00000000
01000000
00000000
00000000
00010000
00000000
00001000
00000000
00000100
00000000
,
00000001
00000000
00001000
00000100
00001000
00000100
00000000
00000100
00000000
00000000
00000010
00000000
00000001
00000000
00000100
00000000
,
00001000
00000000
01000000
00010000
01000000
00010000
00000000
00010000
00000000
00000000
10000000
00000000
01000000
00000000
00010000
00000000
,
00001000
00000000
00000100
00000001
00000100
00000001
00000000
00000001
00000000
00000000
00000010
00000000
00000100
00000000
00001000
00000000
,
00000100
00000000
00000010
00000001
00000020
00000000
00000000
00000000
00000031
00000000
00000000
00000000
00000100
00000000
00001000
00000000
,
00010000
00000000
00001000
00010000
00002000
00000000
00000000
00000000
00013000
00000000
00000000
00000000
01000000
00000000
10000000
00000000
,
00100000
00000000
10000000
00100000
02000000
00000000
00000000
00000000
03010000
00000000
00000000
00000000
00100000
00000000
00001000
00000000
,
00010000
00000000
00001000
00010000
00002000
00000000
00000000
00000000
01003000
00000000
00000000
00000000
00010000
00000000
00100000
00000000
,
00010000
00000000
01000000
00010000
00200000
00000000
00000000
00000000
00301000
00000000
00000000
00000000
00010000
00000000
00001000
00000000
,
00000100
00000000
00000001
00001000
00000200
00000000
00000000
00000000
00001300
00000000
00000000
00000000
00000001
00000000
00000100
00000000
,
00000001
00000000
00000010
00000001
00000100
00000000
00000110
00000000
00000110
00000000
00000100
00000001
00000010
00000000
00000110
00000000
,
00000110
00000000
00000000
00000001
00000000
00000000
00000100
00000000
00000000
00001000
00000000
00000000
00010000
00000000
01000000
00000000
,
10010000
00000000
00000000
00000000
;
