#TITLE:Evolution;
#ARTIST:Nevarakka;
#BANNER:Evolution.png;
#BACKGROUND:Evolution-bg.png;
#CDTITLE:./CDTITLES/Song Pack 14.png;
#MUSIC:Evolution.ogg;
#SAMPLESTART:54.72;
#SAMPLELENGTH:15;
#DISPLAYBPM:136;
#BPMS:0=136.008;

//---------------dance-single - ----------------
#NOTES:
     dance-single:
     :
     Beginner:
     1:
     :
0000
0000
0000
0000
,
0000
0000
0000
0000
,
0000
0000
0000
0000
,
0000
0000
0000
0000
,
0000
0000
0000
0000
,
1000
0000
0000
0000
,
0100
0000
0000
0000
,
1000
0000
0000
0000
,
0100
0000
0000
0000
,
0001
0000
0000
0000
,
0100
0000
0000
0000
,
0001
0000
0000
0000
,
0100
0000
0000
0000
,
1001
0000
0000
0000
,
0000
0000
0000
0000
,
0100
0000
0000
0000
,
0000
0000
0000
0000
,
0100
0000
0000
0000
,
0100
0000
0000
0000
,
0010
0000
0000
0000
,
0010
0000
0000
0000
,
1000
0000
0000
0000
,
0000
0000
0000
0000
,
0001
0000
0000
0000
,
0000
0000
0000
0000
,
1000
0000
1000
0000
,
1000
0000
0000
0000
,
0001
0000
0001
0000
,
0001
0000
0000
0000
,
1001
0000
0000
0000
,
0000
0000
0000
0000
,
0100
0000
0000
0000
,
1000
0000
0000
0000
,
0100
0000
0000
0000
,
0001
0000
0000
0000
,
0010
0000
0000
0000
,
1000
0000
0000
0000
,
0010
0000
0000
0000
,
0001
0000
0000
0000
,
0100
0000
0100
0000
,
0100
0000
0000
0000
,
1000
0000
0000
0000
,
0001
0000
0000
0000
,
0100
0000
0100
0000
,
0100
0000
0000
0000
,
0001
0000
0000
0000
,
1000
0000
0000
0000
,
0010
0000
0010
0000
,
0010
0000
0000
0000
,
1000
0000
0000
0000
,
0001
0000
0000
0000
,
0010
0000
0010
0000
,
0010
0000
0000
0000
,
0001
0000
0000
0000
,
1000
0000
0000
0000
,
0010
0000
0010
0000
,
0010
0000
0000
0000
;

//---------------dance-single - ----------------
#NOTES:
     dance-single:
     :
     Easy:
     4:
     :
0000
0000
0000
0000
,
0000
0000
0000
0000
,
0000
0000
0000
0000
,
0000
0000
0000
0000
,
0000
0000
0000
0000
,
1000
0001
1000
0001
,
1000
0100
1000
0100
,
0001
1000
0001
1000
,
0001
0100
0001
0100
,
1000
0001
1000
0001
,
1000
0010
1000
0010
,
0001
1000
0001
1000
,
0001
0010
0001
0010
,
2000
0000
0000
3000
,
0002
0000
0000
0003
,
2000
0000
0000
3000
,
0002
0000
0000
0003
,
2000
0000
3200
0000
,
0320
0000
0032
0000
,
2003
0000
3200
0000
,
0320
0000
0032
0000
,
1003
0000
0100
0000
,
0001
0000
0010
0000
,
1000
0000
0100
0000
,
0001
0000
0010
0000
,
1000
0010
1000
0010
,
0100
0001
0100
0001
,
0010
0001
0010
0001
,
1000
0100
1000
0100
,
2002
0000
0000
3003
,
0000
0000
0000
0000
,
1000
0000
0010
0100
,
0001
0000
0010
0100
,
1000
0000
0100
0010
,
0001
0000
0100
0010
,
1000
0000
0001
1000
,
0100
0000
1000
0001
,
0100
0000
0001
1000
,
0010
0000
1000
0001
,
0020
0000
0000
0030
,
1000
0001
1000
0002
,
0103
0010
1000
0020
,
0130
0001
0100
0002
,
2003
0000
3002
0000
,
0013
0100
0010
0200
,
1300
0010
1000
0002
,
0013
0100
1000
0020
,
2030
0000
3002
0000
,
1003
0100
1000
1020
,
0130
0001
0010
0012
,
0103
1000
0001
1002
,
2003
0000
3002
0000
,
0103
0010
1000
1200
,
0310
0001
0100
0102
,
0013
1000
0001
1002
,
2003
0000
3002
0000
,
0203
0300
2002
0000
,
0000
0000
0000
0000
,
3003
0000
0000
0000
;

//---------------dance-single - ----------------
#NOTES:
     dance-single:
     :
     Medium:
     5:
     :
0000
0000
0000
0000
,
0000
0000
0000
0000
,
0000
0000
0000
0000
,
0000
0000
0000
0000
,
0000
0000
0000
0000
,
0010
0000
0000
0100
0000
0000
0010
0000
0001
0000
0000
0000
1001
0000
0000
0000
,
0010
0000
0000
0100
0000
0000
0010
0000
1000
0000
0000
0000
1001
0000
0000
0000
,
0001
0000
0000
1000
0000
0000
0001
0000
0100
0000
0000
0000
0110
0000
0000
0000
,
1000
0000
0000
0001
0000
0000
1000
0000
0100
0000
0000
0000
0110
0000
0000
0000
,
0001
0000
1000
0000
0001
1000
0100
0000
,
1000
0000
0001
0000
1000
0001
0100
0000
,
0010
1000
0100
0000
0010
0001
0100
0000
,
0001
1000
0001
1000
,
0002
0000
0000
0003
,
2000
0000
0000
3000
,
0002
0000
0000
0003
,
2000
0000
0000
3000
,
0002
1000
0000
1003
,
0020
1000
0000
1030
,
0200
1000
0000
1300
,
2000
0001
0000
3001
,
1000
0100
1000
0100
,
0001
0100
0001
0100
,
0001
0010
0001
0010
,
1000
0010
1000
0010
,
1000
0100
0010
0000
0010
0100
1000
0000
,
0001
0010
0100
0000
0100
0010
0001
0000
,
1000
0100
0010
0001
0010
0100
1000
0000
,
0001
0010
0100
1000
0100
0010
0001
0000
,
2002
0000
0000
3003
,
0110
0000
0000
0000
,
2000
3001
0020
0130
,
2000
3010
0200
0301
,
0020
1030
0020
0031
,
2000
3100
0002
0103
,
2000
0000
3001
0000
0200
0000
0310
0010
,
0020
0000
1030
0000
0002
0000
0103
0100
,
0200
0000
0301
0000
2000
0000
3001
0001
,
0002
0000
0013
0000
0200
0000
1300
1000
,
2002
0000
0000
3003
,
1000
0000
1001
0000
0001
0000
0100
0200
,
0001
0000
0301
0000
0010
0000
0100
1000
,
0100
0000
0110
0000
0010
0000
0001
0002
,
1000
0000
1003
0000
0100
0000
0010
0001
,
0010
0000
1001
0000
0100
0000
1000
2000
,
0001
0000
3001
0000
0010
0000
0100
1000
,
0100
0000
1001
0000
0010
0000
0001
0002
,
1000
0000
1003
0000
0010
0000
0100
0100
,
0001
0000
1001
0000
1000
0000
0100
0200
,
1000
0000
1300
0000
0010
0000
0100
0001
,
0100
0000
0110
0000
0010
0000
1000
2000
,
0001
0000
3001
0000
0100
0000
0010
1000
,
0010
0000
1001
0000
0100
0000
0001
0002
,
1000
0000
1003
0000
0010
0000
0100
0001
,
0100
0000
1001
0000
0010
0000
1000
2000
,
0001
0000
3001
0000
0010
0000
0100
1000
,
0200
0000
0300
0000
1000
0100
0010
0002
,
0000
0000
0000
0000
,
0003
0000
0000
0000
;

//---------------dance-single - ----------------
#NOTES:
     dance-single:
     :
     Hard:
     8:
     :
0000
0000
0000
0000
,
0000
0000
0000
0000
,
0000
0000
0000
0000
,
0000
0000
0000
0000
,
0000
0000
0000
0000
,
1000
0000
0000
0001
0000
0000
1000
0000
0100
0000
0000
0000
1000
0000
1000
0000
,
0001
0000
0000
1000
0000
0000
0001
0000
0100
0000
0000
0000
0001
0000
0001
0000
,
1000
0000
0000
0010
0000
0000
1000
0000
0001
0000
0000
0000
1000
0000
1000
0000
,
0001
0000
0000
0010
0000
0000
0001
0000
1000
0000
0000
0000
0001
0000
1000
0000
,
0001
0000
0000
0010
0100
0000
1000
0000
0010
0000
0100
0000
0001
0000
0001
0000
,
1000
0000
0000
0010
0100
0000
0001
0000
0010
0000
0100
0000
1000
0000
1000
0000
,
0001
0000
0000
0100
0010
0000
1000
0000
0100
0000
0001
0000
0100
0000
0100
0000
,
1000
0000
0000
0100
0010
0000
0001
0000
0100
0000
1000
0000
0100
0000
0100
0000
,
0002
1000
0000
1003
,
2000
0001
0000
3001
,
0002
0100
0000
0103
,
2000
0100
0000
3100
,
0002
0010
0010
0013
,
0020
0100
0100
0130
,
0200
1000
1000
1300
,
2000
0000
0000
0000
0001
0000
0000
0000
3001
0000
0000
0000
1001
0000
0000
0100
,
0000
1000
0000
0000
0001
0000
0000
0010
0000
0001
0000
0000
1000
0000
0000
0010
,
0000
1000
0000
0000
0001
0000
0000
0100
0000
0001
0000
0000
1000
0000
0000
0010
,
0000
1000
0000
0000
0100
0000
0000
0010
0000
0001
0000
0000
0100
0000
0000
0001
,
0000
0010
0000
0000
0100
0000
0000
1000
0000
0100
0000
0000
0010
0000
0000
0001
,
0000
1000
0100
0000
1100
0000
0000
1000
0000
0001
0100
0000
0101
0000
0000
0001
,
0000
1000
0010
0000
1010
0000
0000
1000
0000
0001
0010
0000
0011
0000
0000
0000
,
0000
0001
1000
0000
0000
1000
0001
0000
0000
0001
1000
0000
0000
1000
0001
0000
,
0000
0001
0010
0000
0000
0100
1000
0000
0000
0001
0010
0000
0000
0100
1000
0000
,
2002
0000
0000
3003
,
0001
0000
1000
0100
0000
1001
0000
0000
0000
0000
0000
0000
0000
0000
0000
0000
,
0100
0001
0100
0000
0002
0000
0000
1003
0000
0010
1000
0000
0200
0000
0000
1300
,
0000
0100
0010
0000
2000
0000
0000
3010
0000
0001
0100
0000
0020
0000
0000
1030
,
0000
0001
0010
0000
0200
0000
0000
0310
0000
0001
1000
0000
0002
0000
0000
0103
,
0000
0010
1000
0000
0200
0000
0000
0301
0000
0100
1000
0000
1001
0000
0000
0000
,
0010
1000
0010
0000
1020
0000
0000
0031
0000
0100
0001
0000
0012
0000
0000
0003
,
0000
0010
0100
0000
0102
0000
0000
0103
0000
1000
0010
0000
0120
0000
0000
0031
,
0000
1000
0100
0000
0120
0000
0000
0130
0000
1000
0001
0000
1002
0000
0000
0013
,
0000
0100
0001
0000
0012
0000
0000
1003
0000
0010
0001
0000
1001
0000
0100
0000
,
2002
0000
0000
3003
,
1000
0001
1000
0000
0001
0010
0000
0010
0001
0000
0001
1000
0000
0200
0000
0000
,
1300
0010
1000
0000
0001
0010
0000
0100
1000
0100
0010
0000
0001
0100
0000
0001
,
1000
0001
1000
0000
0001
0100
0000
0100
0001
0000
0001
1000
0000
0200
0000
0000
,
1300
0010
1000
0000
0001
0010
0001
0000
1000
0001
1000
0001
1000
0010
0100
0000
,
0001
0010
0001
0000
1000
0010
0000
0010
0100
0000
0100
0001
0000
0020
0000
0000
,
0031
1000
0001
0000
0010
0100
0000
1000
0001
1000
0010
0000
0100
0001
0000
1000
,
0100
1000
0100
0000
0010
0100
0000
0100
1000
0000
1000
0001
0000
0200
0000
0000
,
0301
0010
0001
0000
1000
0010
1000
0000
0001
1000
0001
1000
0001
0100
0010
0000
,
1000
0001
0100
0000
0001
0010
0000
0100
1000
0000
0001
0100
0000
0020
0000
0000
,
1030
0001
0100
0000
0001
1000
0000
0010
0100
0001
0100
0000
0010
1000
0000
0001
,
1000
0001
0010
0000
0100
0010
0000
0001
1000
0000
0010
0100
0000
0002
0000
0000
,
1003
0100
0010
0000
0100
1000
0001
0000
0010
0100
1000
0100
0010
0100
1000
0000
,
0001
1000
0010
0000
0100
0001
0000
1000
0010
0000
0100
0001
0000
0020
0000
0000
,
0130
1000
0001
0000
0010
0001
0000
1000
0001
1000
0100
0000
0010
0100
0000
1000
,
0100
0010
0001
0000
1000
0100
0000
1000
0001
0000
1000
0100
0000
0020
0000
0000
,
0031
0100
0001
0000
1000
0100
1000
0000
0010
0100
0001
1000
0100
1000
0010
0000
,
0200
0000
0000
0000
0000
0000
0000
0000
0301
0000
1000
0001
0000
2002
0000
0000
,
0000
0000
0000
0000
,
3003
0000
0000
0000
;

//---------------dance-double - ----------------
#NOTES:
     dance-double:
     :
     Beginner:
     1:
     :
00000000
00000000
00000000
00000000
,
00000000
00000000
00000000
00000000
,
00000000
00000000
00000000
00000000
,
00000000
00000000
00000000
00000000
,
00000000
00000000
00000000
00000000
,
00000010
00000000
00000000
00000000
,
00000001
00000000
00000000
00000000
,
00000100
00000000
00000000
00000000
,
00001000
00000000
00000000
00000000
,
00010000
00000000
00000000
00000000
,
01000000
00000000
00000000
00000000
,
10000000
00000000
00000000
00000000
,
00100000
00000000
00000000
00000000
,
20020000
00000000
00000000
00000000
,
30030000
00000000
00000000
00000000
,
02000000
00000000
00000000
00000000
,
03000000
00000000
00000000
00000000
,
01000000
00000000
00000000
00000000
,
00001000
00000000
00000000
00000000
,
00010000
00000000
00000000
00000000
,
00000100
00000000
00000000
00000000
,
00010000
00000000
00000000
00000000
,
00000000
00000000
00000000
00000000
,
00001000
00000000
00000000
00000000
,
00000000
00000000
00000000
00000000
,
00010000
00000000
00010000
00000000
,
00010000
00000000
00000000
00000000
,
00001000
00000000
00001000
00000000
,
00001000
00000000
00000000
00000000
,
00022000
00000000
00000000
00000000
,
00033000
00000000
00000000
00000000
,
00001000
00000000
00000000
00000000
,
00000100
00000000
00000000
00000000
,
00000001
00000000
00000000
00000000
,
00000100
00000000
00000000
00000000
,
00001000
00000000
00000000
00000000
,
00010000
00000000
00000000
00000000
,
01000000
00000000
00000000
00000000
,
10000000
00000000
00000000
00000000
,
01000000
00000000
01000000
00000000
,
01000000
00000000
00000000
00000000
,
10000000
00000000
00000000
00000000
,
00100000
00000000
00000000
00000000
,
00010000
00000000
00010000
00000000
,
00010000
00000000
00000000
00000000
,
00001000
00000000
00000000
00000000
,
00010000
00000000
00000000
00000000
,
00001000
00000000
00001000
00000000
,
00001000
00000000
00000000
00000000
,
00000010
00000000
00000000
00000000
,
00000001
00000000
00000000
00000000
,
00000100
00000000
00000100
00000000
,
00000100
00000000
00000000
00000000
,
00001000
00000000
00000000
00000000
,
00010000
00000000
00000000
00000000
,
00001000
00000000
00001000
00000000
,
00022000
00000000
00000000
00000000
,
00033000
00000000
00000000
00000000
;

//---------------dance-double - ----------------
#NOTES:
     dance-double:
     :
     Easy:
     4:
     :
00000000
00000000
00000000
00000000
,
00000000
00000000
00000000
00000000
,
00000000
00000000
00000000
00000000
,
00000000
00000000
00000000
00000000
,
00000000
00000000
00000000
00000000
,
00000001
00000100
00000001
00000100
,
00001000
00010000
00001000
00010000
,
01000000
10000000
01000000
10000000
,
00100000
00010000
00100000
00010000
,
00001000
00000010
00001000
00000010
,
00000001
00000100
00000001
00000100
,
00001000
00010000
00001000
00010000
,
01000000
10000000
01000000
10000000
,
00200000
00000000
00000000
00300000
,
00020000
00000000
00000000
00030000
,
00002000
00000000
00000000
00003000
,
00000020
00000000
00000000
00000030
,
00000002
00000000
00000023
00000000
,
00000230
00000000
00002300
00000000
,
00023000
00000000
00230000
00000000
,
02300000
00000000
23000000
00000000
,
31000000
00000000
10000000
00000000
,
00010000
00000000
01000000
00000000
,
00001000
00000000
00010000
00000000
,
00000100
00000000
00001000
00000000
,
00000001
00000010
00000001
00000010
,
00000001
00001000
00000001
00001000
,
00000100
00010000
00000100
00010000
,
00001000
00010000
00001000
00010000
,
00022000
00000000
00000000
00033000
,
00000000
00000000
00000000
00000000
,
01000000
00000000
10000000
00010000
,
00100000
00000000
01000000
00100000
,
00001000
00000000
00010000
01000000
,
10000000
00000000
00100000
00010000
,
00001000
00000000
00010000
00000100
,
00001000
00000000
00000001
00000010
,
00000100
00000000
00000001
00000100
,
00001000
00000000
00010000
01000000
,
20000000
00000000
00000000
30000000
,
01000000
01000000
00010000
00002000
,
00013000
00010000
00000010
00000200
,
00000301
00000001
00000010
00000200
,
00020300
00000000
00032000
00000000
,
00103000
00100000
01000000
20000000
,
30100000
00100000
01000000
00002000
,
00013000
00010000
00000100
00000020
,
00000032
00000000
00002003
00000000
,
00003001
00000010
00000100
00010200
,
00010300
00001000
01000000
01200000
,
00300000
10000000
00010000
00120000
,
00130000
00001000
00010000
00010020
,
00000030
00001000
00000001
00000102
,
00000103
00000010
00010000
00012000
,
00003000
01000000
00010000
00120000
,
00130000
01000000
10000000
10010000
,
02000000
03000000
20020000
00000000
,
00000000
00000000
00000000
00000000
,
30030000
00000000
00000000
00000000
;

//---------------dance-double - ----------------
#NOTES:
     dance-double:
     :
     Medium:
     6:
     :
00000000
00000000
00000000
00000000
,
00000000
00000000
00000000
00000000
,
00000000
00000000
00000000
00000000
,
00000000
00000000
00000000
00000000
,
00000000
00000000
00000000
00000000
,
00000001
00000000
00000000
00001000
00000000
00000000
00000001
00000000
00000200
00000000
00000000
00000000
00001300
00000000
00000000
00000000
,
00010000
00000000
00000000
00001000
00000000
00000000
00100000
00000000
00020000
00000000
00000000
00000000
10030000
00000000
00000000
00000000
,
00100000
00000000
00000000
01000000
00000000
00000000
00001000
00000000
00020000
00000000
00000000
00000000
01030000
00000000
00000000
00000000
,
10000000
00000000
00000000
00010000
00000000
00000000
01000000
00000000
00002000
00000000
00000000
00000000
00013000
00000000
00000000
00000000
,
00000010
00000000
00000000
00001000
00000000
00000000
00000001
00000000
00000200
00000000
00000000
00000000
00000310
00000000
00000000
00000000
,
00010000
00000000
00000000
00000010
00000000
00000000
00001000
00000000
00000002
00000000
00000000
00000000
00000013
00000000
00000000
00000000
,
00001000
00000000
00000000
00010000
00000000
00000000
00001000
00000000
00020000
00000000
00000000
00000000
01030000
00000000
00000000
00000000
,
20000000
00000000
30020000
00000000
,
20030000
00000000
00000000
30000000
,
02000000
00000000
00000000
03000000
,
00200000
00000000
00000000
00300000
,
00020000
00000000
00000000
00030000
,
10000000
00000000
01000000
00010000
,
00001000
00000000
00000100
00000001
,
00000100
00000000
00001000
00010000
,
01000000
00000000
10000000
00100000
,
10000000
01000000
00100000
00010000
,
10000000
01000000
00010000
00001000
,
00000100
00000001
00000100
00000010
,
00001000
00000001
00000100
00001000
,
00010000
00001000
00010000
00000000
00001000
01000000
00001000
00000000
,
00100000
00010000
00100000
00000000
01000000
10000000
01000000
00000000
,
10000000
01000000
00100000
00010000
10000000
01000000
00100000
00000000
,
00001000
00010000
00000010
00000100
00000001
00000010
00000100
00000000
,
00002002
00000000
00000000
00003003
,
00000110
00000000
00000000
00000000
,
00001000
00000000
00001001
00000000
00000100
00010000
00000100
00000000
,
00010000
00000000
00011000
00000000
01000000
00010000
01000000
00000000
,
00100000
00000000
10010000
00000000
01000000
10000000
01000000
00000000
,
00100000
00000000
00101000
00000000
00001000
00010000
00001000
00000000
,
00010000
00000000
00010010
00000000
00001000
00000100
00000010
00000100
,
00001000
00000000
00001100
00000000
00000100
00010000
00001000
00010000
,
00000100
00000000
00010100
00000000
00010000
01000000
10000000
01000000
,
00010000
00000000
01010000
00000000
01000000
00100000
00010000
00100000
,
02000000
00000000
00000000
03000000
,
10000000
00000000
01000000
00000000
00100000
00000000
01000000
10000000
,
00010000
00000000
00100000
00000000
00001000
00000000
00010000
00001000
,
00000010
00000000
00000100
00000000
00001000
00000000
00000001
00000100
,
00000010
00000000
00000100
00000001
00000010
00000000
00000100
00001000
,
00000001
00000000
00000100
00000000
00001000
00000000
00010000
00001000
,
00100000
00000000
00010000
00000000
01000000
00000000
00100000
10000000
,
01000000
00000000
00010000
00000000
00001000
00000000
01000000
00010000
,
10000000
00000000
00100000
10000000
00010000
00000000
00100000
00001000
,
00010000
00000000
00001000
00000000
00011000
00000000
00000100
00001000
,
00000010
00000000
00001000
00000000
00001001
00000000
00000100
00000010
,
00010000
00000000
00001000
00000000
00011000
00000000
00010000
01000000
,
10000000
00000000
00100000
10000000
00010000
00000000
10000000
00010000
,
00100000
00000000
01000000
00000000
11000000
00000000
00100000
00010000
,
00001000
00000000
00000010
00000000
00000011
00000000
00000100
00001000
,
00000001
00000000
00000100
00000000
00000110
00000000
00001000
00000001
,
00000100
00000000
00001000
00000000
00011000
00000000
00010000
01000000
,
20000000
00000000
30000000
00000000
00010000
00100000
01000000
20000000
,
00000000
00000000
00000000
00000000
,
30000000
00000000
00000000
00000000
;

//---------------dance-double - ----------------
#NOTES:
     dance-double:
     :
     Hard:
     9:
     :
00000000
00000000
00000000
00000000
,
00000000
00000000
00000000
00000000
,
00000000
00000000
00000000
00000000
,
00000000
00000000
00000000
00000000
,
00000000
00000000
00000000
00000000
,
00000001
00000000
00000000
00000100
00000000
00000000
00000001
00000000
00000010
00000000
00000000
00000100
00000000
00000000
00010000
00000000
,
00001000
00000000
00000000
00000010
00000000
00000000
00000001
00000000
00001000
00000000
00000000
00000010
00000000
00000000
00010000
00000000
,
01000000
00000000
00000000
10000000
00000000
00000000
00010000
00000000
00100000
00000000
00000000
01000000
00000000
00000000
00010000
00000000
,
01000000
00000000
00000000
10000000
00000000
00000000
00100000
00000000
01000000
00000000
00000000
00001000
00000000
00000000
01000000
00000000
,
00010000
00000000
00000000
00100000
00000000
00000000
00001000
00000000
00000010
00000000
00000000
00001000
00000000
00000000
00010000
00000000
,
00001000
00000000
00000000
00000100
00000000
00000000
00000001
00000000
00001000
00000000
00000000
00000100
00000000
00000000
00010000
00000000
,
01000000
00000000
00000000
10000000
00000000
00000000
00010000
00000000
01000000
00000000
00000000
00010000
00000000
00000000
00100000
00000000
,
01000000
00000000
00000000
10000000
00000000
00000000
00010000
00000000
00100000
00000000
00000000
00001000
00000000
00000000
00010000
00000000
,
00002000
00000100
00000000
00013000
,
02000000
10000000
00000000
03100000
,
00020000
01000000
00000000
00130000
,
00002000
00010000
00000000
00003010
,
00000200
00000001
00000010
00001300
,
00000002
00000010
00001000
00000103
,
00002000
00000100
00010000
01003000
,
00020000
00000000
00000000
00000000
00100000
00000000
00000000
00000000
10000000
00000000
00000000
00000000
01030000
00000000
00000000
00100000
,
00000000
10000000
00000000
00000000
01000000
00000000
00000000
00100000
00000000
00001000
00000000
00000000
00010000
00000000
00000000
00100000
,
00000000
10000000
00000000
00000000
01000000
00000000
00000000
00010000
00000000
00001000
00000000
00000000
00000100
00000000
00000000
00000010
,
00000000
00010000
00000000
00000000
00000100
00000000
00000000
00001000
00000000
00000001
00000000
00000000
00000010
00000000
00000000
00000100
,
00000000
00000001
00000000
00000000
00000100
00000000
00000000
00010000
00000000
00001000
00000000
00000000
00000010
00000000
00000000
00000001
,
00000000
00001000
00000100
00000000
00002000
00000000
00000000
00003010
00000000
00010000
00001000
00000000
00200000
00000000
00000000
00310000
,
00000000
10000000
01000000
00000000
20000000
00000000
00000000
30100000
00000000
00010000
00001000
00000000
02000000
00000000
00000000
03000000
,
00000000
00100000
10000000
00000000
00000000
01000000
00010000
00000000
00000000
00001000
00000010
00000000
00000000
00000001
00000100
00000000
,
00000000
00001000
00010000
00000000
00000000
01000000
10000000
00000000
00000000
00100000
00010000
00000000
00000000
00001000
00010000
00000000
,
00022000
00000000
00000000
00033000
,
00001000
00000000
00000100
00000001
00000000
00001001
00000000
00000000
00000000
00000000
00000000
00000000
00000000
00000000
00000000
00000000
,
00000001
00000100
00000001
00000000
00000010
00000000
00000100
00001000
00000000
00000100
00010000
00000000
00001000
00000000
00100000
00010000
,
00000000
00100000
01000000
00000000
10000000
00000000
00100000
01000000
00000000
00100000
10000000
00000000
00010000
00000000
10000000
01000000
,
00000000
10000000
00010000
00000000
01000000
00000000
00001000
00010000
00000000
00001000
00100000
00000000
00001000
00000000
00000010
00000001
,
00000000
00000010
00000100
00000000
00001000
00000000
00000001
00000100
00000000
00000001
00001000
00000000
00001001
00000000
00000000
00000000
,
00001000
00000100
00001000
00000000
00000010
00000000
00010000
00000100
00000000
00010000
00001000
00000000
00100000
00000000
01000000
10000000
,
00000000
01000000
00100000
00000000
00001000
00000000
00010000
00001000
00000000
00010000
00000010
00000000
00001000
00000000
00000001
00000010
,
00000000
00000001
00000100
00000000
00000010
00000000
00001000
00000100
00000000
00001000
00000010
00000000
00010000
00000000
00001000
00010000
,
00000000
00001000
01000000
00000000
00100000
00000000
10000000
01000000
00000000
10000000
00010000
00000000
10010000
00000000
00000000
00000000
,
02200000
00000000
00000000
03300000
,
00100000
10000000
00010000
00100000
00001000
00000010
00001000
00100000
,
01000000
00010000
01000000
00100000
00010000
10000000
00010000
01000000
,
00001000
00100000
00001000
00000010
00000001
00000100
00000010
00001000
,
00000001
00000000
00000010
00000000
00000100
00000000
00000010
00000000
00000001
00001000
00000001
00000000
00001000
00000001
00001000
00000000
,
00000100
00010000
01000000
00100000
00001000
00000010
00000001
00001000
,
00000010
00010000
01000000
00010000
00001000
00100000
01000000
10000000
,
00010000
01000000
00000100
00010000
00001000
00000100
00000010
00010000
,
00001000
00000000
00000010
00000000
00000001
00000000
00000100
00000000
00000001
00001000
00000001
00000000
00001000
00000001
00001000
00000000
,
00000100
00000010
00000000
00000100
00001000
00000000
00000001
00000100
00000000
00000001
00000010
00000000
00000100
00000000
00010000
00000000
,
00001000
00000100
00000000
00001000
00010000
00000000
01000000
10000000
00000000
01000000
00100000
00000000
00001000
00000000
00010000
00000000
,
00100000
10000000
00000000
00100000
01000000
00000000
00010000
00100000
00000000
00010000
01000000
00000000
00001000
00000000
00000100
00000000
,
00000001
00000010
00000000
00000001
00000100
00000000
00000010
00001000
00000000
00000010
00010000
00000000
00001000
00000000
00000100
00000000
,
00001000
00010000
00000000
00001000
01000000
00000000
00100000
10000000
00000000
00010000
00100000
00000000
01000000
01000000
10000000
00000000
,
00010000
01000000
00000000
00010000
00100000
00000000
00001000
00010000
00000000
00001000
00000100
00000000
00000001
00000001
00000010
00000000
,
00000100
00010000
00000000
00000100
00001000
00000000
00000010
00010000
00000000
00001000
00010000
00000000
01000000
01000000
00100000
00000000
,
00001000
00010000
00000000
00001000
01000000
00000000
00010000
10000000
00000000
00100000
10000000
00000000
01000000
01000000
10000000
00000000
,
10010000
00000000
00000000
00000000
00000000
00000000
00000000
00000000
01000000
00000000
00001000
00010000
00000000
00022000
00000000
00000000
,
00000000
00000000
00000000
00000000
,
00033000
00000000
00000000
00000000
;
