#TITLE:Danca de Yuka;
#ARTIST:Big Idea;
#BANNER:Danca de Yuka.png;
#BACKGROUND:Danca de Yuka-bg.png;
#CDTITLE:./CDTITLES/DANCE DANCE REVOLUTION ULTRAMIX 3.png;
#MUSIC:Danca de Yuka.ogg;
#SAMPLESTART:1.56;
#SAMPLELENGTH:15;
#DISPLAYBPM:150;
#BPMS:0=150,101=155.2,116=160.2,132=164.96,196=170,212=175.5,224=177.3,236=180.7,260=179.88;

//---------------dance-single - ----------------
#NOTES:
     dance-single:
     :
     Beginner:
     1:
     :
0000
0000
0000
0000
,
0000
0000
0000
0000
,
0000
0000
0000
0000
,
0000
0000
0000
0000
,
0000
0000
0000
0000
,
0010
0000
0010
0000
,
0100
0000
0100
0000
,
0001
0000
0001
0000
,
1000
0000
1000
0000
,
1001
0000
0000
0000
,
0000
0010
0000
0000
,
1001
0000
0000
0000
,
0000
0000
0000
0000
,
0110
0000
0000
0000
,
1000
0000
0000
0000
,
1001
0000
0000
0000
,
0000
0000
0000
0000
,
0110
0000
0000
0000
,
1000
0000
1000
0000
,
0001
0000
0000
0000
,
1001
0000
0000
0000
,
0010
0000
0000
0000
,
0100
0000
0000
0000
,
0001
0000
0000
0000
,
1000
0000
0000
0000
,
0001
0000
0000
0000
,
1000
0000
0000
0000
,
0100
0000
0000
0000
,
0010
0000
0000
0000
,
0001
0000
0000
0000
,
0100
0000
0000
0000
,
1000
0000
0000
0000
,
0100
0000
0000
0000
,
0110
0000
0000
0000
,
0000
0000
0000
0000
,
1001
0000
0000
0000
,
0000
0000
0000
0000
,
0110
0000
0000
0000
,
0000
0000
0000
0000
,
1001
0000
0000
0000
,
0000
0000
0000
0000
,
0110
0000
0000
0000
,
1000
0000
0000
0000
,
0100
0000
0000
0000
,
0010
0000
0000
0000
,
0001
0000
0000
0000
,
0010
0000
0000
0000
,
0100
0000
0000
0000
,
0010
0000
0000
0000
,
1000
0000
0000
0000
,
0001
0000
0000
0000
,
0100
0000
0000
0000
,
0010
0000
0000
0000
,
0010
0000
0000
0000
,
0100
0000
0000
0000
,
1000
0000
0000
0000
,
0001
0000
0000
0000
,
0010
0000
0000
0000
,
0100
0000
0000
0000
,
1000
0000
0000
0000
,
0001
0000
0000
0000
,
0010
0000
0000
0000
,
0100
0000
0000
0000
,
0010
0000
0000
0000
,
0100
0000
0000
0000
,
1000
0000
0000
0000
,
0001
0000
0000
0000
,
1000
0000
0000
0000
,
0001
0000
0000
0000
,
0010
0000
0000
0000
,
0100
0000
0000
0000
,
0010
0000
0000
0000
,
0100
0000
0000
0000
,
0001
0000
0000
0000
,
1001
0000
0000
0000
;

//---------------dance-single - ----------------
#NOTES:
     dance-single:
     :
     Easy:
     4:
     :
0000
0000
0000
0000
,
0000
0000
0000
0000
,
0000
0000
0000
0000
,
0000
0000
0000
0000
,
0000
0000
0000
0000
,
0110
0000
0000
0000
,
1001
0000
0000
0000
,
0110
0000
0000
0000
,
1000
0000
0000
0000
,
1000
0000
0001
0000
,
0000
1000
0000
0010
,
1000
0000
0200
0000
,
0000
0000
0000
0300
,
0010
0000
0001
0000
,
0100
1000
0100
0001
,
0100
0000
0100
0000
,
1000
0000
0100
0000
,
0010
0000
0001
0000
,
0100
0000
0010
0000
,
0100
0000
0010
0000
,
1000
0000
0001
0000
,
0100
0000
1000
0000
,
0001
0000
0100
0000
,
0110
0000
1001
0000
,
0002
0000
0000
0003
,
0001
0000
0001
0000
,
0100
0000
0100
0000
,
0010
0000
0010
0000
,
1000
0000
1000
0000
,
0001
0010
0001
0100
,
0001
0100
0001
0000
,
1000
0010
1000
0010
,
0200
0000
0000
0300
,
0001
0000
0100
0000
,
0010
0000
0100
0000
,
0001
0000
0001
0000
,
1000
0000
1000
0000
,
0010
0000
0010
0000
,
0001
0000
0001
0000
,
0100
0000
0100
0000
,
0010
0000
0010
0000
,
1000
0000
1000
0000
,
0010
0000
0010
0000
,
0100
0000
0100
0000
,
0001
0000
0001
0000
,
1000
0000
0001
0000
,
1000
0000
0001
0000
,
1000
0100
0010
0001
,
0002
0000
0000
0003
,
0001
0100
0001
0100
,
1000
0100
1000
0100
,
0001
0100
0001
0100
,
1000
0000
1000
0000
,
1000
0000
0001
0000
,
0001
0000
0100
0000
,
0100
0000
1000
0000
,
1000
0000
0100
0000
,
0100
0000
0010
0000
,
0010
0000
0001
0000
,
0001
0000
0100
0000
,
0100
0000
1000
0000
,
1000
0000
0100
0000
,
0100
0000
0001
0000
,
0001
0000
0100
0000
,
0100
0000
0010
0000
,
0010
0000
1000
0000
,
1000
0000
0100
0000
,
0100
0000
0001
0000
,
0001
0000
0010
0000
,
0010
0000
0100
0000
,
0100
0000
1000
0000
,
1000
0000
0100
0000
,
0100
0000
0010
0000
,
0020
0000
0000
0030
,
1001
0000
0000
0000
;

//---------------dance-single - ----------------
#NOTES:
     dance-single:
     :
     Medium:
     6:
     :
0000
0000
0000
0000
,
0000
0000
0000
0000
,
0000
0000
0000
0000
,
0000
0000
0000
0000
,
0000
0000
0000
0000
,
0010
0000
0000
1000
0001
0000
0001
0000
,
0100
0000
0000
0001
1000
0000
0010
0000
,
0100
0000
0000
0001
1000
0000
0100
0000
,
1001
0000
0000
0000
,
0100
1000
0000
0001
1000
0000
0100
0000
,
0010
0100
0000
0001
,
1000
0100
0000
1000
0001
0000
0000
1000
,
0020
0000
0000
0030
,
1000
0001
0000
0010
0100
0000
0010
0000
,
0001
0100
1000
0010
,
0001
0000
0000
1000
0001
0000
0100
0000
,
0010
0000
0000
1000
0001
0000
0010
0000
,
0100
0000
0000
0010
0001
0000
1000
0000
,
0002
0000
0000
0003
,
1000
0000
0000
0010
0100
0000
0001
0000
,
2000
0000
0000
3000
,
0001
0000
0000
1000
0010
0000
0100
0000
,
0010
1000
0100
0001
,
0010
0000
0000
0001
1000
0000
0100
0000
,
2002
0000
0000
3003
,
0110
0010
1000
0010
,
1001
1000
0001
1000
,
0010
0000
0000
1000
0010
0000
1000
0000
,
0001
0000
0000
0100
0001
0000
0100
0000
,
0110
0001
0100
0001
,
1001
1000
0001
1000
,
1100
0001
0101
1000
,
2002
0000
0000
3003
,
0001
1000
0000
0010
1000
0000
0002
0000
,
2003
3200
0300
1001
,
0001
0100
0000
1000
0200
0000
0320
0000
,
0032
0000
0000
0003
,
0010
0001
0000
0010
1000
0000
0001
0000
,
0110
0100
0010
0100
,
1001
0000
0000
0100
0010
0000
0000
0000
,
1001
0001
1000
0001
,
0100
0000
0000
0010
1000
0000
0200
0000
,
0320
0000
0030
0110
,
0001
0000
0000
1000
0100
0000
0010
0000
,
0200
0000
0000
0300
,
0010
0000
0000
0011
0000
1100
0000
1000
,
0100
2000
3002
0203
,
0320
0000
0000
1030
0000
1100
0000
1000
,
0002
0000
0000
0003
,
1000
0100
0010
0001
,
0001
0010
1000
0010
,
0001
0000
0000
0010
0100
0000
0010
0000
,
1000
0000
0000
0010
1000
0000
0010
0000
,
0001
0010
0100
1000
,
1000
0010
0001
0010
,
1000
0001
0000
0001
1000
0000
0010
0000
,
0202
0000
0000
0303
,
0001
0100
1000
0100
0001
0000
0000
0000
,
0000
0110
0000
1001
,
1000
0100
0000
0100
1000
0000
0001
0000
,
0010
1000
0100
0001
,
1000
0100
0001
0100
1000
0000
0100
0000
,
0010
0001
1000
0001
,
0010
0000
0000
0100
0020
0000
0000
0000
,
0000
0000
0000
0030
,
0001
0000
0000
1000
0100
0000
0010
0000
,
0001
0010
0001
0010
,
0100
0000
0000
1000
0100
0000
0010
0000
,
0100
0010
0100
1000
,
0001
0000
0000
0110
0000
1001
0000
1000
,
0001
1000
0010
1000
,
0001
1001
0100
0110
,
0001
1001
0010
0110
,
1001
0000
0000
0000
,
1010
0000
0000
0000
;

//---------------dance-single - ----------------
#NOTES:
     dance-single:
     :
     Hard:
     8:
     :
0000
0000
0000
0000
,
0000
0000
0000
0000
,
0000
0000
0000
0000
,
0000
0000
0000
0000
,
0000
0000
0000
0000
,
1010
0000
0000
0001
0100
0000
1000
0000
,
1000
0100
0000
0001
0100
0000
0010
0000
,
1100
0000
0000
0010
1000
0000
0010
0000
,
0010
0001
0000
0100
1000
0000
0100
0000
,
1001
1000
0001
0010
0100
0000
0000
0100
,
1000
0000
0000
0010
0100
0001
0010
0100
,
0010
0100
0000
0001
1000
0000
0000
0010
,
0001
0000
0000
0000
0000
0010
0001
0010
,
1000
0010
0000
0100
1000
0000
0000
0010
,
0001
0000
0000
0100
0001
1000
0100
0001
,
0100
1000
0000
0010
0001
0000
0000
0010
,
1000
0000
0011
1100
,
0001
0100
1000
0100
0001
0000
1000
0000
,
1002
0000
0103
1000
,
0001
0010
0001
0100
0001
0000
0100
0000
,
1002
0000
0000
0103
0010
0000
0110
0000
,
1000
0100
1000
0001
1000
0000
1100
0000
,
1002
0000
0000
0103
0010
0000
1001
0000
,
0100
0010
0000
0010
0100
0000
0001
0000
,
2002
0000
0000
3003
,
0010
1000
0100
1000
0010
0000
1010
0000
,
0001
0100
0010
0100
0001
0000
0101
0000
,
0010
0001
0000
0010
1000
0000
0001
0000
,
1000
0100
0000
0001
0100
0000
0000
0000
,
1000
0010
0001
0010
1000
0000
1001
0000
,
0001
0010
1000
0010
0001
0000
1001
0000
,
0001
1000
0000
0010
0100
0000
1001
0000
,
0010
0100
0000
0100
0010
0000
1001
0000
,
0010
0001
0010
0100
0010
1000
0010
0100
,
0020
0000
0000
0000
,
0031
0100
0001
1000
0001
0010
0001
1000
,
0002
0200
0000
0003
,
0310
1000
0010
0100
0010
0001
0010
0100
,
0020
2030
0020
3000
,
1030
0100
1000
0001
1000
0010
1000
0001
,
2000
3200
2300
3020
,
1030
0100
0001
0100
1000
0000
0000
0001
,
0100
0000
0000
0110
,
1000
0100
1000
0001
1000
0000
0000
0100
,
1000
0000
0000
0110
,
0001
0100
0001
1000
0001
0000
0100
0000
,
1001
0011
1100
0110
,
0010
1000
0010
0001
0100
1000
0100
1000
,
0220
0000
0000
0330
,
1000
0100
0001
0010
1000
0010
0001
0010
,
0100
1000
0001
0100
0001
0010
1000
0010
,
0200
0010
1000
0310
,
0002
1000
0100
0013
,
0010
0100
0001
0100
1000
0010
0001
0010
,
1000
0100
1000
0010
0001
0010
1000
0100
,
0010
1001
0000
0001
0100
0000
1100
0000
,
0220
0000
0000
0330
,
1000
0100
0001
0010
1000
0010
0001
0010
,
0100
1000
0001
0100
0001
0010
1000
0010
,
0001
0010
0100
0001
0100
1000
0010
0001
,
0010
1000
0100
1000
0010
0001
0010
1000
,
0100
1000
0100
0001
0100
0001
0100
1000
,
0010
1000
0100
0001
0100
0001
0100
1000
,
0010
0100
0010
0001
0010
0100
0010
1000
,
0100
0010
0100
0001
0100
0010
0100
1000
,
0110
1001
1100
1001
,
0010
0001
0100
1000
0100
0001
0010
0100
,
1000
0010
1000
0100
0001
0100
1000
0010
,
0100
0001
0010
0001
0100
1000
0100
0001
,
0010
0100
1000
0010
1000
0100
0001
0100
,
1000
0010
0100
0001
0010
0001
0100
1000
,
0100
0001
0010
0100
1000
0100
0010
0001
,
1001
0101
1100
0011
,
2002
0000
0000
3003
,
1001
0000
0000
0000
;

//---------------dance-double - ----------------
#NOTES:
     dance-double:
     :
     Beginner:
     1:
     :
00000000
00000000
00000000
00000000
,
00000000
00000000
00000000
00000000
,
00000000
00000000
00000000
00000000
,
00000000
00000000
00000000
00000000
,
00000000
00000000
00000000
00000000
,
10000000
00000000
00000000
00000000
,
00100000
00000000
00000000
00000000
,
00010000
00000000
00000000
00000000
,
00001000
00000000
00000000
00000000
,
00000110
00000000
00000000
00000000
,
00000000
00000000
00000000
00000000
,
00001001
00000000
00000000
00000000
,
00000000
00000000
00000000
00000000
,
00001000
00000000
00000000
00000000
,
00010000
00000000
00000000
00000000
,
01100000
00000000
00000000
00000000
,
00000000
00000000
00000000
00000000
,
10000000
00000000
00000000
00000000
,
01000000
00000000
00000000
00000000
,
00010000
00000000
00000000
00000000
,
00001000
00000000
00000000
00000000
,
00000100
00000000
00000000
00000000
,
00001000
00000000
00000000
00000000
,
00010000
00000000
00000000
00000000
,
00100000
00000000
00000000
00000000
,
01000000
00000000
00000000
00000000
,
00010000
00000000
00000000
00000000
,
00001000
00000000
00000000
00000000
,
00000100
00000000
00000000
00000000
,
00000010
00000000
00000000
00000000
,
00000100
00000000
00000000
00000000
,
00000001
00000000
00000000
00000000
,
00001000
00000000
00000000
00000000
,
00000100
00000000
00000000
00000000
,
00000000
00000000
00000000
00000000
,
00011000
00000000
00000000
00000000
,
00000000
00000000
00000000
00000000
,
00000100
00000000
00000000
00000000
,
00000010
00000000
00000000
00000000
,
00000001
00000000
00000000
00000000
,
00000100
00000000
00000000
00000000
,
00000010
00000000
00000000
00000000
,
00000001
00000000
00000000
00000000
,
00001000
00000000
00000000
00000000
,
00000001
00000000
00000000
00000000
,
00001000
00000000
00000000
00000000
,
00010000
00000000
00000000
00000000
,
01000000
00000000
00000000
00000000
,
00100000
00000000
00000000
00000000
,
10000000
00000000
00000000
00000000
,
00010000
00000000
00000000
00000000
,
10000000
00000000
00000000
00000000
,
01000000
00000000
00000000
00000000
,
00010000
00000000
00000000
00000000
,
00001000
00000000
00000000
00000000
,
00000100
00000000
00000000
00000000
,
00000001
00000000
00000000
00000000
,
00000010
00000000
00000000
00000000
,
00000100
00000000
00000000
00000000
,
00000010
00000000
00000000
00000000
,
00001000
00000000
00000000
00000000
,
00000100
00000000
00000000
00000000
,
00001000
00000000
00000000
00000000
,
00000001
00000000
00000000
00000000
,
00001000
00000000
00000000
00000000
,
00000100
00000000
00000000
00000000
,
00000010
00000000
00000000
00000000
,
00000010
00000000
00000000
00000000
,
00000100
00000000
00000000
00000000
,
00000100
00000000
00000000
00000000
,
00001000
00000000
00000000
00000000
,
00010000
00000000
00000000
00000000
,
00001000
00000000
00000000
00000000
,
00010000
00000000
00000000
00000000
,
00011000
00000000
00000000
00000000
;

//---------------dance-double - ----------------
#NOTES:
     dance-double:
     :
     Easy:
     4:
     :
00000000
00000000
00000000
00000000
,
00000000
00000000
00000000
00000000
,
00000000
00000000
00000000
00000000
,
00000000
00000000
00000000
00000000
,
00000000
00000000
00000000
00000000
,
00001000
00000000
00000000
00000000
,
00000100
00000000
00000000
00000000
,
00000010
00000000
00000000
00000000
,
00002000
00000000
00000000
00003000
,
00010000
00000000
00001000
00000000
,
00000000
00000100
00000000
00001000
,
00001000
00000000
00020000
00000000
,
00000000
00000000
00000000
00030000
,
00100000
00000000
00010000
00000000
,
01000000
10000000
01000000
01000000
,
01000000
00000000
00020000
00000000
,
00000000
00000000
00000000
00030000
,
00001000
00000000
00000100
00000000
,
00000010
00000000
00000001
00001000
,
00000100
00000000
00001000
00000000
,
00000010
00000000
00000100
00000000
,
00000001
00000000
00000100
00000000
,
00000001
00000000
00001000
00000000
,
00000100
00000000
00000100
00000000
,
00002000
00000000
00000000
00003000
,
00010000
00000000
00010000
00000000
,
01000000
00000000
10000000
00000000
,
01000000
00000000
00010000
00000000
,
00010000
00000000
00001000
00000000
,
00000100
00000000
00000001
00000000
,
00000100
00000000
00001000
00000000
,
00000010
00000000
00000100
00000000
,
00001000
00000000
00010000
00000000
,
10000000
00000000
00100000
00000000
,
00010000
00000000
00000100
00000000
,
00001000
00000000
00000001
00000000
,
00001000
00000000
00000001
00000000
,
00000010
00000000
00001000
00000000
,
01000000
00000000
00010000
00000000
,
10000000
00000000
00010000
00000000
,
10000000
00000000
00100000
00000000
,
10010000
00000000
10000000
00000000
,
00010000
00000000
00100000
00000000
,
00010000
00000000
00011000
00000000
,
00011000
00000000
00001000
00000000
,
00000010
00000000
00000100
00000000
,
00000100
00000000
00001000
00000000
,
00000100
00000000
00000001
00000000
,
00002000
00000000
00000000
00003000
,
00001000
00000000
00010000
00000000
,
00100000
00000000
10000000
00000000
,
00100000
00000000
01000000
00000000
,
00100000
00000000
01000000
00000000
,
00010000
00000000
00010000
00000000
,
00001000
00000000
00000100
00000000
,
00000010
00000000
00000001
00000000
,
00000001
00000000
00000100
00000000
,
00001000
00000000
00010000
00000000
,
00100000
00000000
01000000
00000000
,
00100000
00000000
01000000
00000000
,
00010000
00000000
10000000
00000000
,
00100000
00000000
00010000
00000000
,
00011000
00000000
00001000
00000000
,
00000100
00000000
00000010
00000000
,
00000100
00000000
00001000
00000000
,
00010000
00000000
00100000
00000000
,
01000000
00000000
10000000
00000000
,
00010000
00000000
10000000
00000000
,
01000000
00000000
00010000
00000000
,
00001000
00000000
00000100
00000000
,
00001000
00000000
00010000
00000000
,
01000000
00000000
00100000
00000000
,
01000000
00000000
10000000
00000000
,
00020000
00000000
00000000
00030000
,
00011000
00000000
00000000
00000000
;

//---------------dance-double - ----------------
#NOTES:
     dance-double:
     :
     Medium:
     6:
     :
00000000
00000000
00000000
00000000
,
00000000
00000000
00000000
00000000
,
00000000
00000000
00000000
00000000
,
00000000
00000000
00000000
00000000
,
00000000
00000000
00000000
00000000
,
10000000
00000000
00000000
00100000
00010000
00000000
00001000
00000000
,
00010000
00000000
00000000
01000000
00100000
00000000
00100000
00000000
,
00001000
00000000
00000000
00010000
00000100
00000000
00000010
00000000
,
00000010
00000000
00000000
00000001
00000100
00000000
00000100
00000000
,
00001000
00010000
00000000
00001000
00020000
00000000
00000000
00000000
,
00030000
01000000
00000000
00100000
,
00100000
00001000
00000000
00010000
00002000
00000000
00000000
00000000
,
00000000
00000000
00000000
00003000
,
00000100
00000000
00000000
00000000
00000100
00000001
00000000
00001000
,
00000100
00000010
00000001
00000001
,
00000100
00000000
00000000
00001000
00002000
00000000
00000000
00000000
,
00000000
00000000
00000000
00003000
,
00010000
00000000
00000000
00010000
01000000
00000000
01000000
00000000
,
10000000
00000000
00000000
01000000
00010000
00000000
00001000
00000000
,
00001000
00000000
00000000
00000100
00000001
00000000
00001000
00000000
,
00000100
00000000
00000000
00001000
00000001
00000000
00001000
00000000
,
00000100
00000000
00000000
00010000
00001000
00000000
00010000
00000000
,
00010000
00000000
00000000
01000000
00100000
00000000
00100000
00000000
,
01000000
00000000
00000000
10000000
00010000
00000000
01000000
00000000
,
00002000
00000000
00000000
00003000
,
00001000
00000000
00000000
00000100
00000010
00000000
00000100
00000000
,
00001000
00000000
00000000
00010000
00001000
00000000
00010000
00000000
,
00010000
00000000
00000000
01000000
00100000
00000000
00001000
00000000
,
00010000
00000000
00000000
00001000
00000100
00000000
00000001
00000000
,
00000100
00000000
00000000
00001000
00000100
00000000
00001000
00000000
,
00010000
00000000
00000000
00010000
01000000
00000000
00100000
00000000
,
00001000
00000000
00000000
00010000
00001000
00000000
00001000
00000000
,
00000200
00000000
00000000
00000300
,
00000000
00000001
00000000
00001000
00000001
00000000
00000000
00000000
,
00000000
00001000
00000000
00000010
,
00000100
00000000
00000002
00000000
,
00000000
00000000
00000000
00000003
,
00001000
00000000
00000000
00000000
00000001
00000100
00000000
00001000
,
00010000
00001000
00010000
01000000
,
10000000
00000000
00000000
00100000
02000000
00000000
00000000
00000000
,
00000000
00000000
00000000
03000000
,
00100000
00000000
00000000
10000000
01000000
00000000
00010000
00000000
,
00001000
00000000
00000000
00000010
00000001
00000000
00000001
00000000
,
00001000
00000000
00000000
00000100
00010000
00000000
00010000
00000000
,
01000000
00000000
00000000
00100000
01000000
00000000
10000000
00000000
,
01000000
00000000
00000000
00010000
00001000
00000000
00010000
00000000
,
00001000
00000000
00000000
00001000
00010000
00000000
01000000
00000000
,
00010000
00000000
00000000
00010000
00001000
00000000
00010000
00000000
,
00000200
00000000
00000000
00000300
,
00000010
00000000
00000000
00000100
00000010
00000000
00000001
00000000
,
00001000
00000000
00000000
00000100
00010000
00000000
00001000
00000000
,
01000000
00000000
00000000
00100000
10000000
00000000
00100000
00000000
,
01000000
00000000
00000000
01000000
00001000
00000000
00010000
00000000
,
00000100
00000000
00000000
00001000
00000010
00000000
00000100
00000000
,
00001000
00000000
00000000
00010000
00001000
00000000
00100000
00000000
,
00010000
00000000
00000000
10000000
01000000
00000000
01000000
00000000
,
00100000
00000000
00000000
00100000
00010000
00000000
01000000
00000000
,
10000000
00000000
00000000
01000000
00001000
00000000
00010000
00000000
,
00001000
00000000
00000000
00001000
00000100
00000000
00000001
00000000
,
00000100
00000000
00000000
00000010
00000100
00000000
00001000
00000000
,
00000100
00000000
00000000
00001000
00010000
00000000
00001000
00000000
,
01000000
00000000
00000000
00000000
00100000
00000000
10000000
00010000
,
01000000
00010000
00100000
00001000
,
00010000
00000000
00000000
00000100
00000200
00000000
00000000
00000000
,
00000000
00000000
00000000
00000300
,
00000010
00000000
00000000
00000001
00000000
00000000
00000100
00000000
,
00001000
00000000
00000000
00010000
00000000
00000000
00010000
00000000
,
00010000
00000000
00000000
01000000
00000000
00000000
00010000
00000000
,
00010000
00000000
00000000
00001000
00000000
00000000
00010000
00000000
,
00010000
00000000
00000000
00001000
00000000
00000000
00000100
00000000
,
00000100
00000000
00000000
00001000
00000000
00000000
00001000
00000000
,
00000100
00000001
00000001
00000100
,
00000100
00000010
00000010
00001000
,
00000020
00000000
00000000
00000030
,
00001001
00000000
00000000
00000000
;

//---------------dance-double - ----------------
#NOTES:
     dance-double:
     :
     Hard:
     9:
     :
00000000
00000000
00000000
00000000
,
00000000
00000000
00000000
00000000
,
00000000
00000000
00000000
00000000
,
00000000
00000000
00000000
00000000
,
00000000
00000000
00000000
00000000
,
00001001
00000000
00000000
00000010
00000001
00000100
00000001
00000010
,
00000002
00000000
00000000
00000000
00000000
00000203
00000000
00000000
,
00001300
00010000
00000000
00001000
00010000
01000000
10000000
00100000
,
20000000
00000000
00000000
30000000
,
00010000
10000000
00000000
00010000
10000000
00100000
00010000
00001000
,
00000020
00000001
00000000
00000031
,
00001000
00000001
00000000
00001000
00000001
00000010
00001000
00010000
,
00200000
00000000
00000000
00300000
,
10000000
00100000
00000000
01000000
10000000
00100000
00000000
10000000
,
02000000
00010000
00010000
00010000
,
03010000
00000000
00000000
00000000
00000000
00000000
00010000
00001000
00010000
00000000
00000000
00000000
00000000
00000000
00000000
00000000
,
00000000
00001000
00000100
00000010
00001000
00010000
00000000
01000000
,
00020000
00000000
00000000
00030000
,
00001000
00010000
00001000
00010000
00001000
00010000
00001000
00000000
00010000
00000000
00001000
00000000
00000000
00000000
00000100
00000000
,
00001000
00000000
00000000
00000000
00000000
00000000
00000100
00000001
00000200
00000000
00000000
00000000
00000000
00000000
00000000
00000000
,
00000000
00000000
00000000
00000000
00000300
00000000
00000000
00000001
,
00002000
00000000
00000000
00003000
00000000
00000001
00000100
00001000
,
00020000
00000000
00000000
00000000
00000000
00000000
00030000
00000000
00000000
00000000
01000000
00010000
01000000
00010000
01000000
00010000
,
01000000
00000000
00000000
00000000
,
00000000
00100000
10000000
01000000
00010000
01000000
00000000
00010000
,
00002000
00000000
00000000
00000000
00000000
00013000
00001000
00000010
,
00000002
00000000
00000000
00000000
00000000
00000103
00001000
00010000
,
01000000
00000000
00000000
00000000
00000000
00000000
10000000
01000000
10000000
00000000
00010000
10000000
00010000
00000000
10000000
00000000
,
00200000
00000000
00000000
00000000
00000000
10300000
01000000
00010000
,
00002000
00000000
00000000
00000000
00000000
00013000
00001000
00000010
,
00000002
00000000
00000000
00000000
00000000
00000103
00001000
00010000
,
02000000
00000000
00000000
00000000
00000000
03010000
00001000
00000100
,
00000002
00000000
00000000
00000003
,
00000010
00000001
00000100
00001000
00010000
01000000
10000000
00100000
,
20000000
00100000
00000000
31000000
,
10000000
01000000
00010000
00001000
00010000
01000000
00010000
00001000
,
00020000
00000000
00000000
00030000
,
00010000
00001000
00000100
00001000
00010000
00001000
00000100
00000001
,
00000200
00000302
00000203
00002300
,
00023000
00000000
00000000
00000000
00030000
00000000
00001000
00010000
00001000
00000000
00000000
00000000
00000000
00000000
00000000
00000000
,
00000000
00000000
00010000
00000000
01000000
00000000
10000000
00000000
00020000
00000000
00000000
20030000
00000000
00000000
30010000
00000000
,
10000000
01000000
00010000
00001000
00010000
00000000
00000000
00001000
,
00000200
00000000
00000000
00000301
,
00000100
00001000
00010000
00001000
00000200
00000000
00000000
00000301
,
00001000
00000000
00000000
00001001
,
00000110
00000000
00000000
00010010
00000000
00011000
00000000
00001000
,
00020000
02030000
23000000
30200000
,
20300000
00000000
30000000
00010000
01000000
00000000
00000000
00010000
,
20020000
00000000
00000000
30030000
,
00010000
10000000
00010000
10000000
00010000
00000000
01000000
00000000
,
00001000
00010000
00001000
00010000
00001000
00000000
00010000
00000000
,
00000010
00000100
00000010
00000100
00000010
00000000
00001000
00000000
,
00000002
00000023
00000230
00002300
,
00003100
00010000
00000100
00010000
00000100
00000000
00010000
00000000
,
00001000
00100000
00001000
00100000
00001000
00000000
00010000
00000000
,
02000000
23000000
30200000
20300000
,
00020000
00000000
00000000
30030000
,
10000000
01000000
00010000
01000000
10000000
01000000
00010000
00001000
,
00020000
00032000
00003200
00000302
,
00000013
00000001
00000010
00001000
00000010
00000001
00000010
00000100
,
00000010
00000011
00000100
00001100
,
00010000
00001000
00010000
00001000
00000100
00001000
00000100
00000001
,
00000100
00000001
00000010
00000001
00000010
00000100
00000010
00000100
,
00010000
00000100
00010000
00001000
01000000
00001000
01000000
00010000
,
00100000
00010000
00100000
01000000
10000000
01000000
10000000
00000000
,
00010000
10000000
00010000
10000000
00100000
00010000
00100000
00010000
,
00001000
00010000
00001000
00000010
00001000
00000010
00000001
00000010
,
00000001
00000100
00000001
00000100
00001000
00000100
00001000
00010000
,
00001000
00010000
01000000
00010000
01000000
10000000
01000000
10000000
,
01000000
00000000
00000000
10010000
00000000
01100000
00000000
00010000
,
10000000
01000000
00010000
00001000
,
00001100
00011000
01010000
00011000
,
00001010
00011000
00110000
00011000
,
00002200
00000000
00000000
00003300
,
00011000
00000000
00000000
00000000
;
