#TITLE:Crazy In Love;
#ARTIST:wg feat. Indra J;
#BANNER:Crazy In Love.png;
#BACKGROUND:Crazy In Love-bg.png;
#CDTITLE:./CDTITLES/DANCE DANCE REVOLUTION EXTREME 2.png;
#MUSIC:Crazy In Love.ogg;
#SAMPLESTART:26.59;
#SAMPLELENGTH:15;
#DISPLAYBPM:100;
#BPMS:0=99.26;
#BGCHANGES:3.75=Crazy In Love.avi=1=1=0=0=StretchNoLoop==CrossFade==,164=Crazy In Love-bg.png=1=0=0=1;

//---------------dance-single - ----------------
#NOTES:
     dance-single:
     :
     Beginner:
     1:
     :
0000
0000
0000
0000
,
0000
0000
0000
0000
,
0000
0000
0000
0000
,
1000
0000
1000
0000
,
0001
0000
0001
0000
,
1000
0000
1000
0000
,
0001
0000
0001
0000
,
0010
0000
0010
0000
,
0100
0000
0100
0000
,
0010
0000
0010
0000
,
0100
0000
0100
0000
,
1001
0000
0000
0000
,
0001
0000
0001
0000
,
0110
0000
0000
0000
,
0010
0000
0010
0000
,
1001
0000
0000
0000
,
1000
0000
0001
0000
,
0110
0000
0000
0000
,
0100
0000
0010
0000
,
1000
0000
0100
0000
,
0010
0000
0100
0000
,
1000
0000
0001
0000
,
0100
0000
0010
0000
,
0100
0000
0001
0000
,
0010
0000
0100
0000
,
1000
0000
0010
0000
,
0100
0000
0001
0000
,
1000
0000
0001
0000
,
0010
0000
0100
0000
,
1000
0000
0001
0000
,
1000
0000
0001
0000
,
1001
0000
0001
0000
,
1000
0000
1000
0000
,
0110
0000
0010
0000
,
0100
0000
0100
0000
,
1001
0000
0001
0000
,
1000
0000
0010
0000
,
0110
0000
0100
0000
,
0001
0000
1000
0000
,
0100
0000
0100
0000
,
0010
0000
0010
0000
,
1001
0000
0000
0000
;

//---------------dance-single - ----------------
#NOTES:
     dance-single:
     :
     Easy:
     3:
     :
0000
0000
0000
0000
,
0000
0000
0000
0000
,
0000
0000
0000
0000
,
1001
0000
0001
0000
,
1000
0000
0001
0000
,
0110
0000
0010
0000
,
0100
0000
0010
0000
,
1001
0000
0100
0000
,
1000
0000
0100
0000
,
1001
0000
0100
0000
,
0001
0000
0100
0000
,
1000
1000
1000
1000
,
0001
0001
0001
0001
,
0100
0100
0100
0100
,
0010
0010
0010
0010
,
1000
0010
1000
0000
,
0100
0001
0100
0000
,
0010
0100
0010
0000
,
0001
1000
0001
0000
,
1000
0010
1000
0000
,
0100
0000
0100
0000
,
0001
0010
0001
0000
,
0100
0000
0100
0000
,
1001
0000
0100
0100
,
0010
0000
0010
0000
,
1001
0000
0100
0100
,
0010
0000
0010
0000
,
1001
0000
0001
0000
,
0100
0000
0100
0000
,
1001
0000
1000
0000
,
0100
0000
0100
0000
,
0001
0001
0001
0001
,
1000
1000
1000
1000
,
0010
0010
0010
0010
,
0100
0100
0100
0100
,
0001
0100
0001
0000
,
0010
1000
0010
0000
,
0100
0010
0010
0000
,
1000
0001
0001
0000
,
0100
1000
1000
0000
,
0001
0100
0100
0000
,
1001
0000
0000
0000
;

//---------------dance-single - ----------------
#NOTES:
     dance-single:
     :
     Medium:
     5:
     :
0000
0000
0000
0000
,
0000
0000
0000
0000
,
0000
0000
0000
0000
,
1001
0100
1000
0001
,
0100
0000
0001
0000
1000
0000
0100
1000
,
1001
0100
0001
1000
,
0100
0000
1000
0000
0001
0000
0100
0001
,
2001
0000
3001
0010
,
0002
0000
0000
0000
0013
1000
0100
0000
,
2010
0000
0000
0000
3001
0010
0100
0000
,
0002
0000
0000
0000
0103
1000
0010
0000
,
1001
0000
0001
0000
1000
0000
1000
0010
,
0100
0000
0010
0000
0100
0100
0001
0000
,
1000
0000
0001
0000
0100
0000
0100
0001
,
1000
0000
0100
0000
0010
0100
1000
0000
,
0110
0000
1000
0000
0001
0000
0001
0010
,
0100
0000
0010
0000
0100
0100
0010
0000
,
0001
0000
1000
0000
0100
0000
0100
1000
,
0001
0000
0100
0000
0010
0100
0001
0000
,
1001
0000
0100
0000
0010
0000
0000
0001
,
1000
0000
0100
0000
0010
0000
0000
1000
,
0010
0000
0100
0000
0001
0000
0000
0010
,
1000
0000
0001
0000
1000
0000
0000
1000
,
1001
0010
0001
1000
,
0010
0000
1000
0000
0001
0000
0100
0001
,
1001
0010
1000
0001
,
0010
0000
0001
0000
1000
0000
0100
1000
,
1002
0000
0000
0000
1003
0001
0010
0000
,
2000
0000
0000
0000
3010
0001
1000
0000
,
0012
0000
0000
0000
1003
0001
0100
0000
,
2000
0000
0000
0000
3100
0001
1000
0000
,
1001
0000
1000
0000
0001
0000
0001
1000
,
0100
0000
0010
0000
0100
0100
0010
0000
,
0001
0000
1000
0000
0100
0001
0100
1000
,
0001
0000
0100
0000
1000
0100
0001
0000
,
0110
0000
0001
0000
1000
0000
1000
0001
,
0100
0000
0010
0000
0100
0100
0010
0000
,
1000
0000
0001
0000
0010
1000
0010
0001
,
1000
0000
0010
0000
0001
0010
1000
0001
,
2000
0000
0000
0000
3200
0000
0000
0300
0010
0000
0001
0000
1000
0000
0000
0000
,
0002
0000
0000
0000
0203
0000
0000
0300
0010
0000
1000
0000
0001
0000
0000
0000
,
1001
0000
0000
0000
;

//---------------dance-single - ----------------
#NOTES:
     dance-single:
     :
     Hard:
     7:
     :
0000
0000
0000
0000
,
0000
0000
0000
0000
,
0000
0000
0000
0000
,
1001
0000
0100
0100
1000
0100
0001
0100
,
0020
0000
0032
0000
0103
1000
0100
0001
,
1001
0000
0100
0100
0001
0100
1000
0100
,
0020
0000
2030
0000
3100
0001
0100
1000
,
1001
0000
0010
0010
0001
0010
1000
0010
,
0200
0000
2300
0000
3010
0001
0010
1000
,
1100
0000
0010
0010
1000
0010
0001
0010
,
0200
0000
0302
0000
0013
1000
0010
0001
,
0021
0000
0000
0000
0130
0000
0000
0000
0010
0000
0000
0001
0000
1000
0001
0000
,
1001
0000
0000
0000
0010
0000
0000
0000
0100
0000
0000
0001
0000
1000
0010
0000
,
1020
0000
0000
0000
0130
0000
0000
0000
0010
0000
0000
0100
0000
0001
1000
0000
,
1001
0000
0000
0000
0010
0000
0000
0000
0100
0000
0000
1000
0000
0001
0010
0000
,
1200
0000
0000
0000
0310
0000
0000
0000
0001
0000
0000
0100
0000
0010
1000
0000
,
0002
0000
0000
0000
0013
0000
0000
0000
1000
0000
0000
0100
0000
0010
0001
0000
,
1000
0001
1000
0000
0100
0000
0010
0000
0002
0000
0000
0000
0013
0000
0000
0000
,
0001
1000
0001
0000
0100
0000
0010
0000
2000
0000
0000
0000
3010
0000
0000
0000
,
1001
0100
1000
0000
0000
0000
0001
1000
,
0010
0100
0010
0000
0000
0000
0100
0100
,
1001
0100
0001
0000
0000
0000
0010
0100
,
1000
0001
1000
0000
0000
0000
0100
0100
,
1001
0000
0100
0100
0001
0100
1000
0100
,
0020
0000
2030
0000
3100
0001
0100
1000
,
1001
0000
0100
0100
1000
0100
0001
0100
,
0020
0000
0032
0000
0103
1000
0100
0001
,
1001
0000
0010
0010
1000
0010
0001
0010
,
0200
0000
0302
0000
0013
1000
0010
0001
,
0101
0000
0010
0010
0001
0010
1000
0010
,
0200
0000
2300
0000
3010
0001
0010
1000
,
1020
0000
0000
0000
0030
0000
0000
0000
0010
0000
0000
0100
0000
0001
1000
0000
,
1001
0000
0000
0000
0010
0000
0000
0000
0100
0000
0000
1000
0000
0001
0010
0000
,
0021
0000
0000
0000
0130
0000
0000
0000
0010
0000
0000
0100
0000
1000
0001
0000
,
1001
0000
0000
0000
0010
0000
0000
0000
0100
0000
0000
0001
0000
1000
0010
0000
,
0102
0000
0000
0000
0013
0000
0000
0000
1000
0000
0000
0100
0000
0010
0001
0000
,
2000
0000
0000
0000
3010
0000
0000
0000
0001
0000
0000
0100
0000
0010
1000
0000
,
0001
1000
0001
0000
0100
0000
0010
0000
2000
0000
0000
0000
3010
0000
0000
0000
,
1000
0001
1000
0000
0100
0000
0010
0000
0002
0000
0000
0000
0013
0000
0000
0000
,
0001
1000
0100
0000
1000
0000
0001
0000
0020
0000
0000
0000
0130
0000
0000
0000
,
1000
0001
0100
0000
0001
0000
1000
0000
0020
0000
0000
0000
0130
0000
0000
0000
,
1001
0000
0000
0000
;

//---------------dance-double - ----------------
#NOTES:
     dance-double:
     :
     Beginner:
     1:
     :
00000000
00000000
00000000
00000000
,
00000000
00000000
00000000
00000000
,
00000000
00000000
00000000
00000000
,
00001001
00000000
00000000
00000000
,
00000000
00000000
00000000
00000000
,
00000110
00000000
00000000
00000000
,
00000000
00000000
00000000
00000000
,
00001000
00000000
00000000
00000000
,
00000100
00000000
00000000
00000000
,
00020000
00000000
00000000
00000000
,
00030000
00000000
00000000
00000000
,
00011000
00000000
00000000
00000000
,
00000000
00000000
00000000
00000000
,
10010000
00000000
00000000
00000000
,
00000000
00000000
00000000
00000000
,
00011000
00000000
00000000
00000000
,
00000000
00000000
00000000
00000000
,
00001001
00000000
00000000
00000000
,
00000000
00000000
00000000
00000000
,
00000001
00000000
00000001
00000000
,
00001000
00000000
00001000
00000000
,
00000001
00000000
00000001
00000000
,
00001000
00000000
00001000
00000000
,
00000100
00000000
00000000
00000000
,
00010000
00000000
00000000
00000000
,
00001000
00000000
00000000
00000000
,
01000000
00000000
00000000
00000000
,
00010000
00000000
00000000
00000000
,
00100000
00000000
00000000
00000000
,
01000000
00000000
00000000
00000000
,
10000000
00000000
00000000
00000000
,
00010000
00010000
00010000
00000000
,
10000000
10000000
10000000
00000000
,
20020000
00000000
00000000
00000000
,
30030000
00000000
00000000
00000000
,
00100000
00100000
00100000
00000000
,
01000000
01000000
01000000
00000000
,
02200000
00000000
00000000
00000000
,
03300000
00000000
00000000
00000000
,
00001000
00001000
00001000
00000000
,
00010000
00010000
00010000
00000000
,
00011000
00000000
00000000
00000000
;

//---------------dance-double - ----------------
#NOTES:
     dance-double:
     :
     Easy:
     3:
     :
00000000
00000000
00000000
00000000
,
00000000
00000000
00000000
00000000
,
00000000
00000000
00000000
00000000
,
00001001
00000000
00000001
00000100
,
00001000
00000000
00010000
00000000
,
01100000
00000000
10000000
00100000
,
00010000
00000000
10000000
00000000
,
10010000
00000000
10000000
01000000
,
00010000
00000000
00001000
00000000
,
00000110
00000000
00000001
00000010
,
00001000
00000000
00000001
00000000
,
00000001
00000001
00001000
00000000
,
00000100
00000100
00010000
00000000
,
01000000
01000000
10000000
00000000
,
00010000
00010000
01000000
00000000
,
00001000
00001000
00010000
00000000
,
00001000
00001000
00000100
00000000
,
00000010
00000010
00001000
00001000
,
00000001
00000001
00000010
00000000
,
00000001
00000100
00001000
00010000
,
01000000
00000000
10000000
00000000
,
10000000
01000000
00010000
00001000
,
00000100
00000000
00000001
00000000
,
00000110
00000000
00001000
00001000
,
00010000
00000000
00000000
01000000
,
11000000
00000000
00100000
00100000
,
00010000
00000000
00000000
00001000
,
00001010
00000000
00000001
00000001
,
00001000
00000000
00000000
00000100
,
00001100
00000000
00010000
00010000
,
00001000
00000000
00010000
01000000
,
01010000
00000000
10000000
00000000
,
10010000
00010000
00100000
00000000
,
00011000
00000000
00000100
00000000
,
00001001
00001000
00000100
00000000
,
00000110
00000000
00000001
00000000
,
00000101
00000001
00001000
00000000
,
00000100
00000100
00001000
00001000
,
00010000
00010000
00001000
00000000
,
01000000
01000000
00100000
00100000
,
01000000
00010000
00001000
00000000
,
00011000
00000000
00000000
00000000
;

//---------------dance-double - ----------------
#NOTES:
     dance-double:
     :
     Medium:
     5:
     :
00000000
00000000
00000000
00000000
,
00000000
00000000
00000000
00000000
,
00000000
00000000
00000000
00000000
,
00000010
00001000
00000010
00000100
,
00001000
00000000
00010000
00000000
00001000
00000000
00010000
01000000
,
10000000
00100000
01000000
00010000
,
10000000
00000000
01000000
00000000
10000000
00000000
01000000
00010000
,
00011000
00000000
00000000
00000000
00000100
00000001
00000010
00000000
,
00000001
00000000
00000000
00000000
00000100
00001000
00010000
00000000
,
00011000
00000000
00000000
00000000
01000000
10000000
00100000
00000000
,
10000000
00000000
00000000
00000000
01000000
00010000
00001000
00000000
,
00011000
00000000
00010000
00000000
00001000
00000000
00000100
00000001
,
00000010
00000010
00001000
00010000
,
00011000
00000000
00001000
00000000
00010000
00000000
01000000
10000000
,
01000000
00000000
00100000
00000000
01000000
00010000
01000000
00000000
,
10010000
00000000
10000000
00000000
00100000
00000000
00100000
00010000
,
00001000
00000010
00000001
00000100
,
00001001
00000000
00000001
00000000
00000100
00000000
00001000
00010000
,
00001000
00000000
01000000
00000000
00010000
01000000
00100000
00000000
,
10010000
00000000
00000000
00000000
00010000
10000000
01000000
00000000
,
01000000
00000000
00000000
00000000
00010000
00001000
00010000
00000000
,
00011000
00000000
00000000
00000000
00000100
00000001
00000100
00000000
,
00000010
00000000
00000000
00000000
00000100
00001000
00000100
00000000
,
00011000
00010000
00100000
10000000
,
01000000
00000000
00010000
00000000
00001000
00000000
00000100
00001000
,
00010000
00001000
00000100
00000001
,
00000010
00000000
00000001
00000000
00000010
00000000
00001000
00010000
,
00011000
00000000
00000000
00000000
00100000
01000000
10000000
00000000
,
00100000
00000000
00000000
00000000
10000000
01000000
00010000
00000000
,
10010000
00000000
00000000
00000000
01000000
00010000
00001000
00000000
,
00010000
00000000
00000000
00000000
00001000
00000100
00000001
00000000
,
00001001
00000000
00001000
00000000
00000001
00000000
00000010
00001000
,
00010000
00000000
00010000
00000000
00100000
10000000
00010000
00000000
,
10010000
00000000
00010000
00000000
10000000
00000000
00100000
00010000
,
00001000
00000000
00000010
00000000
00000010
00001000
00010000
00000000
,
00011000
00000000
01000000
00000000
10000000
00000000
01000000
00010000
,
00001000
00000000
00001000
00000000
00000100
00000001
00001000
00000000
,
00001001
00000000
00000010
00000000
00000001
00000100
00001000
00000000
,
00010000
00000000
00001000
00000000
00001000
00010000
01000000
00000000
,
10000000
00000000
10000000
00000000
10000000
00010000
01000000
00000000
,
00001000
00000000
00001000
00000000
00010000
00000100
00001000
00000000
,
00011000
00000000
00000000
00000000
;

//---------------dance-double - ----------------
#NOTES:
     dance-double:
     :
     Hard:
     6:
     :
00000000
00000000
00000000
00000000
,
00000000
00000000
00000000
00000000
,
00000000
00000000
00000000
00000000
,
10010000
00000000
00010000
00010000
10000000
00100000
01000000
00001000
,
00010000
00000000
00010000
00000000
00001000
00000100
00000001
00000010
,
00001001
00000000
00000100
00000100
00000010
00001000
00000100
00010000
,
00001000
00000000
00010000
00000000
01000000
10000000
00100000
00010000
,
00011000
00000000
00010000
00010000
01000000
00100000
00010000
00000000
,
00100000
00000000
01000000
00000000
00010000
00001000
00010000
00000000
,
00010100
00000000
00000100
00000100
00000010
00000001
00000010
00000000
,
00000001
00000100
00001000
00000000
00010000
00001000
00010000
01000000
,
10010000
00000000
00000000
00000000
01000000
00000000
00000000
00000000
00010000
00000000
00000000
01000000
00000000
00010000
10000000
00000000
,
00100000
00000000
00000000
00000000
00010000
00000000
00000000
00000000
00001000
00000000
00000000
00000010
00000000
00000001
00000100
00000000
,
00001000
00000000
00000000
00000000
00000100
00000000
00000000
00000000
00000001
00000000
00000000
00000010
00000000
00000001
00000010
00000000
,
00000100
00000000
00000000
00000000
00001000
00000000
00000000
00000000
00000100
00000000
00000000
00000010
00000000
00001000
00010000
00000000
,
02000000
00000000
00000000
00000000
13000000
00000000
00000000
00000000
00010000
00000000
00000000
10000000
00000000
00010000
01000000
00000000
,
20000000
00000000
00000000
00000000
31000000
00000000
00000000
00000000
00010000
00000000
00000000
10000000
00000000
00100000
01000000
00000000
,
00010000
01000000
00010000
00000000
01000000
00000000
00001000
00000000
00010000
00000000
00001000
00000000
00000100
00000000
00000000
00000000
,
00000001
00000010
00000001
00000000
00001000
00000000
00000001
00000000
00000010
00000000
00000100
00000000
00000010
00000000
00000000
00000000
,
00001001
00000100
00000001
00000000
00000000
00000000
00001000
00010000
,
01000000
10000000
00100000
00000000
00000000
00000000
01000000
01000000
,
10010000
01000000
10000000
00000000
00000000
00000000
00010000
00001000
,
00000100
00000001
00000010
00000000
00000000
00000000
00000000
00000000
,
00000110
00000000
00001000
00001000
00010000
00001000
00010000
01000000
,
10000000
00000000
00100000
00000000
00010000
00001000
00010000
01000000
,
11000000
00000000
01000000
01000000
00010000
00001000
00010000
00001000
,
00000100
00000000
00000001
00000000
00000010
00000001
00000010
00000100
,
00001001
00000000
00000001
00000001
00000100
00001000
00010000
00000000
,
01000000
00000000
10000000
00000000
00100000
10000000
00100000
00000000
,
10010000
00000000
01000000
01000000
00010000
00001000
00000100
00000000
,
00000001
00000010
00000001
00000000
00001000
00000100
00000010
00000001
,
00001001
00000000
00000000
00000000
00000010
00000000
00000000
00000000
00001000
00000000
00000000
00000010
00000000
00001000
00000001
00000000
,
00000100
00000000
00000000
00000000
00001000
00000000
00000000
00000000
00010000
00000000
00000000
00001000
00000000
01000000
00010000
00000000
,
10000000
00000000
00000000
00000000
00010000
00000000
00000000
00000000
00100000
00000000
00000000
01000000
00000000
10000000
01000000
00000000
,
00100000
00000000
00000000
00000000
00010000
00000000
00000000
00000000
00100000
00000000
00000000
00001000
00000000
00010000
00001000
00000000
,
00000200
00000000
00000000
00000000
00001300
00000000
00000000
00000000
00000100
00000000
00000000
00000001
00000000
00001000
00000010
00000000
,
00002000
00000000
00000000
00000000
00003010
00000000
00000000
00000000
00001000
00000000
00000000
00000001
00000000
00000010
00000100
00000000
,
00001000
00000100
00001000
00000000
00000100
00000000
00010000
00000000
00001000
00000000
00010000
00000000
01000000
00000000
00000000
00000000
,
00100000
01000000
00100000
00000000
01000000
00000000
00100000
00000000
00001000
00000000
00010000
00000000
01000000
00000000
00000000
00000000
,
10000000
00100000
10000000
00000000
01000000
00000000
00010000
00000000
00001000
00000000
00000100
00000000
00000001
00000000
00000000
00000000
,
00000001
00000010
00000001
00000000
00000100
00000000
00001000
00000000
00010000
00000000
01000000
00000000
10000000
00000000
00000000
00000000
,
01100000
00000000
00000000
00000000
;
