#TITLE:Come With Me;
#ARTIST:Raindancer;
#BANNER:Come With Me 2.png;
#BACKGROUND:Come With Me 2-bg.png;
#CDTITLE:./CDTITLES/DANCE DANCE REVOLUTION ULTRAMIX 3.png;
#MUSIC:Come With Me 2.ogg;
#SAMPLESTART:63.655;
#SAMPLELENGTH:15;
#BPMS:0=147;

//---------------dance-single - ----------------
#NOTES:
     dance-single:
     :
     Beginner:
     1:
     :
0000
0000
0000
0000
,
0000
0000
0000
0000
,
0000
0000
0000
0000
,
0000
0000
0000
0000
,
0000
0000
0000
0000
,
1000
0000
0000
0000
,
0001
0000
0000
0000
,
0010
0000
0000
0000
,
0100
0000
0000
0000
,
0010
0000
0000
0000
,
0100
0000
0000
0000
,
1000
0000
0000
0000
,
1000
0000
0000
0000
,
0001
0000
0000
0000
,
1000
0000
0000
0000
,
0010
0000
0000
0000
,
0100
0000
0000
0000
,
0001
0000
0000
0000
,
0000
0000
0000
0000
,
1000
0000
0000
0000
,
0000
0000
0000
0000
,
0010
0000
0000
0000
,
0000
0000
0000
0000
,
0200
0000
0000
0300
,
0000
0000
0000
0000
,
0010
0000
0000
0000
,
1000
0000
0000
0000
,
0020
0000
0000
0030
,
0000
0000
0000
0000
,
0010
0000
0000
0000
,
1000
0000
0000
0000
,
0100
0000
0000
0000
,
0100
0000
0000
0000
,
0010
0000
0000
0000
,
0100
0000
0000
0000
,
0010
0000
0000
0000
,
0001
0000
0000
0000
,
0001
0000
0000
0000
,
0010
0000
0000
0000
,
0100
0000
0000
0000
,
1000
0000
0000
0000
,
0100
0000
0000
0000
,
1000
0000
0000
0000
,
0010
0000
0000
0000
,
0100
0000
0000
0000
,
0001
0000
0000
0000
,
1000
0000
0000
0000
,
0001
0000
0000
0000
,
0010
0000
0000
0000
,
0100
0000
0000
0000
,
0100
0000
0000
0000
,
0010
0000
0000
0000
,
0010
0000
0000
0000
,
0001
0000
0000
0000
,
1000
0000
0000
0000
,
0010
0000
0000
0000
,
0000
0000
0000
0000
,
1000
0000
0000
0000
,
0000
0000
0000
0000
,
0001
0000
0000
0000
,
1000
0000
0000
0000
,
0010
0000
0000
0000
,
0200
0000
0000
0300
;

//---------------dance-single - ----------------
#NOTES:
     dance-single:
     :
     Easy:
     3:
     :
0000
0000
0000
0000
,
0000
0000
0000
0000
,
0000
0000
0000
0000
,
0000
0000
0000
0000
,
0000
0000
0000
0000
,
1000
0000
0001
0000
,
1000
0000
0010
0000
,
0100
0000
0100
0000
,
0020
0000
0000
0030
,
0010
1000
0001
0000
,
0010
0100
0010
0000
,
0100
1000
0100
0000
,
1000
0001
0010
0000
,
0100
0100
1000
0000
,
1000
0100
0010
0000
,
0001
0010
0100
0000
,
1000
0010
0100
0000
,
0001
0001
1000
1001
,
0000
0000
0000
1000
,
0010
0100
0001
1001
,
0000
0000
0000
0001
,
0010
0100
1000
1001
,
0000
0000
0001
0010
,
0001
0000
0010
0000
,
0010
0000
0010
0000
,
0001
0100
0010
1000
,
0000
0000
0100
1000
,
0001
0000
0010
0000
,
0002
0000
0000
0003
,
0001
0000
0010
0000
,
0001
0000
0100
0000
,
0010
0000
1000
0000
,
0001
0001
1000
0000
,
0010
0100
0001
0000
,
1000
0100
0010
0000
,
0001
0000
1000
0000
,
0001
1000
0010
0000
,
0100
0000
0001
0000
,
0100
0000
0010
0000
,
0100
0001
1000
1000
,
0001
0000
0100
0000
,
0010
0000
1000
0000
,
0001
0010
0100
0000
,
1000
0001
0010
0000
,
0001
0000
0100
0000
,
0001
0000
1000
0000
,
0020
0000
0000
0030
,
0010
0000
1000
0000
,
0001
0001
0001
0000
,
0001
0000
1000
0000
,
0010
0010
0010
0000
,
0100
0000
0010
0000
,
1000
1000
1000
0000
,
0001
0000
1000
0000
,
0100
0100
0100
0000
,
0010
0000
0000
0000
,
0100
0000
0000
0000
,
1000
0000
0000
0000
,
0001
0000
0000
0000
,
0010
0000
0010
0000
,
0001
1000
0001
0000
,
1000
0000
1000
0000
,
2002
0000
0000
3003
;

//---------------dance-single - ----------------
#NOTES:
     dance-single:
     :
     Medium:
     5:
     :
0000
0000
0000
0000
,
0000
0000
0000
0000
,
0000
0000
0000
0000
,
0000
0000
0000
0000
,
0000
0000
0000
0000
,
1000
0000
0010
0000
0100
0001
1000
0000
,
0010
0000
1000
0000
0001
0001
0100
0000
,
0001
0000
1000
0000
0010
0100
0010
0000
,
1000
1000
0010
0100
,
0001
0000
0001
1000
0001
0000
0010
0000
,
0100
0010
0100
0010
0100
0000
1000
0000
,
0001
0000
1000
0001
1000
0000
0001
0000
,
0100
0010
0010
1000
0001
0000
0100
0000
,
0010
0000
0100
0010
0100
0000
0001
0000
,
1000
1000
0100
0010
0100
0000
1000
0000
,
0001
0000
1000
0010
1000
0000
0001
0000
,
1000
1000
0001
0010
0100
0000
1000
0000
,
0001
0000
1000
0001
1000
0000
0002
0000
,
0000
0000
0000
1003
0000
0010
1000
0001
,
0100
0000
0010
0100
0010
0000
0020
0000
,
0000
0000
0000
0130
0000
0001
0000
1000
,
0100
0000
0010
0001
1000
0000
0020
0000
,
0000
0000
0000
0130
0000
0001
0000
1000
,
0001
0000
0000
0000
0001
0000
0000
0010
,
0000
0000
0001
0000
0000
0100
0000
0000
,
0001
0000
1000
0000
0010
1000
0010
0000
,
0000
0000
0000
0100
0000
0010
0000
0100
,
0001
0000
1000
0001
0000
1000
2002
0000
,
0000
0000
3003
0000
0000
0000
0100
0001
,
0200
0000
0302
0000
,
0203
0000
0320
0000
,
1030
0000
0100
0000
0010
0100
0010
0000
,
0001
0000
1000
0100
0000
0010
0000
0001
,
1000
0010
1000
0001
,
1000
0000
0100
0010
0001
0000
1000
0000
,
0010
0000
0100
0000
0001
0000
0010
0100
,
1000
0000
0001
0010
0000
0100
0000
1000
,
0002
0000
0103
2000
,
0000
3100
0002
0000
,
1003
0000
0001
0000
1000
0001
1000
0000
,
0010
0000
0100
0000
0010
0100
0010
0000
,
1000
0000
0100
0000
0010
0001
0000
1000
,
0100
0000
1000
0000
0010
0100
0001
0000
,
0010
0000
0100
0000
1000
0001
1000
0000
,
0010
0000
0100
0010
0000
0010
0100
0000
,
0100
0001
1000
0000
0001
1000
0100
0000
,
1000
0010
0100
0001
,
0010
0000
0000
0100
0000
0000
1000
0001
,
0000
1000
0000
0010
0100
0000
0001
0000
,
0010
0000
0000
0100
0000
1000
0000
0001
,
0000
1000
0010
0000
0100
0000
0001
0000
,
1000
0010
1000
0000
0100
0010
0100
0000
,
1000
0001
1000
0100
0000
0010
0001
0000
,
1000
0000
0010
0100
0000
0001
0000
0010
,
0000
0100
1000
0000
0001
0000
0010
0000
,
0002
0000
0000
0003
,
0020
0000
0000
0030
,
0200
0000
0000
0300
,
2000
0000
0000
3000
,
0002
0000
2003
0000
,
3010
0100
0010
0000
1000
0000
0000
0000
,
0100
0010
0001
1000
0001
1000
0010
0100
,
0020
0000
0000
0030
;

//---------------dance-single - ----------------
#NOTES:
     dance-single:
     :
     Hard:
     7:
     :
0000
0000
0000
0000
,
0000
0000
0000
0000
,
0000
0000
0000
0000
,
0000
0000
0000
0000
,
0000
0000
0000
0000
,
0100
1100
1000
1100
,
0010
1010
1000
1010
,
0100
0101
0001
0101
,
0010
1001
0110
1001
,
0110
0100
0001
1000
0001
0010
0100
0000
,
0010
0100
1000
0001
1000
0010
0100
0000
,
0001
1000
0100
0000
1000
0001
0010
0000
,
0100
0000
1000
0000
0001
0000
1000
0000
0010
0000
0100
0000
0001
0010
0000
0001
,
0100
0010
1000
0001
1000
0100
0010
0000
,
0100
0010
0001
1000
0001
0100
0010
0000
,
1000
0001
0010
0000
0001
1000
0100
0000
,
0010
0000
0001
0000
1000
0001
0000
0100
0010
0000
0010
0000
1000
0000
0001
0000
,
1000
0000
0001
0100
0010
0000
0010
0000
,
0100
0001
0010
0001
0100
0001
0010
0100
,
1000
0000
0001
0010
0100
0000
0100
0000
,
0010
0001
0100
0001
0010
0001
0100
0010
,
1000
0000
0100
1000
0010
0000
0010
0000
,
0100
1000
0100
0001
0100
1000
0100
0001
,
1000
0000
0010
1000
0100
0000
0010
0001
,
0100
0000
0010
0100
0001
1000
0100
0010
,
0100
0000
0000
0000
1000
0000
0000
0001
0000
0000
1000
0000
0002
0000
0000
0000
,
0000
0000
0000
0103
0000
0200
0000
0000
,
0310
0000
1000
0001
1000
0010
0200
0000
,
0001
0000
0301
0000
1000
0000
1000
0100
,
0002
0000
0200
0003
,
2000
0300
0020
3000
,
0130
0000
0010
0000
0100
0000
0001
1000
,
0002
1000
0010
1003
,
0010
0100
0001
0000
0010
0100
1000
0000
,
0001
0100
0010
0000
1010
0000
1100
0000
,
0010
0000
0001
0000
0100
0000
0001
1000
,
0200
1000
0010
1300
,
0100
0010
1000
0000
0010
0001
0100
0000
,
1000
0100
0010
1000
0001
0010
0100
0000
,
0110
0000
0100
0000
0010
0000
1000
0001
,
2000
0001
0100
3001
,
0100
0010
1000
0000
0100
0010
0001
0000
,
1000
0010
0100
0000
0101
0000
0011
0000
,
0100
0000
1000
0000
0010
0000
1000
0001
,
0020
0001
0100
0031
,
0010
0100
0001
0000
0100
1000
0010
0000
,
0001
0010
0100
0001
1000
0100
0010
0000
,
1001
0000
1001
0000
0000
1100
0000
0101
,
0000
0001
0100
0010
0100
0010
0100
0010
,
1010
0000
1001
1001
0000
0101
0000
0011
,
0000
0100
2000
0000
3002
0000
1003
0000
,
1001
0000
1001
0000
0000
0011
0000
1010
,
0000
1000
0010
0100
0010
0100
0010
0100
,
0101
0000
1001
1001
0000
1010
0000
1100
,
0000
0010
0002
0000
2003
0000
3001
0000
,
2002
0000
0000
0000
,
0000
0000
0000
0003
,
0010
0010
0010
0010
,
0001
0001
0001
3001
,
0100
1100
1000
1100
,
0010
1010
1000
1010
,
0100
0101
0001
0202
,
0000
0000
0000
0303
;

//---------------dance-double - ----------------
#NOTES:
     dance-double:
     :
     Beginner:
     1:
     :
00000000
00000000
00000000
00000000
,
00000000
00000000
00000000
00000000
,
00000000
00000000
00000000
00000000
,
00000000
00000000
00000000
00000000
,
00000000
00000000
00000000
00000000
,
10000000
00000000
00000000
00000000
,
00010000
00000000
00000000
00000000
,
10000000
00000000
00000000
00000000
,
01000000
00000000
00000000
00000000
,
00010000
00000000
00000000
00000000
,
00001000
00000000
00000000
00000000
,
00000100
00000000
00000000
00000000
,
00000001
00000000
00000000
00000000
,
00001000
00000000
00000000
00000000
,
00000001
00000000
00000000
00000000
,
00000010
00000000
00000000
00000000
,
00000001
00000000
00000000
00000000
,
00000100
00000000
00000000
00000000
,
00000000
00000000
00000000
00000000
,
00001000
00000000
00000000
00000000
,
00000000
00000000
00000000
00000000
,
00010000
00000000
00000000
00000000
,
00000000
00000000
00000000
00000000
,
02000000
00000000
00000000
03000000
,
00000000
00000000
00000000
00000000
,
10000000
00000000
00000000
00000000
,
00010000
00000000
00000000
00000000
,
00200000
00000000
00000000
00300000
,
00000000
00000000
00000000
00000000
,
00100000
00000000
00000000
00000000
,
01000000
00000000
00000000
00000000
,
10000000
00000000
00000000
00000000
,
01000000
00000000
00000000
00000000
,
00010000
00000000
00000000
00000000
,
00001000
00000000
00000000
00000000
,
00000100
00000000
00000000
00000000
,
00000001
00000000
00000000
00000000
,
00001000
00000000
00000000
00000000
,
00000100
00000000
00000000
00000000
,
00000010
00000000
00000000
00000000
,
00000001
00000000
00000000
00000000
,
00000100
00000000
00000000
00000000
,
00001000
00000000
00000000
00000000
,
00010000
00000000
00000000
00000000
,
01000000
00000000
00000000
00000000
,
10000000
00000000
00000000
00000000
,
10000000
00000000
00000000
00000000
,
01000000
00000000
00000000
00000000
,
10000000
00000000
00000000
00000000
,
00100000
00000000
00000000
00000000
,
01000000
00000000
00000000
00000000
,
00100000
00000000
00000000
00000000
,
10000000
00000000
00000000
00000000
,
01000000
00000000
00000000
00000000
,
00010000
00000000
00000000
00000000
,
00001000
00000000
00000000
00000000
,
00000000
00000000
00000000
00000000
,
00010000
00000000
00000000
00000000
,
00000000
00000000
00000000
00000000
,
00001000
00000000
00000000
00000000
,
00000100
00000000
00000000
00000000
,
00000001
00000000
00000000
00000000
,
00000200
00000000
00000000
00000300
;

//---------------dance-double - ----------------
#NOTES:
     dance-double:
     :
     Easy:
     3:
     :
00000000
00000000
00000000
00000000
,
00000000
00000000
00000000
00000000
,
00000000
00000000
00000000
00000000
,
00000000
00000000
00000000
00000000
,
00000000
00000000
00000000
00000000
,
10000000
00000000
01000000
00000000
,
10000000
00000000
01000000
00000000
,
00010000
00000000
00001000
00000000
,
00002000
00000000
00000000
00003000
,
00001000
00000100
00000001
00000000
,
00000010
00000100
00000010
00000000
,
00000001
00000010
00000001
00000000
,
00000001
00000100
00001000
00000000
,
00010000
01000000
10000000
00000000
,
01000000
00100000
01000000
00000000
,
01000000
10000000
01000000
00000000
,
10000000
01000000
00100000
00000000
,
00010000
01000000
00010000
10010000
,
00000000
00000000
00000000
10000000
,
01000000
00010000
00001000
00011000
,
00000000
00000000
00000000
00001000
,
00000100
00000001
00000001
00001001
,
00000000
00000000
00001000
00000001
,
00001000
00000000
00001000
00000000
,
00000001
00000000
00001000
00000000
,
00000001
00000100
00001000
00010000
,
00000000
00000000
00010000
01000000
,
10000000
00000000
00100000
00000000
,
02000000
00000000
00000000
03000000
,
01000000
00000000
00100000
00000000
,
10000000
00000000
01000000
00000000
,
00010000
00000000
00001000
00000000
,
00010000
00001000
00010000
00000000
,
00001000
00000100
00000001
00000000
,
00000001
00000010
00000100
00000000
,
00000010
00000100
00001000
00000000
,
00000001
00000100
00001000
00000000
,
00010000
00000000
00001000
00000000
,
00010000
00000000
01000000
00000000
,
10000000
01000000
10000000
00010000
,
00010000
00000000
00100000
00000000
,
01000000
00000000
10000000
00000000
,
10000000
00000000
01000000
00000000
,
10000000
01000000
00010000
00000000
,
00001000
00000000
00010000
00000000
,
00001000
00000000
00000100
00000000
,
00000002
00000000
00000000
00000003
,
00000001
00000000
00000001
00000000
,
00000100
00000100
00000100
00000000
,
00001000
00000000
00010000
00000000
,
00010000
00010000
00010000
00000000
,
01000000
00000000
10000000
00000000
,
10000000
10000000
10000000
00000000
,
00100000
00000000
01000000
00000000
,
00010000
00010000
00010000
00000000
,
01000000
00000000
00000000
00000000
,
00100000
00000000
00000000
00000000
,
10000000
00000000
00000000
00000000
,
10000000
00000000
00000000
00000000
,
01000000
00000000
00010000
00000000
,
00001000
00000100
00000001
00000000
,
00001000
00000000
00001000
00000000
,
00002002
00000000
00000000
00003003
;

//---------------dance-double - ----------------
#NOTES:
     dance-double:
     :
     Medium:
     5:
     :
00000000
00000000
00000000
00000000
,
00000000
00000000
00000000
00000000
,
00000000
00000000
00000000
00000000
,
00000000
00000000
00000000
00000000
,
00000000
00000000
00000000
00000000
,
00000001
00000000
00000100
00000000
00000010
00001000
00000001
00000000
,
00000100
00000000
00001000
00000000
00010000
00001000
00010000
00000000
,
00010000
00000000
01000000
00000000
10000000
01000000
10000000
00000000
,
10000000
00010000
01000000
00100000
,
10000000
00000000
00100000
10000000
00100000
00000000
01000000
00000000
,
00010000
01000000
00010000
01000000
00010000
00000000
00100000
00000000
,
00001000
00000000
00010000
00001000
00010000
00000000
00000100
00000000
,
00001000
00000010
00000010
00001000
00000001
00000000
00000010
00000000
,
00000100
00000000
00001000
00000100
00000100
00000000
00000010
00000000
,
00000001
00000001
00000100
00001000
00010000
00000000
01000000
00000000
,
10000000
00000000
10000000
00010000
10000000
00000000
00010000
00000000
,
01000000
01000000
00010000
10000000
00100000
00000000
01000000
00000000
,
00010000
00000000
10000000
01000000
10000000
00000000
00200000
00000000
,
00000000
00000000
00000000
10300000
00000000
00100000
01000000
00001000
,
00010000
00000000
00001000
00010000
00001000
00000000
00002000
00000000
,
00000000
00000000
00000000
00013000
00000000
00001000
00000000
00000100
,
00000001
00000000
00000001
00000100
00000010
00000000
00002000
00000000
,
00000000
00000000
00000000
00003001
00000000
00000100
00000000
00000010
,
00001000
00000000
00000000
00000000
00000100
00000000
00000000
00010000
,
00000000
00000000
00001000
00000000
00000000
01000000
00000000
00000000
,
00100000
00000000
01000000
00000000
00010000
01000000
00010000
00000000
,
00000000
00000000
00000000
00100000
00000000
00001000
00000000
00010000
,
00001000
00000000
00001000
00010000
00000000
00001000
00022000
00000000
,
00000000
00000000
00033000
00000000
00000000
00000000
00010000
01000000
,
20000000
00000000
32000000
00000000
,
03020000
00000000
00032000
00000000
,
00013000
00000000
00001000
00000000
00001000
00000100
00000001
00000000
,
00001000
00000000
00000010
00000100
00000000
00000001
00000000
00000100
,
00000001
00001000
00000001
00000100
,
00001000
00000000
00010000
01000000
10000000
00000000
10000000
00000000
,
01000000
00000000
00100000
00000000
00001000
00000000
00010000
00001000
,
00010000
00000000
00010000
00001000
00000000
00000100
00000000
00000001
,
00002000
00000000
00003001
00000200
,
00000000
00000301
00000020
00000000
,
00000031
00000000
00000100
00000000
00001000
00010000
01000000
00000000
,
10000000
00000000
00100000
00000000
01000000
00001000
00010000
00000000
,
00010000
00000000
01000000
00000000
10000000
01000000
00000000
01000000
,
00010000
00000000
00001000
00000000
00001000
00000100
00000001
00000000
,
00000010
00000000
00000001
00000000
00000100
00000001
00000010
00000000
,
00000100
00000000
00001000
00000100
00000000
00000100
00001000
00000000
,
00000100
00010000
00001000
00000000
00010000
01000000
10000000
00000000
,
10000000
00100000
01000000
00001000
,
00010000
00000000
00000000
01000000
00000000
00000000
10000000
00010000
,
00000000
01000000
00000000
00100000
01000000
00000000
00010000
00000000
,
00100000
00000000
00000000
00001000
00000000
00010000
00000000
00001000
,
00000000
00000100
00000001
00000000
00001000
00000000
00000001
00000000
,
00001000
00000100
00001000
00000000
00000001
00001000
00000001
00000000
,
00000001
00000100
00001000
00010000
00000000
00010000
01000000
00000000
,
10000000
00000000
00100000
01000000
00000000
00001000
00000000
00100000
,
00000000
00001000
00010000
00000000
00001000
00000000
00100000
00000000
,
00020000
00000000
00000000
00030000
,
00200000
00000000
00000000
00300000
,
02000000
00000000
00000000
03000000
,
00020000
00000000
00000000
00030000
,
00002000
00000000
00023000
00000000
,
00031000
00000100
00000001
00000000
00001000
00000000
00000000
00000000
,
00000010
00000100
00000001
00001000
00000001
00001000
00000100
00000010
,
00000200
00000000
00000000
00000300
;

//---------------dance-double - ----------------
#NOTES:
     dance-double:
     :
     Hard:
     8:
     :
00000000
00000000
00000000
00000000
,
00000000
00000000
00000000
00000000
,
00000000
00000000
00000000
00000000
,
00000000
00000000
00000000
00000000
,
00000000
00000000
00000000
00000000
,
00010000
11000000
10000000
01010000
,
00001000
00011000
00010000
00001100
,
00000100
00001010
00000100
00000101
,
00001000
00001100
00010100
00011000
,
00101000
00010000
00000100
00001000
01000000
00010000
00000010
00001000
,
00010000
01000000
10000000
00100000
10000000
00010000
01000000
00001000
,
00100000
00000100
00010000
00000010
00001000
00000100
00010000
01000000
,
10000000
00000000
00100000
00000000
01000000
00000000
00010000
00000000
00100000
00000000
00001000
00000000
00010000
00001000
00000000
00010000
,
00000100
00001000
00100000
00010000
00000010
00001000
01000000
00010000
,
00001000
00000010
00000001
00000100
00000001
00001000
00000010
00010000
,
00000100
00100000
00001000
01000000
00010000
00100000
00001000
00000010
,
00000001
00000100
00000010
00001000
00000100
00010000
00001000
00100000
,
00010000
00000000
00100000
01000000
10000000
00000000
10000000
00000000
,
00100000
01000000
10000000
01000000
00100000
01000000
10000000
01000000
,
00001000
00000000
00100000
00001000
00010000
00000000
00000100
00000000
,
00010000
00000100
00001000
00000100
00010000
00000100
00001000
00000100
,
00000010
00000000
00001000
00000010
00000001
00000000
00001000
00000000
,
00000100
00010000
00001000
00010000
00000100
00010000
00001000
00010000
,
00100000
00000000
10000000
00100000
00010000
00000000
00100000
10000000
,
01000000
00000000
00010000
01000000
00100000
00010000
01000000
00001000
,
00010000
00000000
00000000
00000000
00001000
00000000
00000000
00010000
00000000
00000000
00001000
00000000
00020000
00000000
00000000
00000000
,
00000000
00000000
00000000
00030100
00000000
00000200
00000000
00000000
,
00001300
00000000
00000001
00001000
00000001
00000010
00000200
00000000
,
00000001
00000000
00000301
00000000
00000100
00000000
00000100
00010000
,
00002000
00000000
02000000
00003000
,
00020000
03000000
20000000
00030000
,
31000000
00000000
00100000
00000000
01000000
00000000
00100000
00001000
,
00020000
00000100
00001000
00030100
,
00010000
00000100
00010000
00000000
00000010
00001000
00000010
00000000
,
00000100
00000001
00001000
00000000
00001100
00000000
00010100
00000000
,
00010000
00000000
00001000
00000000
00010000
00000000
00001000
00100000
,
00020000
10000000
01000000
10030000
,
01000000
00100000
10000000
00000000
00010000
00100000
01000000
00000000
,
10000000
01000000
00010000
00001000
00000100
00000001
00001000
00000000
,
00001000
00000000
00000100
00000000
00000010
00000000
00000100
00010000
,
00002000
00100000
00010000
00103000
,
00001000
00100000
00001000
00000000
01000000
00010000
01000000
00000000
,
00100000
10000000
00010000
00000000
00110000
00000000
00101000
00000000
,
00001000
00000000
00010000
00000000
00001000
00000000
00010000
00000100
,
00002000
00000001
00000010
00003001
,
00000010
00000100
00000001
00000000
00001000
00000100
00000010
00000000
,
00000001
00000010
00001000
00010000
00100000
10000000
00010000
00000000
,
10010000
00000000
10010000
00000000
00000000
01010000
00000000
01001000
,
00000000
00010000
01000000
00010000
00100000
00001000
00010000
00001000
,
00011000
00000000
00011000
00011000
00000000
00010100
00000000
00001100
,
00000000
00000010
00000002
00000000
00002003
00000000
00003001
00000000
,
00001001
00000000
00001001
00000000
00000000
00001010
00000000
00010010
,
00000000
00001000
00000010
00001000
00000100
00010000
00001000
00010000
,
00011000
00000000
00011000
00011000
00000000
00101000
00000000
00110000
,
00000000
01000000
20000000
00000000
30020000
00000000
10030000
00000000
,
20020000
00000000
00000000
00000000
,
00000000
00000000
00000000
30000000
,
00100000
10000000
00100000
10000000
,
01000000
10000000
01000000
10000000
,
01030000
00110000
00010000
00110000
,
00001000
00011000
00010000
00011000
,
00000100
00001100
00001000
00002200
,
00000000
00000000
00000000
00003300
;
