#TITLE:Come With Me;
#ARTIST:Yahel & Tammy;
#BANNER:Come With Me 1.png;
#BACKGROUND:Come With Me 1-bg.png;
#CDTITLE:./CDTITLES/DANCE DANCE REVOLUTION ULTRAMIX 3.png;
#MUSIC:Come With Me 1.ogg;
#SAMPLESTART:16.58;
#SAMPLELENGTH:15;
#BPMS:0=130;

//---------------dance-single - ----------------
#NOTES:
     dance-single:
     :
     Beginner:
     1:
     :
0000
0000
0000
0000
,
0000
0000
0000
0000
,
0000
0000
0000
0000
,
0000
0000
0000
0000
,
0000
0000
0000
0000
,
1000
0000
0000
0000
,
0001
0000
0000
0000
,
1000
0000
0000
0000
,
0001
0000
0000
0000
,
0010
0000
0000
0000
,
0100
0000
0000
0000
,
0010
0000
0000
0000
,
0100
0000
0000
0000
,
1000
0000
0000
0000
,
0010
0000
0000
0000
,
0100
0000
0000
0000
,
0001
0000
0000
0000
,
1000
0000
1000
0000
,
0001
0000
0001
0000
,
1000
0000
1000
0000
,
0100
0000
0100
0000
,
0100
0000
0000
0000
,
1000
0000
0000
0000
,
0010
0000
0010
0000
,
1000
0000
1000
0000
,
0010
0000
0000
0000
,
0100
0000
0000
0000
,
0001
0000
0000
0000
,
0010
0000
0000
0000
,
0100
0000
0000
0000
,
0100
0000
0000
0000
,
1000
0000
0000
0000
,
0001
0000
0000
0000
,
0010
0000
0010
0000
,
1000
0000
1000
0000
,
0100
0000
0100
0000
,
1000
0000
1000
0000
,
0010
0000
0000
0000
,
1000
0000
0000
0000
,
0001
0000
0001
0000
,
0010
0000
0010
0000
,
0001
0000
0000
0000
,
1000
0000
0000
0000
,
1000
0000
0000
0000
,
0001
0000
0000
0000
,
0100
0000
0000
0000
,
0100
0000
0000
0000
,
0010
0000
0000
0000
,
1000
0000
0000
0000
,
0001
0000
0000
0000
;

//---------------dance-single - ----------------
#NOTES:
     dance-single:
     :
     Easy:
     2:
     :
0000
0000
0000
0000
,
0000
0000
0000
0000
,
0000
0000
0000
0000
,
0000
0000
0000
0000
,
0000
0000
0000
0000
,
0001
0000
1000
0000
,
0001
0000
0010
0000
,
0100
0000
0010
0000
,
0001
0000
0001
0000
,
1000
0000
0000
0000
,
0010
0000
1000
0000
,
0010
0000
0000
0000
,
0010
0000
0100
0000
,
0001
0000
0000
0000
,
0001
0000
0010
0000
,
0100
0000
0000
0000
,
1000
0000
1000
0000
,
0001
0001
0001
0000
,
1000
1000
1000
0000
,
0010
0010
0010
0000
,
0100
0100
0100
0000
,
0010
0010
0010
0000
,
1000
1000
1000
0000
,
0100
0100
0100
0000
,
0010
0010
0010
0000
,
1001
0000
1000
0000
,
0001
0000
0100
0000
,
0100
0000
0010
0000
,
1000
1000
1000
0000
,
0001
0000
0010
0000
,
0100
0000
1000
0000
,
0010
0000
0100
0000
,
0001
0001
0001
0000
,
2000
0000
0000
3000
,
1000
0000
0100
0000
,
0010
0000
0001
0000
,
1000
1000
1000
0000
,
0020
0000
0000
0030
,
0010
0000
1000
0000
,
0100
0000
0100
0000
,
0010
0010
0010
0000
,
0002
0000
0000
0003
,
0001
0000
0010
0000
,
0100
0000
0100
0000
,
1000
0000
1000
0000
,
0010
0000
1000
0000
,
0001
0000
0100
0000
,
0001
0000
1000
0000
,
0001
0000
0100
0000
,
2002
0000
0000
3003
;

//---------------dance-single - ----------------
#NOTES:
     dance-single:
     :
     Medium:
     4:
     :
0000
0000
0000
0000
,
0000
0000
0000
0000
,
0000
0000
0000
0000
,
0000
0000
0000
0000
,
0000
0000
0000
0000
,
1000
0010
0100
0001
,
0001
1000
0010
0100
,
0001
1000
0001
0100
,
0010
0000
0100
0000
0100
0000
0001
1000
,
1001
0000
1000
0001
,
0010
0000
0100
0000
1000
0001
1001
0000
,
1001
0000
1000
0100
,
0010
0000
0001
0000
0001
1000
1001
0000
,
1001
1000
0001
0100
,
0001
0000
1000
0000
0010
0100
0110
0000
,
1001
1000
0010
1000
,
1000
0001
0200
0300
,
0001
0010
0100
1000
,
1000
0100
0010
0001
,
1000
0010
0100
0001
,
0010
0100
0010
1001
,
0001
0100
0001
1000
,
0001
0010
0001
1000
,
0010
0100
0001
0010
,
0001
1000
1001
0000
,
2000
0000
3100
0000
,
0200
0000
0310
0000
,
0020
0000
0031
0000
,
0011
0010
0110
0100
,
1100
0000
0002
0000
,
0013
0000
0020
0000
,
0130
0000
0200
0000
,
1300
0100
0110
0010
,
0011
0000
0000
0000
1000
0000
1000
2000
,
0000
0000
0000
0000
3001
0000
0001
0002
,
0000
0000
1003
0100
,
1000
0100
0010
0001
,
1001
0000
0000
0000
0010
0000
0010
0020
,
0000
0000
0000
0000
0130
0000
0100
0200
,
0000
0000
0301
0010
,
0001
0010
0100
1000
,
1001
0000
0000
0000
0000
0010
0000
1010
,
0000
0000
0000
1000
0000
1100
0000
0000
,
0000
0000
0110
0000
0000
0100
0000
1100
,
0000
0000
0000
0001
0000
0011
0000
0000
,
0000
0000
1001
0000
0000
1000
0000
1010
,
0000
0000
0000
0010
0000
0110
0000
0000
,
1000
0000
1000
0001
1000
0000
1001
0000
,
0000
0020
0000
0000
0130
0100
0010
0110
;

//---------------dance-single - ----------------
#NOTES:
     dance-single:
     :
     Hard:
     6:
     :
0000
0000
0000
0000
,
0000
0000
0000
0000
,
0000
0000
0000
0000
,
0000
0000
0000
0000
,
0000
0000
0000
0000
,
0010
0000
0100
0000
0001
0000
0000
0000
0100
0000
0000
0001
0000
0000
0100
0000
,
0000
0000
0000
0001
1000
0100
0000
1000
,
0000
0000
0000
0000
1000
0000
0100
0000
0100
0000
0000
0200
0000
0000
0000
0000
,
0300
0000
1000
0000
0000
0001
0000
0000
1000
0000
0000
0000
0010
0000
1000
0000
,
0200
0000
0000
0000
0300
0010
0000
0002
,
0000
0000
0003
0000
0010
0001
1000
0010
,
2000
0000
0000
3000
0000
0001
1000
0010
,
1000
0000
1001
0000
0000
1000
0010
0100
,
0002
0000
0000
0000
0003
1000
0000
0200
,
0000
0000
0300
0000
0010
0001
1000
0100
,
0010
0000
0000
0001
0100
0001
0001
1000
,
1000
0000
1010
0000
0010
1000
0010
0000
,
0100
0010
1000
0010
0100
0000
0001
0000
,
0010
0001
1000
0100
0100
0000
1000
0000
,
0001
0100
0010
0010
0100
0000
0100
0000
,
0001
0001
0010
0100
1000
0000
1000
0000
,
0010
0100
0001
0100
0010
0000
0010
0000
,
1000
0010
0100
0010
0100
0000
0001
0000
,
0001
0100
0001
0100
0010
0000
1000
0000
,
0100
0010
0100
0000
1001
0000
0100
0000
,
0002
0000
0203
0000
,
0302
0000
0023
0000
,
0032
0000
0000
0000
0013
0100
1000
0001
,
0100
0010
1000
0000
0001
0000
0010
0000
,
0100
0000
0000
0000
1000
0010
0100
0001
,
0010
0000
0100
0000
0100
1000
0010
0100
,
0001
0000
0001
0000
1000
0100
0010
0001
,
1000
0000
0010
0100
0001
0000
1000
0000
,
1100
0000
0000
0000
0000
0000
0000
0000
1000
0000
0000
0100
0000
0000
0020
0000
,
0000
0000
0000
0000
0030
0000
0000
0000
0001
0000
0000
1000
0000
0000
0200
0000
,
0000
0000
0000
0000
0300
0000
0000
0000
1000
0000
0000
0001
0000
0000
1000
0000
,
0000
0001
0100
0001
1000
0001
0010
0002
,
0000
0000
0000
0000
0003
0000
0000
0000
1000
0000
0000
0100
0000
0000
2000
0000
,
0000
0000
0000
0000
3000
0000
0000
0000
0010
0000
0000
1000
0000
0000
0002
0000
,
0000
0000
0000
0000
0003
0000
0000
0000
0001
0000
0000
0010
0000
0000
0010
0000
,
0000
0001
0010
0100
1000
0001
0010
0100
,
1000
0000
2000
0000
0000
0010
0000
0010
,
0000
0000
0000
0000
0000
0000
0001
3000
0000
0000
0001
0000
1000
0000
0001
0000
,
1000
0002
0000
0000
0000
0100
0000
0100
,
0000
0000
0003
1000
0000
0100
0010
0100
,
0010
0002
0000
0000
0000
0100
0000
0100
,
0000
0000
0003
1000
0000
0100
0000
1000
,
0000
0000
0000
0000
0010
0000
1000
0000
0010
0000
0000
0100
0000
0000
0000
0000
,
0000
0000
0001
0000
0000
0100
0000
0000
0100
0000
0000
0001
0000
0000
1001
0000
;

//---------------dance-double - ----------------
#NOTES:
     dance-double:
     :
     Beginner:
     1:
     :
00000000
00000000
00000000
00000000
,
00000000
00000000
00000000
00000000
,
00000000
00000000
00000000
00000000
,
00000000
00000000
00000000
00000000
,
00000000
00000000
00000000
00000000
,
10000000
00000000
00000000
00000000
,
00010000
00000000
00000000
00000000
,
10000000
00000000
00000000
00000000
,
01000000
00000000
00000000
00000000
,
00010000
00000000
00000000
00000000
,
00001000
00000000
00000000
00000000
,
00000100
00000000
00000000
00000000
,
00000010
00000000
00000000
00000000
,
00000010
00000000
00000000
00000000
,
00000100
00000000
00000000
00000000
,
00001000
00000000
00000000
00000000
,
00010000
00000000
00000000
00000000
,
01000000
00000000
01000000
00000000
,
10000000
00000000
10000000
00000000
,
00100000
00000000
00100000
00000000
,
01000000
00000000
01000000
00000000
,
00010000
00000000
00000000
00000000
,
10000000
00000000
00000000
00000000
,
01000000
00000000
01000000
00000000
,
00010000
00000000
00010000
00000000
,
00001000
00000000
00000000
00000000
,
00000100
00000000
00000000
00000000
,
00000001
00000000
00000000
00000000
,
00001000
00000000
00000000
00000000
,
00000010
00000000
00000000
00000000
,
00000010
00000000
00000000
00000000
,
00000100
00000000
00000000
00000000
,
00001000
00000000
00000000
00000000
,
00010000
00000000
00010000
00000000
,
01000000
00000000
01000000
00000000
,
10000000
00000000
10000000
00000000
,
00100000
00000000
00100000
00000000
,
01000000
00000000
00000000
00000000
,
00010000
00000000
00000000
00000000
,
10000000
00000000
10000000
00000000
,
01000000
00000000
01000000
00000000
,
00010000
00000000
00000000
00000000
,
00001000
00000000
00000000
00000000
,
00000100
00000000
00000000
00000000
,
00000001
00000000
00000000
00000000
,
00000010
00000000
00000000
00000000
,
00000010
00000000
00000000
00000000
,
00000100
00000000
00000000
00000000
,
00001000
00000000
00000000
00000000
,
00001000
00000000
00000000
00000000
;

//---------------dance-double - ----------------
#NOTES:
     dance-double:
     :
     Easy:
     2:
     :
00000000
00000000
00000000
00000000
,
00000000
00000000
00000000
00000000
,
00000000
00000000
00000000
00000000
,
00000000
00000000
00000000
00000000
,
00000000
00000000
00000000
00000000
,
00100000
00000000
10000000
00000000
,
01000000
00000000
00100000
00000000
,
01000000
00000000
00010000
00000000
,
00001000
00000000
00000100
00000000
,
00000001
00000000
00001000
00000000
,
00000001
00000000
00000000
00000000
,
00000100
00000000
00001000
00000000
,
00010000
00000000
00000000
00000000
,
00010000
00000000
01000000
00000000
,
10000000
00000000
00000000
00000000
,
00100000
00000000
10000000
00000000
,
00010000
00000000
10000000
00000000
,
00010000
00010000
00010000
00000000
,
00100000
00100000
00100000
00000000
,
01000000
01000000
01000000
00000000
,
00010000
00010000
00010000
00000000
,
00001000
00001000
00001000
00000000
,
00000100
00000100
00000100
00000000
,
00000001
00000001
00000001
00000000
,
00001000
00001000
00001000
00000000
,
00001001
00000000
00000100
00000000
,
00000010
00000000
00000010
00000000
,
00000100
00000000
00001000
00000000
,
00010000
00010000
00010000
00000000
,
00010000
00000000
01000000
00000000
,
10000000
00000000
10000000
00000000
,
00100000
00000000
01000000
00000000
,
00010000
00010000
00010000
00000000
,
20000000
00000000
00000000
30000000
,
10000000
00000000
01000000
00000000
,
00010000
00000000
00001000
00000000
,
00010000
00010000
00010000
00000000
,
00002000
00000000
00000000
00003000
,
00001000
00000000
00001000
00000000
,
00000100
00000000
00000001
00000000
,
00001000
00001000
00001000
00000000
,
00000002
00000000
00000000
00000003
,
00000001
00000000
00000100
00000000
,
00001000
00000000
00010000
00000000
,
01000000
00000000
10000000
00000000
,
01000000
00000000
10000000
00000000
,
00100000
00000000
01000000
00000000
,
00010000
00000000
00100000
00000000
,
01000000
00000000
00010000
00000000
,
00022000
00000000
00000000
00033000
;

//---------------dance-double - ----------------
#NOTES:
     dance-double:
     :
     Medium:
     5:
     :
00000000
00000000
00000000
00000000
,
00000000
00000000
00000000
00000000
,
00000000
00000000
00000000
00000000
,
00000000
00000000
00000000
00000000
,
00000000
00000000
00000000
00000000
,
00100000
10000000
10000000
00010000
,
01000000
00001000
00010000
00000100
,
00001000
00000001
00000010
00000100
,
00001000
00000000
00000100
00000000
00000010
00000000
00000001
00001000
,
00001001
00000000
00000001
00000100
,
00001000
00000000
00010000
00000000
01000000
10000000
01000000
00000000
,
11000000
00000000
00010000
01000000
,
00100000
00000000
10000000
00000000
00100000
01000000
01100000
00000000
,
10010000
10000000
00100000
01000000
,
00001000
00000000
00010000
00000000
00001000
00010000
00011000
00000000
,
00010100
00001000
00000010
00001000
,
00000001
00000100
00000002
00000003
,
00000100
00001000
00010000
01000000
,
00010000
00001000
00001000
01000000
,
00010000
01000000
00100000
10000000
,
00100000
01000000
00100000
10010000
,
00010000
01000000
00001000
00010000
,
00001000
00100000
00001000
00010000
,
00001000
00000100
00000001
00000010
,
00000001
00000100
00000110
00000000
,
00000002
00000000
00000103
00000000
,
00000020
00000000
00010030
00000000
,
00002000
00000000
00103000
00000000
,
00010000
00100000
01000000
11000000
,
11000000
00000000
20000000
00000000
,
30100000
00000000
00020000
00000000
,
01030000
00000000
00002000
00000000
,
00013000
01001000
00011000
00010010
,
00001010
00000000
00000000
00000000
00001000
00000000
00000100
00000200
,
00000000
00000000
00000000
00000000
00001300
00000000
00000001
00000002
,
00000000
00000000
00000013
00000100
,
00001000
00000100
00010000
00001000
,
01001000
00000000
00000000
00000000
00010000
00000000
00100000
00200000
,
00000000
00000000
00000000
00000000
01300000
00000000
10000000
20000000
,
00000000
00000000
30010000
01000000
,
00100000
00100000
01000000
00010000
,
01010000
00000000
00000000
00000000
00000000
00100000
00000000
00101000
,
00000000
00000000
00000000
00010000
00000000
00010010
00000000
00000000
,
00000000
00000000
00001010
00000000
00000000
00001000
00000000
00001100
,
00000000
00000000
00000000
00000100
00000000
00010100
00000000
00000000
,
00000000
00000000
00011000
00000000
00000000
00100000
00000000
00110000
,
00000000
00000000
00000000
00100000
00000000
00101000
00000000
00000000
,
00010000
00000000
00010000
00001000
00010000
00000000
00011000
00000000
,
00000000
00020000
00000000
00000000
00031000
00000100
00000001
00000101
;

//---------------dance-double - ----------------
#NOTES:
     dance-double:
     :
     Hard:
     6:
     :
00000000
00000000
00000000
00000000
,
00000000
00000000
00000000
00000000
,
00000000
00000000
00000000
00000000
,
00000000
00000000
00000000
00000000
,
00000000
00000000
00000000
00000000
,
00000001
00000000
00000010
00000000
00001000
00000000
00000000
00000000
00010000
00000000
00000000
00001000
00000000
00000000
02000000
00000000
,
00000000
00000000
03000000
00010000
10000000
01000000
00000000
10000000
,
00000000
00000000
00000000
00000000
00010000
00000000
00010000
00000000
01000000
00000000
00000000
00200000
00000000
00000000
00000000
00000000
,
00300000
00000000
10000000
00000000
00000000
00010000
00000000
00000000
01000000
00000000
00000000
00000000
00100000
00000000
10000000
00000000
,
02000000
00000000
00000000
00000000
03000000
00100000
00000000
00002000
,
00000000
00000000
00003000
00000000
00010000
00001000
00000100
00000001
,
00000020
00000000
00000000
00000030
00000000
00000100
00001000
00000010
,
00000100
00000000
00000110
00000000
00000000
00000001
00000100
00000010
,
00002000
00000000
00000000
00000000
00003000
00000100
00000000
00020000
,
00000000
00000000
00030000
00000000
00001000
00100000
01000000
10000000
,
00100000
00000000
00000000
10000000
00010000
10000000
01000000
10000000
,
00100000
00000000
10100000
00000000
00100000
01000000
00010000
00000000
,
01000000
00001000
00010000
00000010
00001000
00000000
00000001
00000000
,
00000100
00000010
00001000
00000001
00000100
00000000
00000001
00000000
,
00000001
00000010
00000100
00000100
00000010
00000000
00000001
00000000
,
00001000
00001000
00000010
00001000
00000001
00000000
00000100
00000000
,
00001000
00010000
01000000
10000000
00100000
00000000
00100000
00000000
,
10000000
00100000
10000000
01000000
01000000
00000000
00100000
00000000
,
00010000
01000000
00010000
10000000
00100000
00000000
10000000
00000000
,
01000000
00100000
01000000
00000000
10010000
00000000
01000000
00000000
,
00020000
00000000
02030000
00000000
,
03002000
00000000
00023000
00000000
,
00030200
00000000
00000000
00000000
00000310
00000001
00000100
00001000
,
00100000
00010000
10000000
00000000
00010000
00000000
00100000
00000000
,
01000000
00000000
00000000
00000000
10000000
00010000
01000000
00010000
,
00100000
00000000
00010000
00000000
01000000
00010000
00100000
01000000
,
00010000
00000000
00001000
00000000
00001000
00000100
00000001
00000001
,
00001000
00000000
00000100
00000010
00000010
00000000
00001000
00000000
,
00001001
00000000
00000000
00000000
00000000
00000000
00000000
00000000
00000010
00000000
00000000
00001000
00000000
00000000
00000200
00000000
,
00000000
00000000
00000000
00000000
00000300
00000000
00000000
00000000
00010000
00000000
00000000
00001000
00000000
00000000
00200000
00000000
,
00000000
00000000
00000000
00000000
00300000
00000000
00000000
00000000
00010000
00000000
00000000
01000000
00000000
00000000
00010000
00000000
,
00000000
10000000
01000000
00100000
00010000
10000000
00100000
20000000
,
00000000
00000000
00000000
00000000
30000000
00000000
00000000
00000000
00100000
00000000
00000000
01000000
00000000
00000000
00020000
00000000
,
00000000
00000000
00000000
00000000
00030000
00000000
00000000
00000000
00100000
00000000
00000000
00001000
00000000
00000000
00020000
00000000
,
00000000
00000000
00000000
00000000
00030000
00000000
00000000
00000000
00001000
00000000
00000000
00010000
00000000
00000000
00001000
00000000
,
00000000
00001000
00000100
00000001
00001000
00000010
00001000
00000001
,
00000100
00000000
00000001
00000000
00002000
00000100
00000000
00000100
,
00000000
00000000
00000000
00000010
00000000
00003010
00000000
00010000
,
00001000
00020000
00000000
00000000
00000000
00001000
00000000
00001000
,
00000000
00000000
00030000
00001000
00000000
00100000
00010000
01000000
,
00100000
20000000
00000000
00000000
00000000
00010000
00000000
30010000
,
00000000
00000000
00000000
00100000
00000000
01000000
00000000
00010000
,
00000000
00000000
00000000
00000000
01000000
00000000
00001000
00000000
00010000
00000000
00000000
00001000
00000000
00000000
00000000
00000000
,
00000000
00000000
00010000
00000000
00000000
00000010
00000000
00000000
00010000
00000000
00000000
00001000
00000000
00000000
00011000
00000000
;
