#TITLE:Colors;
#SUBTITLE:(Midihead's Sapphire Mix);
#ARTIST:dj TAKA;
#BANNER:Colors (Midihead's Sapphire Mix).png;
#BACKGROUND:Colors (Midihead's Sapphire Mix)-bg.png;
#CDTITLE:./CDTITLES/DANCE DANCE REVOLUTION ULTRAMIX 3.png;
#MUSIC:Colors (Midihead's Sapphire Mix).ogg;
#SAMPLESTART:31.929;
#SAMPLELENGTH:15;
#BPMS:0=140;

//---------------dance-single - ----------------
#NOTES:
     dance-single:
     :
     Beginner:
     1:
     :
0000
0000
0000
0000
,
0000
0000
0000
0000
,
0000
0000
0000
0000
,
0000
0000
0000
0000
,
0000
0000
0000
0000
,
1000
0000
0000
0000
,
0001
0000
0000
0000
,
1000
0000
0000
0000
,
1001
0000
0000
0000
,
0010
0000
0000
0000
,
0010
0000
0000
0000
,
0100
0000
0000
0000
,
0100
0000
0000
0000
,
0001
0001
0000
0000
,
1000
1000
0000
0000
,
0001
0000
1000
0000
,
1001
0000
0000
0000
,
0100
0000
0000
0000
,
1000
0000
0000
0000
,
0001
0000
0001
0000
,
0001
0000
0000
0000
,
1000
0000
1000
0000
,
1000
0000
0000
0000
,
0100
0000
0100
0000
,
0100
0000
0000
0000
,
0010
0000
0010
0000
,
0010
0000
0000
0000
,
0001
0000
0000
0000
,
0001
0000
0000
0000
,
1000
0000
0000
0000
,
1000
1000
0000
0000
,
0001
0000
0000
0000
,
0001
0000
0000
0000
,
1001
0000
0000
0000
,
0001
0000
0000
0000
,
1000
0000
0000
0000
,
0100
0000
0000
0000
,
0010
0000
0000
0000
,
0001
0000
0000
0000
,
0100
0000
0000
0000
,
0010
0000
0000
0000
,
1000
0000
0000
0000
,
0000
0000
0000
0000
,
0100
0000
0000
0000
,
0100
0000
0000
0000
,
0010
0000
0000
0000
,
0010
0000
0000
0000
,
0001
0000
0000
0000
,
1000
0000
0000
0000
,
0001
0000
0000
0000
,
1000
0000
0000
0000
,
0001
0000
0000
0000
,
0001
0000
0000
0000
,
0001
0000
0000
0000
,
0001
0000
0000
0000
,
1000
0000
0000
0000
,
1000
0000
0000
0000
,
1000
0000
0000
0000
,
1000
0000
0000
0000
,
0100
0000
0100
0000
,
0100
0000
0100
0000
,
0010
0000
0010
0000
,
0010
0000
0010
0000
,
0001
0000
0001
0000
,
0001
0000
0001
0000
,
1000
0000
1000
0000
,
1000
0000
0000
0000
;

//---------------dance-single - ----------------
#NOTES:
     dance-single:
     :
     Easy:
     4:
     :
0000
0000
0000
0000
,
0000
0000
0000
0000
,
0000
0000
0000
0000
,
0000
0000
0000
0000
,
0000
0000
0000
0000
,
0001
1000
0001
0001
,
0100
0001
1000
0100
,
1000
0000
0001
0000
,
1001
0000
0000
0000
,
0100
0100
0010
0100
,
0002
0000
0000
0003
,
2000
0000
0000
3000
,
0001
0100
0100
0100
,
0001
0010
0100
1000
,
0002
0000
0000
0003
,
2000
0000
0000
3000
,
0001
1000
0001
1000
,
0100
0100
0000
0000
,
0100
0100
0000
0000
,
0010
1000
0000
2000
,
0000
0000
0000
3000
,
0001
0100
0000
0002
,
1000
0000
1000
0003
,
0100
0010
0000
0020
,
0000
0000
0000
0030
,
1000
0000
0100
0000
,
2000
3000
0200
0300
,
1000
0100
0010
0001
,
2000
0000
0000
0000
,
0000
0000
3000
0001
,
0001
0010
0100
1000
,
0020
0030
2000
3000
,
0002
0003
0200
0300
,
0220
0000
0000
0000
,
0330
0000
0000
0000
,
1000
0000
0001
1000
,
0100
0000
0010
0001
,
0100
0000
0010
1000
,
0001
0000
1000
0100
,
1000
2000
0000
3000
,
0001
0002
0000
0003
,
2002
0000
0000
3003
,
0000
0000
0000
0000
,
0001
1000
0010
0100
,
0001
1000
0010
0100
,
0001
1000
0001
0010
,
0100
1000
0001
1000
,
0200
0000
0000
0300
,
0020
0000
0000
0030
,
2002
0000
0000
3003
,
0100
0100
0100
0100
,
0001
1000
0001
0100
,
0010
1000
0010
0100
,
0001
0010
0100
1000
,
0010
0100
0100
0100
,
0000
0001
1000
0100
,
1000
0010
1000
0100
,
0010
0001
0010
0100
,
1000
0000
0000
0000
,
0001
0100
0010
1000
,
0010
1000
0010
0100
,
0001
0010
0100
1000
,
0010
0100
0100
0100
,
0000
0001
0010
0001
,
1000
0100
1000
0010
,
0100
0001
1000
0001
,
2002
0000
0000
0000
,
0000
0000
0000
0000
,
3003
0000
0000
0000
;

//---------------dance-single - ----------------
#NOTES:
     dance-single:
     :
     Medium:
     5:
     :
0000
0000
0000
0000
,
0000
0000
0000
0000
,
0000
0000
0000
0000
,
0000
0000
0000
0000
,
0000
0000
0000
0000
,
0001
0100
0001
0000
1000
0000
0001
0000
,
0100
0000
0010
0000
1000
0010
1000
0000
,
0010
0100
0010
0000
0010
0100
0010
0000
,
0200
0000
0300
0110
,
1000
0001
1000
0001
1000
0000
0100
0000
,
1000
0100
1000
0100
0000
0001
0100
0000
,
0010
0100
0010
0000
1000
0000
0001
0000
,
1001
1001
0010
0100
,
1000
0000
0001
0100
0000
0100
0001
0000
,
1000
0010
1000
0010
0000
0100
0000
0100
,
0010
0000
0010
0100
0000
0001
0000
1000
,
0100
1100
1100
1100
,
1000
0001
0000
0100
0000
0001
1000
0000
,
0100
0010
0100
0110
,
0001
0010
0200
0000
0300
1000
0100
0000
,
0001
0100
0001
0100
0001
0100
0001
0000
,
1000
0001
2000
0000
3000
0100
0010
0000
,
0001
1000
0000
0001
0100
0001
0000
0000
,
0101
0000
0101
0000
0000
0010
0100
0010
,
0000
2000
0000
0000
,
0001
0000
3000
0100
0010
0000
0100
0000
,
2000
3002
0203
0301
,
1000
0010
1000
0010
0000
0100
0000
0010
,
0100
0002
1003
0002
,
1003
0000
1000
0001
0000
0100
0001
0000
,
1000
0001
1000
0001
1000
0001
1000
0000
,
0020
0000
1000
0130
,
0100
0110
0100
0101
,
2002
0000
0000
0000
,
0000
3003
0000
1000
0001
0100
0001
1000
,
0100
0000
0100
1000
0000
0001
0100
0000
,
0010
0000
1000
0010
0000
0100
0001
0100
,
0001
0000
1000
0001
0000
0010
0000
0100
,
0100
1000
0010
0100
,
0200
0010
0001
0310
,
0200
0000
0020
0330
,
0001
0100
0001
0000
1000
0000
0100
0000
,
0010
0000
0001
0000
1000
0000
0001
0100
,
0001
0000
0010
0000
0100
1000
0100
0000
,
1000
0001
0100
0000
0001
1000
0100
0000
,
0001
1000
1000
0001
,
2000
0001
0100
3001
,
0200
0301
0200
0310
,
2000
0000
0200
3300
,
0202
0000
0000
0303
,
0100
0001
0100
0001
0100
0001
0100
0000
,
0010
1000
0010
0000
0100
0000
0100
0000
,
0001
1000
0001
0100
0000
0010
1000
0000
,
0100
0000
1000
0100
1000
0000
0100
0000
,
0010
0001
0100
0000
0010
0000
1000
0000
,
0001
1000
0100
1000
0000
0001
0000
0001
,
0000
0010
0100
0000
0000
1000
0000
0001
,
0100
0000
0000
0010
0100
0010
0000
0100
,
0020
0000
0000
0030
,
1000
0000
0001
0000
1000
0100
1000
0100
,
1000
0010
0100
0001
,
2000
0000
0010
3100
,
0001
0000
1000
0000
0001
0100
0010
0000
,
1000
0000
0100
0000
0010
0001
0010
0000
,
1000
0100
1000
0000
0001
0100
0001
0000
,
1000
0010
0100
0001
,
0202
0000
0000
0000
,
0000
0000
0000
0000
,
0303
0000
0000
0000
;

//---------------dance-single - ----------------
#NOTES:
     dance-single:
     :
     Hard:
     7:
     :
0000
0000
0000
0000
,
0000
0000
0000
0000
,
0000
0000
0000
0000
,
0000
0000
0000
0000
,
0000
0000
0000
0000
,
2000
0001
0010
3100
,
0002
1000
0010
0103
,
0020
1000
0001
0130
,
2002
0000
0000
3003
,
0010
1000
0100
0000
2000
0000
3001
0000
,
0100
0001
0010
0000
0002
0000
0103
0000
,
0001
1000
0002
0000
0103
0010
0200
0000
,
0302
0000
1003
0000
0001
0010
0100
1000
,
0002
0000
1003
0000
0001
1000
0100
0000
,
2000
0000
3010
0000
0100
0001
1000
0000
,
0200
0000
1300
0000
0010
1000
0010
0000
,
0200
0000
0301
0000
0100
0001
0100
0000
,
0101
0000
0000
0010
1000
0000
0000
0100
,
0001
0000
0000
0010
1000
0001
0100
0000
,
1000
0000
0000
0000
0001
0000
1000
0100
0000
0100
0000
0000
1000
0000
0000
0000
,
0001
0000
0000
0000
1000
0000
0001
0010
0000
0010
0000
0000
0001
0000
0000
0000
,
0100
0000
0000
0000
0010
0000
0000
1000
0100
0000
0100
0000
1000
0000
0000
0000
,
0001
0000
0000
0000
0010
0000
0000
0001
0100
0000
0100
0000
0010
0000
0000
0000
,
2000
0000
0010
0000
3000
1000
0100
0010
,
0010
0000
0001
0100
0000
1000
0100
0000
,
1000
0010
0100
0000
0001
0010
0100
0000
,
1000
0010
0100
0001
0010
0100
1000
0010
,
0001
0000
0010
1000
0000
0001
0100
0000
,
1000
0100
0001
0010
1000
0001
0100
1000
,
0001
0000
1000
0000
0001
0000
0100
0001
0000
0001
0000
0000
1000
0000
0010
0000
,
1000
0000
0001
0000
1000
0000
0001
0100
0000
0100
0000
0000
1000
0000
0010
0000
,
0100
0000
0001
0000
0100
0000
0010
1000
0000
1000
0000
0000
0100
0000
0010
0000
,
0001
0000
0010
0000
0100
0000
1000
0010
0000
0010
0000
0000
0100
0000
0001
0000
,
0020
1000
0001
0130
,
0200
0001
1000
0310
,
0010
1000
0100
0010
0100
1000
0010
0000
,
0010
0100
0001
0010
0001
0100
0010
0000
,
0001
1000
0100
0001
1000
0010
0001
0000
,
1000
0001
0100
1000
0001
0010
1000
0000
,
1000
0001
0100
1000
0100
0001
0010
1000
,
0001
0100
1000
0010
0100
0010
1000
0001
,
2001
0000
0020
3000
2000
0030
0002
3000
,
0020
0000
0003
0000
0200
0000
0030
0000
1000
0000
0300
0000
0100
1000
0100
1000
,
0001
0100
0010
0100
0001
1000
0100
0000
,
1000
0100
0010
0100
1000
0001
0100
0000
,
0001
0100
0010
0100
0001
0010
0100
1000
,
0010
0100
0010
1000
0001
0100
0001
0000
,
1000
0100
0000
0100
1000
0000
0000
0000
0100
0000
0010
0000
0001
0000
0000
0000
,
0010
0001
0000
0001
0010
0000
0100
0000
1000
0000
0010
0000
1000
0000
0000
0000
,
0010
1000
0000
1000
0010
0000
0100
0001
0000
0001
0100
0000
0001
0000
1000
0000
,
0100
0000
0010
0000
0100
0000
0010
0000
0001
0000
1000
0100
1000
0000
0001
0000
,
0100
0010
1000
0010
0001
0010
0100
1000
,
0100
0001
0010
0100
1000
0100
0001
0100
,
0010
0001
0010
1000
0001
0100
1000
0010
,
0100
0001
0010
0000
0100
0010
1000
0100
,
0010
0000
0001
1000
0100
0010
0001
0100
,
0010
0000
0100
0000
0001
0000
0010
0000
0100
0000
1000
0000
0001
0000
0100
1000
,
0000
0000
0100
0000
0001
0000
1000
0100
0000
0000
0001
0000
0100
0000
1000
0000
,
0010
0000
0000
0100
0001
0000
1000
0100
0000
0010
0001
0000
1001
0000
0000
0000
,
0001
0100
1000
0100
0001
0100
1000
0000
,
0001
0000
1000
0010
1000
0100
1000
0000
,
0001
1000
0000
0000
0001
0000
0100
0000
0001
0000
0010
0000
0001
0000
0000
0000
,
1000
0100
0001
0100
1000
0001
0100
1000
,
0001
0000
1000
0100
0001
1000
0100
0010
,
0001
1000
0001
0100
0001
1000
0010
0100
,
0001
0010
0100
1000
0100
0010
0001
1000
,
2002
0000
0000
0000
,
0000
0000
0000
0000
,
3003
0000
0000
0000
;

//---------------dance-double - ----------------
#NOTES:
     dance-double:
     :
     Beginner:
     1:
     :
00000000
00000000
00000000
00000000
,
00000000
00000000
00000000
00000000
,
00000000
00000000
00000000
00000000
,
00000000
00000000
00000000
00000000
,
00000000
00000000
00000000
00000000
,
10000000
00000000
00000000
00000000
,
00010000
00000000
00000000
00000000
,
10000000
00000000
00000000
00000000
,
10010000
00000000
00000000
00000000
,
10000000
00000000
00000000
00000000
,
10000000
00000000
00000000
00000000
,
00010000
00000000
00000000
00000000
,
00010000
00000000
00000000
00000000
,
10000000
10000000
00000000
00000000
,
01000000
01000000
00000000
00000000
,
00010000
00000000
00001000
00000000
,
00011000
00000000
00000000
00000000
,
00000010
00000000
00000000
00000000
,
00000100
00000000
00000000
00000000
,
00000001
00000000
00000001
00000000
,
00000001
00000000
00000000
00000000
,
00001000
00000000
00001000
00000000
,
00001000
00000000
00000000
00000000
,
00000100
00000000
00000100
00000000
,
00000100
00000000
00000000
00000000
,
00010000
00000000
00010000
00000000
,
00010000
00000000
00000000
00000000
,
00001000
00000000
00000000
00000000
,
00001000
00000000
00000000
00000000
,
00010000
00000000
00000000
00000000
,
01000000
01000000
00000000
00000000
,
00100000
00000000
00000000
00000000
,
00100000
00000000
00000000
00000000
,
10010000
00000000
00000000
00000000
,
10000000
00000000
00000000
00000000
,
00010000
00000000
00000000
00000000
,
10000000
00000000
00000000
00000000
,
01000000
00000000
00000000
00000000
,
00010000
00000000
00000000
00000000
,
00001000
00000000
00000000
00000000
,
00010000
00000000
00000000
00000000
,
00001000
00000000
00000000
00000000
,
00000000
00000000
00000000
00000000
,
00000010
00000000
00000000
00000000
,
00000010
00000000
00000000
00000000
,
00000100
00000000
00000000
00000000
,
00000100
00000000
00000000
00000000
,
00000001
00000000
00000000
00000000
,
00001000
00000000
00000000
00000000
,
00000001
00000000
00000000
00000000
,
00000100
00000000
00000000
00000000
,
00001000
00000000
00000000
00000000
,
00010000
00000000
00000000
00000000
,
00010000
00000000
00000000
00000000
,
00001000
00000000
00000000
00000000
,
00001000
00000000
00000000
00000000
,
00010000
00000000
00000000
00000000
,
00010000
00000000
00000000
00000000
,
01000000
00000000
00000000
00000000
,
00100000
00000000
00100000
00000000
,
00100000
00000000
00100000
00000000
,
00010000
00000000
00010000
00000000
,
00010000
00000000
00010000
00000000
,
10000000
00000000
10000000
00000000
,
10000000
00000000
10000000
00000000
,
00010000
00000000
00010000
00000000
,
00010000
00000000
00000000
00000000
;

//---------------dance-double - ----------------
#NOTES:
     dance-double:
     :
     Easy:
     4:
     :
00000000
00000000
00000000
00000000
,
00000000
00000000
00000000
00000000
,
00000000
00000000
00000000
00000000
,
00000000
00000000
00000000
00000000
,
00000000
00000000
00000000
00000000
,
10000000
00010000
10000000
10000000
,
01000000
00010000
00001000
00010000
,
00001000
00000000
00000001
00000000
,
00001001
00000000
00000000
00000000
,
00001000
00001000
00000001
00000100
,
00000200
00000000
00000000
00000300
,
00000020
00000000
00000000
00000030
,
00001000
00000100
00000100
00000100
,
00010000
00001000
00100000
00010000
,
20000000
00000000
00000000
30000000
,
00020000
00000000
00000000
00030000
,
10000000
00010000
10000000
00010000
,
02000000
00000000
00000000
03000000
,
00200000
00000000
00000000
00300000
,
10000000
01000000
00000000
00020000
,
00000000
00000000
00000000
00030000
,
00001000
00000100
00000000
00000002
,
00000000
00000000
00000000
00000003
,
00000100
00001000
00000000
00020000
,
00000000
00000000
00000000
00030000
,
00200000
00300000
20000000
30000000
,
02000000
03020000
00032000
00003010
,
00000001
00000001
00001000
00001000
,
00000002
00000000
00000000
00000000
,
00000000
00000000
00000003
00001000
,
00001000
00000100
00010000
00001000
,
00020000
00030000
00002000
00003000
,
00020000
00030000
00000000
00000000
,
20020000
00000000
00000000
00000000
,
30030000
00000000
00000000
00000000
,
10000000
00000000
10000000
00010000
,
01000000
00000000
00100000
10000000
,
01000000
00000000
01000000
00010000
,
00001000
00000000
00000010
00000001
,
00001000
00000200
00000000
00000300
,
00010000
00020000
00000000
00030000
,
00022000
00000000
00000000
00033000
,
00000000
00000000
00000000
00000000
,
00000001
00001000
00000100
00000100
,
00010000
00001000
00100000
00100000
,
00010000
10000000
01000000
01000000
,
10000000
01000000
00010000
00001000
,
00020000
00000000
00000000
00030000
,
00002000
00000000
00000000
00003000
,
00000020
00000000
00000000
00000030
,
00002002
00000000
00000000
00003003
,
00001000
00000001
00000010
00000100
,
00010000
00001000
01000000
00100000
,
10000000
00010000
01000000
00010000
,
00100000
00200000
00000000
00300000
,
00010000
10000000
01000000
00100000
,
00001000
00010000
00000010
00000100
,
00000001
00001000
00000010
00001000
,
00000200
00000000
00000300
00000000
,
00010000
00001000
00010000
00000010
,
00001000
00000001
00001000
00000001
,
00000100
00001000
00010000
00001000
,
00001000
00020000
00000000
00030000
,
00000000
00100000
00010000
10000000
,
01000000
10000000
00010000
10000000
,
01000000
00010000
00001000
00010000
,
00022000
00000000
00000000
00000000
,
00000000
00000000
00000000
00000000
,
00033000
00000000
00000000
00000000
;

//---------------dance-double - ----------------
#NOTES:
     dance-double:
     :
     Medium:
     6:
     :
00000000
00000000
00000000
00000000
,
00000000
00000000
00000000
00000000
,
00000000
00000000
00000000
00000000
,
00000000
00000000
00000000
00000000
,
00000000
00000000
00000000
00000000
,
10000000
01000000
10000000
00000000
01000000
00000000
00010000
00000000
,
00001000
00000000
00000100
00000000
00000010
00000100
00000010
00000000
,
00000001
00001000
00000001
00000000
00000001
00001000
00000001
00000000
,
00002000
00000000
00003000
00001001
,
00000001
00001000
00000001
00001000
00000001
00000000
00000100
00000000
,
00001000
00010000
00001000
00010000
00000000
01000000
10000000
00000000
,
00010000
10000000
00010000
00000000
00100000
00000000
01000000
00000000
,
10010000
10010000
00010000
10000000
,
01000000
00000000
00010000
00001000
00000000
00001000
00010000
00000000
,
00000010
00001000
00000010
00001000
00000000
00000100
00000000
00000100
,
00000010
00000000
00000010
00000100
00000000
00001000
00000000
00000001
,
00000100
00000101
00000101
00000101
,
00000001
00000100
00000000
00001000
00000000
00010000
00001000
00000000
,
00100000
00010000
10000000
10010000
,
00010000
00100000
02000000
00000000
03000000
10000000
01000000
00000000
,
00010000
00001000
00010000
00001000
00010000
00001000
00010000
00000000
,
00001000
00000100
00000002
00000000
00000003
00001000
00000010
00000000
,
00001000
00000001
00000000
00001000
00000100
00001000
00000000
00000000
,
00000101
00000000
00000101
00000000
00000000
00000001
00000100
00001000
,
00000000
00200000
00000000
00000000
,
00010000
00000000
00300000
01000000
00100000
00000000
01000000
00000000
,
20000000
30020000
02030000
03010000
,
10000000
01000000
10000000
01000000
00000000
00010000
00000000
00001000
,
00010000
00002000
01003000
00020000
,
10030000
00000000
10000000
01000000
00000000
00010000
00001000
00000000
,
00000100
00000010
00000100
00000010
00000100
00000010
00000100
00000000
,
00000020
00000000
00001000
00000130
,
00000010
00000110
00000010
00001010
,
00002002
00000000
00000000
00000000
,
00000000
00003003
00000000
00001000
00000001
00000100
00000001
00001000
,
00000010
00001000
00000001
00000100
00000000
00001000
00010000
00000000
,
01000000
00000000
10000000
00010000
00000000
01000000
00100000
01000000
,
00100000
00000000
00010000
10000000
00000000
01000000
00000000
00010000
,
00010000
00001000
00000100
00000010
,
00000200
00001000
00000010
00001300
,
00000200
00000001
00000020
00000330
,
00000100
00000001
00000100
00000000
00000010
00000000
00001000
00000000
,
00000001
00000000
00000100
00000000
00001000
00000000
00010000
00001000
,
00010000
00000000
00001000
00000000
00100000
00010000
00100000
00000000
,
00010000
10000000
01000000
00000000
10000000
00010000
01000000
00000000
,
00100000
10000000
10000000
01000000
,
00020000
00001000
00001000
00031000
,
00002000
00013000
00020000
00031000
,
00000020
00000000
00000200
00000330
,
00002200
00000000
00000000
00003300
,
00001000
00000100
00001000
00000100
00001000
00000100
00001000
00000000
,
00000001
00000010
00000001
00000000
00000100
00000000
00000100
00000000
,
00000010
00001000
00000010
00000100
00000001
00001000
00000100
00000000
,
00010000
00000000
00001000
00010000
00001000
00000000
01000000
00000000
,
00010000
10000000
01000000
00000000
00100000
00000000
00010000
00000000
,
10000000
00010000
01000000
00010000
00000000
00100000
00000000
00100000
,
00000000
01000000
10000000
00000000
00000000
00010000
00000000
10000000
,
01000000
00000000
00000000
00100000
01000000
00100000
00000000
01000000
,
20000000
00000000
00000000
30000000
,
00010000
00000000
10000000
00000000
01000000
00100000
01000000
00100000
,
01000000
00010000
00001000
00010000
,
00000020
00000000
00001000
00000130
,
00001000
00000000
00000001
00000000
00001000
00000100
00000010
00000000
,
00000001
00000000
00000100
00000000
00000010
00000100
00000010
00000000
,
00010000
00001000
00010000
00000000
00001000
00010000
00001000
00000000
,
00100000
01000000
00010000
00001000
,
00022000
00000000
00000000
00000000
,
00000000
00000000
00000000
00000000
,
00033000
00000000
00000000
00000000
;

//---------------dance-double - ----------------
#NOTES:
     dance-double:
     :
     Hard:
     8:
     :
00000000
00000000
00000000
00000000
,
00000000
00000000
00000000
00000000
,
00000000
00000000
00000000
00000000
,
00000000
00000000
00000000
00000000
,
00000000
00000000
00000000
00000000
,
00000002
00000100
00001000
00000013
,
00002000
00000100
00000001
00003010
,
00020000
00000100
00000010
00031000
,
00022000
00000000
00000000
00033000
,
00001000
00010000
01000000
00000000
00010000
00001000
00000100
00000000
,
00000010
00001000
00000100
00000000
00010000
00001000
01000000
00000000
,
00020000
00000000
00000000
00000000
10000000
01000000
10030000
00000000
,
00100000
00000000
00001000
00000000
00010000
00000010
00000100
00000001
,
00002000
00000000
00003100
00000000
00010000
00001000
00010000
00000000
,
00002000
00000000
00013000
01000000
10000000
00100000
01000000
00000000
,
00020000
00000000
10030000
00100000
01000000
00100000
01000000
00000000
,
00002000
00000000
00013000
00000000
00000010
00010000
01000000
00000000
,
11000000
00000000
00000000
00000000
00000000
00000000
10000000
00100000
00000000
00000000
00000000
00000000
00000000
00000000
01000000
00100000
,
00000000
00000000
00000000
00000000
00000000
00000000
00000000
01000000
00010000
00000000
00000000
00000000
00011000
00000000
00000000
00000000
,
00000010
00000000
00010000
00001000
01000000
00010000
00100000
00000000
,
00001000
00000000
00000000
00000000
00000100
00000000
00000010
00000000
00000000
00001000
00000000
00000000
00000100
00000000
00000000
00000000
,
00001001
00001010
00020000
00031000
,
00001000
00010000
00001000
00000100
00000000
00000010
00010000
00000000
,
01000000
00000000
00100000
00000000
10000000
00010000
01000000
00100000
,
00100000
00000000
00010000
01000000
00000000
00001000
00010000
00000000
,
00001000
00001000
00010000
00000000
00010000
00010000
00001000
00000000
,
00010000
00001000
00000100
00000001
00000010
00000100
00010000
00001000
,
01000000
00000000
00100000
01000000
00000000
00010000
01000000
00000000
,
00100000
10000000
00010000
01000000
10000000
01000000
00010000
00100000
,
01000000
00000000
00000000
00000000
10000000
00000000
00100000
00000000
01000000
00000000
00000000
00001000
00010000
00000000
00001000
00000000
,
00010000
00000000
00001000
00000000
00000100
00000000
00000000
00000000
00000010
00001000
00000000
00000000
00000100
00010000
00000000
00000000
,
00001000
00010000
01000000
00100000
00010000
00100000
01000000
00000000
,
10000000
00100000
01000000
00010000
00100000
00001000
00010000
00001000
,
00000100
00000001
00000100
00010000
01000000
00100000
10000000
00010000
,
01000000
00100000
10000000
01000000
00100000
00010000
01000000
00010000
,
00100000
00001000
00010000
00000010
00001000
00000100
00010000
00001000
,
00010000
00001000
01000000
00010000
01000000
00100000
01100000
00000000
,
10000000
00100000
00010000
00001000
00000100
00000001
00000010
00000100
,
00010000
00100000
01000000
00010000
01000000
00010000
01010000
00000000
,
00100000
01000000
00010000
10000000
01000000
00100000
01000000
10000000
,
00100000
01000000
00001000
00010000
00000100
00000001
00000100
00000010
,
00000110
00000101
00001001
00001100
,
00011000
00000000
00000000
00000000
01010000
00000000
00000000
00000000
00011000
00000000
00000000
00000000
00010000
00001000
00010000
00001000
,
00010000
01000000
00100000
01000000
10000000
00010000
01000000
00100000
,
01000000
00000000
00010000
00000000
00100000
00000000
00000000
01000000
00100000
00000000
00010000
00000000
01000000
00000000
00001000
00000000
,
00000100
00000000
00000001
00000000
00000010
00000000
00000000
00000100
00000010
00000000
00000001
00000000
00000100
00000000
00000010
00000000
,
00001000
00000100
00010000
00001000
01000000
00010000
10000000
00000000
,
00100000
10000000
00000000
10000000
01000000
00000000
00000000
00000000
00100000
00000000
00010000
00000000
00100000
00000000
00000000
00000000
,
00010000
00100000
00000000
00100000
00010000
00000000
00000000
00000000
01000000
00000000
01000000
00000000
01000000
00000000
00000000
00000000
,
00100000
01000000
00000000
01000000
00010000
00000000
00010000
00100000
00000000
00100000
01000000
00000000
10000000
00000000
00100000
00000000
,
01000000
00010000
00000000
00000000
01000000
00000000
00010000
10000000
00010000
00000000
01000000
00000000
00100000
00000000
10000000
00000000
,
01000000
00100000
00010000
00001000
00000100
00000010
00000001
00000010
,
00000100
00000010
00000001
00000010
00000100
00001000
00000001
00000100
,
00000010
00001000
00000001
00001000
00000001
00000100
00001000
01000000
,
00100000
10000000
01000000
00100000
01000000
10000000
00010000
01000000
,
00100000
01000000
00100000
10000000
01000000
00010000
00001000
00000100
,
00000001
00000010
00000100
00010000
00001000
00100000
00010000
01000000
,
00100000
01000000
00010000
10000000
01000000
00010000
00001000
00000100
,
00000010
00001000
00000100
00000010
00000001
00000100
00001000
00010000
,
02000000
00000000
00000000
00000000
10000000
10000000
13000000
00000000
,
00100000
01000000
00010000
00100000
01000000
10000000
00010000
10000000
,
00100000
00000000
00100000
10000000
01000000
00010000
00001000
00000100
,
00000001
00000000
00001000
00000000
00000001
00000000
00001000
00000000
00000001
00000000
00001000
00000000
00000001
00000000
00000000
00000100
,
00000010
00000000
00001000
00000100
00010000
00001000
00100000
00010000
,
10000000
01000000
02000000
00000000
03000000
00100000
01000000
10000000
,
01000000
00010000
00001000
00000100
00000001
00001000
00000100
00010000
,
00022000
00000000
00000000
00000000
,
00000000
00000000
00000000
00000000
,
00033000
00000000
00000000
00000000
;
