#TITLE:CELEBRATE NITE;
#SUBTITLE:(EURO TRANCE STYLE);
#ARTIST:N.M.R.;
#BANNER:CELEBRATE NITE (EURO TRANCE STYLE).png;
#BACKGROUND:CELEBRATE NITE (EURO TRANCE STYLE)-bg.png;
#CDTITLE:./CDTITLES/Song Pack 13.png;
#MUSIC:CELEBRATE NITE (EURO TRANCE STYLE).ogg;
#SAMPLESTART:35.014;
#SAMPLELENGTH:15;
#BPMS:0.000=142.230,4.000=144.030;

//---------------dance-single - ----------------
#NOTES:
     dance-single:
     :
     Beginner:
     1:
     :
0000
0000
0000
0000
,
0000
0000
0000
0000
,
0000
0000
0000
0000
,
0000
0000
0000
0000
,
0000
0000
0000
0000
,
0001
0000
0000
0000
,
1000
0000
0000
0000
,
0001
0000
0000
0000
,
1000
0000
0000
0000
,
0010
0000
0000
0000
,
0100
0000
0000
0000
,
0001
0000
0000
0000
,
0200
0000
0000
0300
,
0100
0000
0100
0000
,
0010
0000
0010
0000
,
1000
0000
0000
0000
,
0100
0000
0000
0000
,
0010
0000
0010
0000
,
0001
0000
0001
0000
,
1000
0000
0000
0000
,
0200
0000
0000
0300
,
0100
0000
0100
0000
,
1000
1000
1000
0000
,
0001
0000
0000
0000
,
0010
0000
0010
0000
,
0001
0001
0001
0000
,
1000
0000
1000
0000
,
0010
0000
0010
0000
,
0100
0100
0100
0000
,
1001
0000
0000
0000
,
0100
0000
0000
0000
,
0010
0000
0000
0000
,
1000
0000
0000
0000
,
0001
0000
1000
0000
,
0001
0000
1000
0000
,
0001
0000
0010
0000
,
0200
0000
0000
0300
,
0100
0000
0010
0000
,
0100
0000
0010
0000
,
0001
0000
1000
0000
,
0001
0000
1000
0000
,
0001
0000
0100
0000
,
0001
0000
0100
0000
,
0010
0000
1000
0000
,
0200
0000
0000
0300
,
0100
0000
0100
0000
,
1000
1000
1000
0000
,
0001
0000
0000
0000
,
0010
0000
0010
0000
,
0001
0001
0001
0000
,
1000
0000
1000
0000
,
0010
0000
0010
0000
,
0100
0100
0100
0000
,
1001
0000
0000
0000
;

//---------------dance-single - ----------------
#NOTES:
     dance-single:
     :
     Easy:
     4:
     :
0000
0000
0000
0000
,
0000
0000
0000
0000
,
0000
0000
0000
0000
,
0000
0000
0000
0000
,
0000
0000
1000
1001
,
0001
0001
0001
0001
,
0000
0100
0000
0100
,
1000
1000
1000
1000
,
0000
0100
0000
0100
,
0001
0001
0001
0001
,
0000
0010
0000
0010
,
1000
1000
1000
1000
,
0000
0010
0000
0010
,
0001
0100
0000
0010
,
0000
0100
0000
0010
,
1000
0100
0000
0010
,
0000
0100
0000
0010
,
0001
1000
0000
0100
,
0000
1000
0000
0100
,
1000
0001
0000
0010
,
0000
0001
0000
0010
,
1001
0000
0100
0000
,
1000
0100
1000
0100
,
0010
0000
0001
0000
,
0010
0001
0010
0001
,
0200
0000
0301
0000
,
0100
0001
0100
0001
,
2000
0000
3010
0000
,
1000
0010
0100
0001
,
2002
0000
0000
0000
,
0000
0000
3003
0000
,
0200
0000
0000
0300
,
2000
0000
0002
3003
,
0100
0001
0100
0001
,
1000
0100
1000
0100
,
0000
0001
0000
0010
,
0000
1000
0000
0100
,
1000
0010
0000
0100
,
0000
0010
0000
0100
,
0001
0010
0000
0100
,
0000
0010
0000
0100
,
1000
1000
0001
0001
,
0010
0010
0100
0100
,
1000
0010
1000
0001
,
0100
0001
1000
0001
,
1002
0000
0013
0000
,
0001
0010
0001
0010
,
0200
0000
1300
0000
,
0100
1000
0100
1000
,
0020
0000
2030
0000
,
3010
1000
0010
1000
,
0002
0000
0203
0000
,
0301
0100
0010
1000
,
2002
0000
0000
3003
;

//---------------dance-single - ----------------
#NOTES:
     dance-single:
     :
     Medium:
     6:
     :
0000
0000
0000
0000
,
0000
0000
0000
0000
,
0000
0000
0000
0000
,
0000
0000
0000
0000
,
0000
0000
0110
1001
,
1000
0000
0001
0000
1000
0000
0001
1000
,
0000
0100
0000
0010
0000
0100
0000
0010
,
0001
0000
1000
0000
0001
0000
1000
0001
,
0000
0100
0000
0010
0000
0100
0000
0010
,
1000
0000
0100
0000
0001
0000
0100
1000
,
0000
0010
0000
0001
0000
0010
0000
1000
,
0001
0000
0100
0000
1000
0000
0100
0001
,
0000
0010
0000
1000
0000
0010
0000
0001
,
1000
1010
0000
0101
,
0000
0000
1100
0000
0000
0010
0100
1000
,
0001
0101
0000
1010
,
0000
0000
0011
0000
0000
0100
0010
0001
,
1000
1100
0000
0101
,
0000
0000
0011
0000
0000
1000
0001
0100
,
0010
0101
0000
1100
,
0010
1000
0100
0000
0010
0001
0100
0000
,
1001
0001
0100
0001
,
1000
0100
1000
0010
1000
0000
0100
0000
,
0010
0001
0100
0010
,
0100
0001
0100
1000
0200
0000
0302
0000
,
1003
0000
0100
0000
0010
0100
1000
0000
,
0001
0000
0100
0000
0010
0100
0001
0000
,
2000
0000
3002
0000
,
1003
0000
0001
0000
0010
0100
0010
0000
,
2002
0000
0000
0000
,
0000
0000
0000
0003
,
0200
0000
0000
3000
,
0020
0000
0000
0330
,
0001
0001
1000
1000
,
0010
0100
0001
0100
,
0010
0010
1000
1000
,
0010
1000
0100
0000
0010
0001
0100
0000
,
0001
0101
0000
1010
,
0000
0000
0011
0000
0000
0100
0010
0001
,
1000
1010
0000
0101
,
0000
0000
1100
0000
0000
0010
0100
1000
,
0001
0011
0000
1010
,
0000
0000
1100
0000
0000
0001
1000
0010
,
0100
1010
0000
0011
,
0100
0001
0010
0000
0100
1000
0010
0000
,
1001
1000
0010
1000
,
0001
0010
0001
0100
0001
0000
0010
0000
,
0100
1000
0010
0100
,
0010
1000
0010
0001
0020
0000
2030
0000
,
3001
0000
0010
0000
0100
0010
0001
0000
,
1000
0000
0010
0000
0100
0010
1000
0000
,
0002
0000
2003
0000
,
3001
0000
1000
0000
0100
0010
0100
0000
,
2001
0000
0000
0100
0000
0100
0000
0200
,
0000
0000
0000
3300
;

//---------------dance-single - ----------------
#NOTES:
     dance-single:
     :
     Hard:
     7:
     :
0000
0000
0000
0000
,
0000
0000
0000
0000
,
0000
0000
0000
0000
,
0000
0000
0000
0000
,
0000
0000
0000
0000
0000
0000
0000
0000
0001
1000
0001
1000
0001
0000
0000
0000
,
1001
0100
1000
0000
0010
0100
0001
0001
,
1000
0100
1000
0000
0010
1000
0100
0000
,
0010
0100
0001
0000
0010
0100
1000
1000
,
0001
0100
0000
0100
0000
0100
0000
0100
,
0001
1000
0001
0000
0100
0010
1000
1000
,
0001
0010
0001
0000
0100
0001
0010
0000
,
0100
0010
1000
0000
0100
0010
0001
0001
,
1000
0010
0000
0010
0000
0010
0100
0001
,
1000
0000
1000
0000
0001
1000
0100
0010
,
0001
0000
0000
0000
0001
0000
1000
0000
0001
0100
0000
0000
0101
0000
0000
0000
,
0010
0000
0010
0000
1000
0001
0100
0010
,
1000
0000
0000
0000
1000
0000
0001
0000
1000
0100
0000
0000
1100
0000
0000
1000
,
0001
0000
0001
0000
1000
0001
0010
0100
,
1000
0000
0000
0000
1000
0000
0001
0000
1000
0010
0000
0000
1010
0000
0000
0000
,
0100
0000
0100
0000
0001
1000
0010
0100
,
0000
0100
0000
0000
1001
0100
0010
0000
,
1000
0000
0000
0010
0000
0000
0100
0000
0000
0000
0100
0000
0100
0000
1000
0000
,
0100
0010
1000
0001
0000
0001
0000
0000
,
1000
0000
0000
0100
0000
0000
0010
0000
0000
0000
0010
0000
0010
0000
0000
0000
,
0001
0000
0100
0000
0010
0000
1000
0000
0101
0000
0000
1100
0000
0000
0000
0000
,
0010
0001
0100
1000
0010
1000
0100
0010
,
1000
0101
0001
1100
,
0010
1000
0100
0001
0010
0001
0100
0010
,
0001
1100
1000
0101
,
0020
0000
0000
0000
,
0000
0000
0000
0030
,
0100
0000
0000
0001
0000
0000
0010
0000
0010
0000
0000
0001
0000
0000
0100
0000
,
0100
0000
0000
1000
0000
0000
0010
0000
0010
0000
0000
1000
0000
0000
0100
0000
,
0001
1000
0100
0010
0100
1000
0001
0010
,
0100
0010
0001
1000
0010
0001
0010
1000
,
0100
0010
0001
0100
0010
0100
0001
1000
,
0010
0100
0010
1000
0100
0001
0100
0000
,
1001
0100
0000
1000
0100
0010
0000
1000
,
0010
0100
0001
0100
1000
0010
0100
0000
,
0110
0001
0000
0010
0001
1000
0000
0010
,
1000
0100
0010
1000
0010
0100
0001
0000
,
1001
0010
0000
1000
0010
0100
0000
1000
,
0100
0010
0001
0010
1000
0100
0010
0000
,
0110
0001
0000
0100
0001
2000
0000
0002
,
0000
0000
0000
3003
0000
1000
0001
0000
,
1000
0000
0001
0000
1000
0010
0010
0001
,
0010
0100
0001
1000
0000
1000
0000
1000
,
0001
0000
1000
0000
0100
0010
0010
0000
,
0001
0000
0010
0000
0100
0000
1000
0000
0101
0000
0000
1100
0000
0000
0000
0000
,
0010
0001
0100
1000
0001
1000
0100
0000
,
0001
1100
1000
0101
,
1000
0001
0010
1000
0001
1000
0010
0001
,
0100
0011
0001
1010
,
0200
0000
0000
0000
,
0000
0000
0000
0000
,
0300
0000
0000
0000
;

//---------------dance-single - ----------------
#NOTES:
     dance-single:
     :
     Challenge:
     8:
     :
0000
0000
0000
0000
,
0000
0000
0000
0000
,
0000
0000
0000
0000
,
1000
0000
0100
0000
,
0001
0000
0000
0000
0010
1000
0100
0000
,
1001
0100
0010
0000
0010
0001
0100
0000
,
0010
1000
0100
0100
0010
1000
0100
0000
,
1001
0100
0010
0000
0010
1000
0100
0000
,
0010
0001
0100
0100
0010
0001
0100
0000
,
0010
1000
0100
0001
0100
0010
0001
0100
,
0100
0010
0001
0100
0010
1000
0100
0000
,
0010
0001
0100
1000
0100
0010
1000
0100
,
0100
0010
1000
0100
0010
0001
0101
0000
,
0010
0000
1000
0000
0001
1000
0100
0000
,
1000
0100
0010
0000
0001
0000
0101
0000
,
1000
0100
0001
0100
,
0010
1000
0100
1000
0100
0001
0010
0000
,
0001
0000
0100
0000
0001
1000
0100
0000
,
0010
0001
1000
0000
0001
0000
1100
0000
,
0001
0100
1000
0100
,
0010
0001
0100
0010
0001
0100
1001
0000
,
0001
0000
0000
1000
0000
0000
0100
0000
0000
0000
0000
0000
0001
0000
0000
0000
,
1000
0100
0010
0000
1000
0000
0100
0000
,
1000
0000
0000
0001
0000
0000
0100
0000
0000
0000
0000
0000
1000
0000
0000
0000
,
0001
0100
0010
0000
0001
0000
0100
0000
,
1000
0000
0000
1000
0000
0000
0100
0000
0000
0000
0000
0000
0010
0000
0000
0000
,
0001
1000
0100
0000
0001
0000
1100
0000
,
0001
0000
0000
0001
0000
0000
0100
0000
0000
0000
0000
0000
0010
0000
0000
0000
,
0000
0000
0000
0100
1000
0010
0100
0001
,
0020
0000
0000
0030
,
0001
0000
0000
1000
0100
0000
0010
0000
0001
0000
0000
0100
0001
0000
0100
0000
,
0010
0000
0000
0001
1000
0000
0100
0000
0010
0000
0000
0001
0010
0000
0001
0000
,
1000
0000
0000
0010
0100
0000
0001
0000
0010
0000
0000
0100
1000
0000
0100
0000
,
0110
0000
0001
0000
0100
0000
0001
0010
,
0100
0000
1000
0000
1000
0000
1000
0010
,
0100
0001
0010
0100
,
0010
1000
0100
0100
0010
1000
0100
0000
,
1001
0000
0000
0000
0100
0000
0000
0000
0010
0000
0000
0000
0001
0100
0000
0000
,
0001
0000
0000
0000
1000
0000
0000
0000
0100
0000
0000
0000
0010
0001
0000
0000
,
0010
0000
0000
0000
0100
0000
0000
0000
1000
0000
0000
0000
0010
0100
0010
0000
,
0100
0000
0000
0000
1000
0000
0000
0000
0001
0000
0000
0000
0010
0001
0010
0000
,
0001
0000
0000
0000
1000
0000
0000
0000
0010
0000
0000
0000
0100
0001
0100
0001
,
0100
0000
0000
0000
0010
0000
0000
0000
1000
0000
0000
0000
1000
0100
1000
0100
,
1000
0100
0010
0001
,
0010
0010
1000
0001
0100
0010
1001
0000
,
0010
1000
0100
0000
1000
0001
0100
0000
,
0001
0010
0100
0010
1000
0001
0100
0000
,
1000
0001
0100
0000
0010
0001
1000
0000
,
0100
0010
0001
0100
1000
0010
0100
0000
,
0001
0010
0100
0000
1000
0010
0100
0000
,
0001
1000
0010
0100
1000
0100
0001
0000
,
1000
0010
0100
0100
0010
0001
0100
0000
,
0000
0000
0000
0100
1000
0010
0100
0001
,
0020
0000
0000
0001
0000
0001
0000
0001
,
0000
0000
0000
0000
,
0030
0000
0000
0000
;

//---------------dance-double - ----------------
#NOTES:
     dance-double:
     :
     Beginner:
     1:
     :
00000000
00000000
00000000
00000000
,
00000000
00000000
00000000
00000000
,
00000000
00000000
00000000
00000000
,
00000000
00000000
00000000
00000000
,
00000000
00000000
00000000
00000000
,
00000001
00000000
00000000
00000000
,
00001000
00000000
00000000
00000000
,
00010000
00000000
00000000
00000000
,
10000000
00000000
00000000
00000000
,
01000000
00000000
00000000
00000000
,
00010000
00000000
00000000
00000000
,
00001000
00000000
00000000
00000000
,
00000200
00000000
00000000
00000300
,
00000100
00000000
00000100
00000000
,
00000001
00000000
00000001
00000000
,
00001000
00000000
00000000
00000000
,
00000100
00000000
00000000
00000000
,
00010000
00000000
00010000
00000000
,
00001000
00000000
00001000
00000000
,
00100000
00000000
00000000
00000000
,
02000000
00000000
00000000
03000000
,
01000000
00000000
01000000
00000000
,
10000000
10000000
10000000
00000000
,
00010000
00000000
00000000
00000000
,
00100000
00000000
00100000
00000000
,
00001000
00001000
00001000
00000000
,
00010000
00000000
00010000
00000000
,
00001000
00000000
00001000
00000000
,
00000100
00000100
00000100
00000000
,
00001001
00000000
00000000
00000000
,
00000001
00000000
00000000
00000000
,
00000100
00000000
00000000
00000000
,
00001000
00000000
00000000
00000000
,
00010000
00000000
00001000
00000000
,
00010000
00000000
00001000
00000000
,
00010000
00000000
01000000
00000000
,
20000000
00000000
00000000
30000000
,
10000000
00000000
00010000
00000000
,
10000000
00000000
00010000
00000000
,
00100000
00000000
00001000
00000000
,
00100000
00000000
00001000
00000000
,
00010000
00000000
00000100
00000000
,
00010000
00000000
00000100
00000000
,
00001000
00000000
00000001
00000000
,
00000200
00000000
00000000
00000300
,
00000100
00000000
00000100
00000000
,
00000001
00000001
00000001
00000000
,
00001000
00000000
00000000
00000000
,
00000010
00000000
00000010
00000000
,
00010000
00010000
00010000
00000000
,
00001000
00000000
00001000
00000000
,
00010000
00000000
00010000
00000000
,
01000000
01000000
01000000
00000000
,
10010000
00000000
00000000
00000000
;

//---------------dance-double - ----------------
#NOTES:
     dance-double:
     :
     Easy:
     4:
     :
00000000
00000000
00000000
00000000
,
00000000
00000000
00000000
00000000
,
00000000
00000000
00000000
00000000
,
00000000
00000000
00000000
00000000
,
00000000
00000000
00000010
00000110
,
00000100
00000100
00000100
00000100
,
00001000
00000000
00000001
00000000
,
00000100
00000100
00000100
00000100
,
00000000
00001000
00000000
00010000
,
00001000
00001000
00001000
00001000
,
00100000
00000000
00010000
00000000
,
01000000
01000000
01000000
01000000
,
00000000
00100000
00000000
10000000
,
00010000
01000000
00000000
00010000
,
00000000
01000000
00000000
00010000
,
00100000
00001000
00000000
00100000
,
00000000
00001000
00000000
00100000
,
00001000
00010000
00000000
00000100
,
00000000
00010000
00000000
00000100
,
00010000
00000010
00000000
00001000
,
00000000
00000010
00000000
00001000
,
00001001
00000000
00000010
00000000
,
00000100
00000001
00000100
00000001
,
00000010
00000000
00000100
00000000
,
00000010
00000100
00000010
00000100
,
00020000
00000000
00031000
00000000
,
00010000
00001000
00010000
00001000
,
00200000
00000000
00310000
00000000
,
00100000
01000000
10000000
00010000
,
20020000
00000000
00000000
00000000
,
00000000
00000000
30030000
00000000
,
00200000
00000000
00000000
00300000
,
02000000
00000000
00020000
03030000
,
01000000
00010000
01000000
00010000
,
00100000
00010000
00100000
00010000
,
00000000
10000000
00000000
01000000
,
00000000
00010000
00000000
00001000
,
00010000
00000100
00000000
00001000
,
00000000
00000100
00000000
00001000
,
00000010
00000100
00000000
00000001
,
00000000
00000100
00000000
00000001
,
00001000
00001000
00000100
00000100
,
00010000
00010000
00001000
00001000
,
00100000
00010000
10000000
00010000
,
01000000
00100000
10000000
00010000
,
10020000
00000000
00130000
00000000
,
00010000
00100000
00010000
00100000
,
02000000
00000000
03010000
00000000
,
01000000
00010000
01000000
00010000
,
00002000
00000000
00023000
00000000
,
00031000
00010000
00001000
00010000
,
00000200
00000000
00002300
00000000
,
00003001
00000010
00000100
00001000
,
00002002
00000000
00000000
00003003
;

//---------------dance-double - ----------------
#NOTES:
     dance-double:
     :
     Medium:
     6:
     :
00000000
00000000
00000000
00000000
,
00000000
00000000
00000000
00000000
,
00000000
00000000
00000000
00000000
,
00000000
00000000
00000000
00000000
,
00000000
00000000
11000000
01010000
,
10000000
00000000
00010000
00000000
10000000
00000000
00010000
00100000
,
00000000
01000000
00000000
00100000
00000000
01000000
00000000
00100000
,
00001000
00000000
00010000
00000000
00001000
00000000
00010000
00000100
,
00000000
00000010
00000000
00000100
00000000
00000010
00000000
00000100
,
00001000
00000000
00000010
00000000
00000001
00000000
00000010
00001000
,
00000000
00000100
00000000
00010000
00000000
00001000
00000000
01000000
,
00010000
00000000
00100000
00000000
10000000
00000000
00100000
00010000
,
00000000
01000000
00000000
00001000
00000000
00010000
00000000
00001000
,
00010000
00011000
00000000
00001100
,
00000000
00000000
00000101
00000000
00000000
00001000
00000001
00000100
,
00000010
00000110
00000000
00000101
,
00000000
00000000
00001100
00000000
00000000
00000010
00001000
00000100
,
00010000
00011000
00000000
01010000
,
00000000
00000000
00110000
00000000
00000000
00010000
10000000
01000000
,
00100000
01100000
00000000
11000000
,
00100000
10000000
01000000
00000000
00100000
00010000
01000000
00000000
,
01100000
00010000
10000000
00010000
,
00100000
00010000
00100000
00001000
00100000
00000000
00010000
00000000
,
01000000
00001000
00010000
00000100
,
00000010
00000001
00000010
00000100
00000020
00000000
00000032
00000000
,
00001003
00000000
00000100
00000000
00010000
00001000
00100000
00000000
,
00010000
00000000
01000000
00000000
00001000
00010000
00000010
00000000
,
00002000
00000000
00003002
00000000
,
00001003
00000000
00000001
00000000
00000100
00000010
00001000
00000000
,
00002200
00000000
00000000
00000000
,
00000000
00000000
00000000
00003000
,
00020000
00000000
00000000
00000300
,
00002000
00000000
00000000
00033000
,
00001000
00001000
00010000
00010000
,
00100000
10000000
01000000
00010000
,
00001000
00001000
00000100
00000100
,
00000010
00001000
00000100
00000000
00000010
00000001
00000100
00000000
,
00000010
00000110
00000000
00001010
,
00000000
00000000
00010010
00000000
00000000
00010000
00001000
01000000
,
00010000
01100000
00000000
01010000
,
00000000
00000000
01001000
00000000
00000000
00001000
00010000
00000100
,
00001000
00001010
00000000
00001001
,
00000000
00000000
00000011
00000000
00000000
00001000
00000100
00010000
,
00001000
00110000
00000000
10010000
,
01000000
00010000
00100000
00000000
01000000
10000000
00100000
00000000
,
01100000
00010000
10000000
00010000
,
01000000
00010000
01000000
00001000
01000000
00000000
00010000
00000000
,
00100000
00001000
00010000
00000010
,
00000100
00000001
00000100
00000010
00000200
00000000
00000302
00000000
,
00001003
00000000
00000010
00000000
00010000
00001000
01000000
00000000
,
00010000
00000000
00100000
00000000
00001000
00010000
00000100
00000000
,
00002000
00000000
00003002
00000000
,
00001003
00000000
00000001
00000000
00000010
00000100
00001000
00000000
,
00001200
00000000
00000000
00010000
00000000
00010000
00000000
00020000
,
00000000
00000000
00000000
00030300
;

//---------------dance-double - ----------------
#NOTES:
     dance-double:
     :
     Hard:
     7:
     :
00000000
00000000
00000000
00000000
,
00000000
00000000
00000000
00000000
,
00000000
00000000
00000000
00000000
,
00000000
00000000
00000000
00000000
,
00000000
00000000
00000000
00000000
00000000
00000000
00000000
00000000
00001000
00000001
00001000
00000001
00000100
00000000
00000000
00000000
,
00000101
00000010
00000100
00000000
00000001
00000010
00000001
00000001
,
00001000
00000010
00000001
00000000
00001000
00010000
01000000
00000000
,
00100000
01000000
00100000
00000000
10000000
00100000
10000000
10000000
,
00010000
02000000
00000000
03002000
00000000
00023000
00000000
00031000
,
00000100
00001000
00010000
00000000
01000000
00010000
00001000
00000100
,
00000100
00000010
00000100
00000000
00001000
00000100
00000001
00000000
,
00000010
00000100
00000010
00000000
00000001
00000010
00000001
00000001
,
00001000
00000200
00000000
00020300
00000000
00031000
00010000
00001000
,
00011000
00000000
00010000
00000000
00100000
01000000
00010000
10000000
,
00010000
00000000
00000000
00000000
10000000
00000000
01000000
00100000
00000000
00100000
01000000
00000000
10000000
00000000
00000000
00000000
,
00010000
00000000
01000000
00000000
00100000
01000000
00100000
00010000
,
00001000
00000000
00000000
00000000
00010000
00000000
00000100
00000000
00000000
00001000
00000100
00000000
00000100
00000010
00000000
00000010
,
00000001
00000000
00000001
00000000
00000100
00000010
00001000
00000001
,
00001000
00000000
00000000
00000000
00000001
00000000
00000010
00000100
00000000
00000100
00000010
00000000
00000001
00000000
00000000
00000000
,
00001000
00000000
00001000
00000000
00000010
00001000
00000100
00010000
,
00000000
00010000
00000000
00000000
00101000
00010000
01000000
00000000
,
00100000
00000000
00000000
10000000
00000000
00000000
00010000
00000000
00000000
00000000
01000000
00000000
01000000
00000000
10000000
00000000
,
01000000
00010000
00100000
00001000
00000000
00001000
00000000
00000000
,
00010000
00000000
00000000
00000100
00000000
00000000
00002000
00000000
00000000
00000000
00000000
00000000
00003010
00000000
00000000
00000000
,
00000100
00000000
00001000
00000000
00000100
00000000
00000001
00000000
00001100
00000000
00000000
00000101
00000000
00000000
00000000
00000000
,
00000010
00000001
00000100
00001000
00010000
01000000
10000000
00100000
,
01000000
01010000
10010000
11000000
,
00100000
10000000
01000000
00010000
00001000
00000100
00000001
00000010
,
00000100
00001100
00001001
00000101
,
00000020
00000000
00000000
00000000
,
00000000
00000000
00000000
00000030
,
00001000
00000000
00000000
00000100
00000000
00000000
00010000
00000000
00010000
00000000
00000000
00001000
00000000
00000000
00100000
00000000
,
00100000
00000000
00000000
00010000
00000000
00000000
10000000
00000000
10000000
00000000
00000000
01000000
00000000
00000000
10000000
00000000
,
00100000
10000000
01000000
00100000
01000000
10000000
00010000
01000000
,
00100000
00010000
00001000
00000100
00000010
00001000
00000001
00001000
,
00000100
00000010
00000001
00000010
00001000
00000010
00000100
00001000
,
00000010
00010000
00001000
01000000
00010000
10000000
00100000
00000000
,
10010000
01000000
00000000
00010000
01000000
00100000
00000000
00010000
,
00100000
01000000
00010000
00100000
00001000
00100000
00010000
00000000
,
00110000
00001000
00000000
00010000
00000100
00010000
00000000
00001000
,
00000100
00000010
00001000
00000001
00001000
00000100
00000010
00000000
,
00001001
00000010
00000000
00001000
00000010
00000100
00000000
00001000
,
00000100
00000010
00001000
00000100
00010000
00000100
00001000
00000000
,
00001100
00010000
00000000
00001000
00100000
00001000
00000000
01000000
,
00000000
00100000
00000000
00000000
10100000
01000000
00010000
00000000
,
10000000
00000000
00010000
00000000
01000000
00100000
00100000
00010000
,
00001000
00000100
00000010
00000010
00000000
00000010
00000000
00000010
,
00001000
00000000
00000001
00000000
00001000
00000100
00000100
00000000
,
00000010
00000000
00000100
00000000
00010000
00000000
00000100
00000000
00010100
00000000
00000000
00101000
00000000
00000000
00000000
00000000
,
00100000
00010000
01000000
00100000
00010000
00100000
01000000
00010000
,
00100000
00110000
00011000
00001010
,
00000010
00001000
00000100
00000010
00001000
00000010
00000100
00001000
,
00000010
00001010
00011000
00110000
,
02000000
00000000
00000000
10000000
00000000
10000000
00000000
10000000
,
00000000
00000000
00000000
00000000
,
03000000
00000000
00000000
00000000
;

//---------------dance-double - ----------------
#NOTES:
     dance-double:
     :
     Challenge:
     8:
     :
00000000
00000000
00000000
00000000
,
00000000
00000000
00000000
00000000
,
00000000
00000000
00000000
00000000
,
10000000
00000000
01000000
00000000
,
00010000
00000000
00000000
00000000
00001000
00000100
00000001
00000000
,
00001001
00000100
00001000
00000000
00010000
01000000
00100000
00000000
,
01000000
00010000
00001000
00001000
00010000
01000000
10000000
00000000
,
10010000
01000000
00010000
00000000
00001000
00000100
00000010
00000000
,
00000100
00001000
00010000
00010000
00001000
00000100
00000001
00000000
,
00001000
00000010
00000100
00000001
00001000
00000010
00000100
00000001
,
00000001
00000100
00001000
00010000
01000000
10000000
00100000
00000000
,
00010000
00100000
01000000
10000000
00010000
00100000
01000000
10000000
,
10000000
01000000
00010000
00001000
00000100
00000001
00000010
00000000
,
00001000
00000000
00010000
00000000
00001000
00010000
01000000
00000000
,
00010000
00001000
00000100
00000000
00010010
00000000
00101000
00000000
,
00010000
01000000
10000000
01000000
,
00010000
10000000
01000000
00010000
00001000
00000100
00000001
00000000
,
00000010
00000000
00001000
00000000
00000010
00001000
00010000
00000000
,
00001000
00010000
01000000
00000000
10010000
00000000
01001000
00000000
,
00010000
00001000
00000100
00000001
,
00000010
00000001
00000100
00001000
00010000
01000000
11000000
00000000
,
00100000
00000000
00000000
00001000
00000000
00000000
00010000
00000000
00000000
00000000
00000000
00000000
00000100
00000000
00000000
00000000
,
00001000
00000001
00000100
00000000
00000010
00000000
00000100
00000000
,
00000010
00000000
00000000
00010000
00000000
00000000
00001000
00000000
00000000
00000000
00000000
00000000
01000000
00000000
00000000
00000000
,
00010000
10000000
01000000
00000000
10000000
00000000
00010000
00000000
,
01000000
00000000
00000000
00001000
00000000
00000000
00010000
00000000
00000000
00000000
00000000
00000000
00000100
00000000
00000000
00000000
,
00001000
00000001
00000100
00000000
00000011
00000000
00001100
00000000
,
00000010
00000000
00000000
00010000
00000000
00000000
00001000
00000000
00000000
00000000
00000000
00000000
00100000
00000000
00000000
00000000
,
00000000
00000000
00000000
10000000
01000000
00010000
00001000
00000100
,
00000002
00000000
00000000
00000003
,
00001000
00000000
00000000
00000010
00000100
00000000
00000001
00000000
00000010
00000000
00000000
00001000
00010000
00000000
00100000
00000000
,
10000000
00000000
00000000
00010000
10000000
00000000
01000000
00000000
00100000
00000000
00000000
00010000
10000000
00000000
01000000
00000000
,
00010000
00000000
00000000
00001000
00000100
00000000
00000010
00000000
00000100
00000000
00000000
00000001
00001000
00000000
00000100
00000000
,
00000010
00000000
00000001
00000000
00000100
00000000
00000001
00000100
,
00001000
00000000
00010000
00000000
01000000
00000000
00010000
01000000
,
10000000
00100000
00010000
00001000
,
00000100
00001000
00010000
00010000
01000000
00010000
00001000
00000000
,
00011000
00000000
00000000
00000000
01000000
00000000
00000000
00000000
10000000
00000000
00000000
00000000
00010000
01000000
00000000
00000000
,
00010000
00000000
00000000
00000000
10000000
00000000
00000000
00000000
01000000
00000000
00000000
00000000
00010000
00001000
00000000
00000000
,
00000100
00000000
00000000
00000000
00000001
00000000
00000000
00000000
00000010
00000000
00000000
00000000
00001000
00010000
00001000
00000000
,
00010000
00000000
00000000
00000000
00100000
00000000
00000000
00000000
10000000
00000000
00000000
00000000
01000000
00010000
01000000
00000000
,
00010000
00000000
00000000
00000000
00001000
00000000
00000000
00000000
00000100
00000000
00000000
00000000
00001000
00010000
00001000
00010000
,
00001000
00000000
00000000
00000000
00100000
00000000
00000000
00000000
01000000
00000000
00000000
00000000
00010000
00001000
00010000
00001000
,
00010000
00000010
00000100
00001000
,
00010000
00010000
01000000
10000000
00100000
01000000
10010000
00000000
,
00100000
10000000
01000000
00000000
00010000
00001000
00000100
00000000
,
00000001
00001000
00000100
00000100
00001000
00000010
00000100
00000000
,
00000010
00000001
00000100
00000000
00001000
00010000
01000000
00000000
,
01000000
10000000
01000000
00010000
00001000
00000010
00000001
00000000
,
00000010
00000001
00000100
00000000
00000001
00000100
00001000
00000000
,
00000100
00000001
00000100
00001000
00010000
00100000
10000000
00000000
,
00100000
10000000
01000000
10000000
01000000
00010000
00100000
00000000
,
00000000
00000000
00000000
00100000
00001000
00010000
00000100
00001000
,
00000020
00000000
00000000
00000100
00000000
00000100
00000000
00000100
,
00000000
00000000
00000000
00000000
,
00000030
00000000
00000000
00000000
;
