#TITLE:CARNIVAL DAY;
#ARTIST:Paula Terry & Fu Fu's;
#BANNER:CARNIVAL DAY.png;
#BACKGROUND:CARNIVAL DAY-bg.png;
#CDTITLE:./CDTITLES/GUITARFREAKS & drummania.PNG;
#MUSIC:CARNIVAL DAY.ogg;
#SAMPLESTART:16.252;
#SAMPLELENGTH:15;
#BPMS:0=144.8,4=148;

//---------------dance-single - ----------------
#NOTES:
     dance-single:
     :
     Beginner:
     1:
     :
0000
0000
0000
0000
,
0000
0000
0000
0000
,
0000
0000
0000
0000
,
0000
0000
0000
0000
,
0000
0000
0000
0000
,
0000
0000
0000
0000
,
1000
0000
0000
0000
,
0001
0000
0000
0000
,
0001
0000
0000
0000
,
2002
0000
3003
0000
,
1000
0000
1000
0000
,
0000
0000
0000
0000
,
0010
0000
0010
0000
,
0000
0000
0000
0000
,
0100
0000
0100
0000
,
0000
0000
0000
0000
,
0001
0000
0001
0000
,
0000
0000
0000
0000
,
1000
0000
1000
0000
,
0100
0000
0100
0000
,
0010
0000
0010
0000
,
0001
0000
0001
0000
,
1000
0000
0001
0000
,
0000
0000
0000
0000
,
1000
0000
0100
0000
,
0000
0000
0000
0000
,
0010
0000
0001
0000
,
0010
0000
0001
0000
,
1000
0000
0100
0000
,
0010
0000
0100
0000
,
1000
0000
1000
0000
,
0010
0000
0100
0000
,
0001
0000
1000
0000
,
0001
0000
0100
0000
,
0010
0000
0000
0000
,
1000
0000
0000
0000
,
1000
0000
0000
0000
,
0001
0000
0000
0000
,
0002
0000
0003
0000
,
0001
0000
0000
0000
,
0010
0000
0000
0000
,
0001
0000
0000
0000
,
2000
0000
3000
0000
,
0001
0000
0001
0000
,
0010
0000
0010
0000
,
0100
0000
0100
0000
,
1000
0000
1000
0000
,
0100
0000
1000
0000
,
0001
0000
0100
0000
,
0001
0000
0010
0000
,
0001
0000
0100
0000
,
0001
0000
0000
0000
,
1000
0000
0000
1001
;

//---------------dance-single - ----------------
#NOTES:
     dance-single:
     :
     Easy:
     3:
     :
0000
0000
0000
0000
,
0000
0000
0000
0000
,
0000
0000
0000
0000
,
0000
0000
0000
0000
,
0000
0000
0000
0000
,
0000
0000
0000
0000
,
1000
0000
0001
0000
,
1000
0000
0010
0000
,
2002
0000
0000
3003
,
0000
0000
0000
0000
,
0010
0000
0100
0000
,
1000
0001
0001
0000
,
0100
0000
0100
0000
,
0001
1000
1000
0000
,
0010
0000
0100
0000
,
0001
0100
0100
0000
,
0010
0000
1000
0000
,
1000
0010
0010
0000
,
1000
1000
0100
0100
,
1000
1000
0100
0000
,
0010
0010
0100
0100
,
0010
0010
0100
0000
,
1000
0000
1000
0000
,
0001
1000
0001
0000
,
0010
0000
0100
0000
,
0010
0100
0010
0000
,
0100
0000
1000
0000
,
0001
0000
1000
0000
,
0002
0000
0003
1000
,
0001
0000
0010
0000
,
0001
0000
0010
0000
,
0100
0000
0010
0000
,
0002
0000
0003
0000
,
1001
0000
0000
0000
,
0110
0000
0000
0000
,
0001
0000
1000
0000
,
0010
0010
0100
0000
,
0001
0000
1000
0000
,
0010
0010
0010
0000
,
1000
0000
0001
0000
,
0100
0100
0010
0000
,
1000
0100
0010
0001
,
0100
0100
0100
0000
,
0001
0000
1000
0000
,
0001
1000
0001
0000
,
1000
0000
0010
0000
,
0100
0100
0100
0000
,
0001
1000
0001
0000
,
0010
0001
0010
0000
,
0100
1000
0100
1000
,
0001
0001
0001
0000
,
0100
0010
0100
0000
,
0001
0001
0001
1001
;

//---------------dance-single - ----------------
#NOTES:
     dance-single:
     :
     Medium:
     5:
     :
0000
0000
0000
0000
,
0000
0000
0000
0000
,
0000
0000
0000
0000
,
0000
0000
0000
0000
,
0000
0000
0000
0000
,
0000
0000
0000
0000
,
0100
0000
0000
0001
0000
0001
0000
1000
,
0000
0000
0010
0000
,
1000
0000
0000
2000
0000
0000
3000
0000
,
0001
0010
0001
0000
0001
0100
0001
0000
,
1000
0000
0010
0000
,
1000
0001
1000
0001
,
0100
0000
0010
0000
,
1000
0100
1000
0100
,
0010
0000
0010
0001
,
0100
0010
1000
0001
,
1000
0000
0100
0000
,
1000
0100
0110
0000
,
0001
1000
0100
0010
,
0001
0000
0010
0000
0001
0010
0001
0000
,
1000
0010
0100
0001
,
0001
0000
0100
0010
0100
0000
0001
1000
,
0001
0000
1000
0100
1000
0001
0000
1000
,
1100
0000
1100
0000
1100
0000
1000
0010
,
1000
0000
0001
0100
0001
0100
0000
0001
,
1000
1000
2002
3003
,
0002
0003
0200
0300
,
0020
0030
2000
3000
,
0002
0000
0003
1000
,
2000
3000
0200
0300
,
2000
3000
0002
0003
,
0020
0030
0002
0003
,
0200
0000
0000
0300
,
2002
0000
0000
3003
,
1000
0000
0000
0001
0000
0001
0000
0000
,
0100
0000
0000
0010
0000
0000
0000
0010
,
1000
0100
0010
0100
1000
0000
0000
0001
,
0010
0100
0010
0001
1000
0000
0010
1000
,
0001
0001
0001
0000
,
1000
0000
0000
0001
0000
0000
0000
1000
,
0100
1000
0010
1000
0001
0000
0000
1000
,
0100
1000
0001
1000
0001
0000
0100
0001
,
1000
0000
0010
0010
0000
0000
0000
0000
,
0002
0003
0200
0300
,
0010
1000
1000
0000
,
0002
0003
0020
0030
,
0100
1000
1000
0000
,
2000
3000
0002
0003
,
0010
0100
0100
0000
,
0020
0030
0002
0003
,
0001
1000
0001
0000
,
0010
0000
0100
0000
0010
0000
0010
0010
,
0001
0100
0010
1001
;

//---------------dance-single - ----------------
#NOTES:
     dance-single:
     :
     Hard:
     6:
     :
0000
0000
0000
0000
,
0000
0000
0000
0000
,
0000
0000
0000
0000
,
0000
0000
0000
0000
,
0000
0000
0000
0000
,
0000
0000
0000
0000
,
0010
0000
0000
1000
0000
0001
0000
0200
,
0000
0000
0300
0000
,
0010
0000
0000
0020
0000
0000
0030
0000
,
1000
0100
0001
0000
0100
1000
1000
0001
,
0010
0000
0001
0100
0001
0010
0000
0100
,
1000
0000
1000
0000
1000
0000
0010
0100
,
0010
0000
1000
0010
1000
0100
0000
1000
,
0001
0000
0001
0000
0001
0000
1000
0010
,
1000
0000
0001
0100
0001
0010
0001
0000
,
0100
0000
0100
0000
0100
0000
0001
0100
,
0001
0000
0001
1000
0100
0000
1000
2000
,
0010
0010
3010
1001
,
0001
0010
0100
1000
0001
0010
0100
1000
,
0001
0010
0100
1000
0100
1000
1000
0000
,
1000
0100
0010
0001
1000
0100
0010
0001
,
1000
0000
1001
0000
0101
0000
0001
1000
,
0100
0000
1000
0010
0100
0001
0000
1000
,
0001
0000
1001
0000
1010
0000
1000
0001
,
0100
0000
0001
0100
0001
1000
0000
0001
,
1000
1001
0011
0000
,
0020
0031
0200
0310
,
2000
3100
0020
0130
,
0200
0000
0000
1300
,
0020
0000
2000
3030
,
0002
1003
0020
1030
,
0200
0310
0002
0000
,
2003
0000
0000
3000
,
0220
0000
0000
0330
,
0001
0000
0000
1000
0000
1001
0000
0000
,
0020
0000
0030
0002
0000
0003
0000
1000
,
0010
1000
0100
1000
0001
0000
0000
0001
,
1000
0001
0010
0001
0100
0001
1000
1000
,
0010
0100
0200
0300
,
0002
0000
0003
0200
0000
0300
0000
0001
,
0100
0001
1000
0100
1000
0000
0000
0001
,
0010
0001
1000
0100
1000
0010
0001
0010
,
1000
0000
0001
0100
0000
0000
0001
1000
,
0100
0000
1000
0010
1000
0010
0000
1000
,
1000
0000
0001
0000
0001
0000
0001
0001
,
0010
0000
0100
1000
0001
0100
0000
0010
,
0100
0000
0100
0000
0001
0000
0010
0001
,
0001
0000
0001
1000
0010
1000
0001
0000
,
0100
0000
0001
0000
0100
0000
0001
0010
,
0001
0000
0001
0100
0010
1000
0100
0000
,
1100
0000
1010
0000
1001
0000
0001
1000
,
0100
0000
1000
0000
0001
0000
0001
0001
,
1000
0010
0100
1001
;

//---------------dance-double - ----------------
#NOTES:
     dance-double:
     :
     Beginner:
     1:
     :
00000000
00000000
00000000
00000000
,
00000000
00000000
00000000
00000000
,
00000000
00000000
00000000
00000000
,
00000000
00000000
00000000
00000000
,
00000000
00000000
00000000
00000000
,
00000000
00000000
00000000
00000000
,
00001000
00000000
00000000
00000000
,
00010000
00000000
00000000
00000000
,
00001000
00000000
00000000
00000000
,
00022000
00000000
00033000
00000000
,
00001000
00000000
00010000
00000000
,
00000000
00000000
00000000
00000000
,
00000100
00000000
00000100
00000000
,
00000000
00000000
00000000
00000000
,
00000010
00000000
00000010
00000000
,
00000000
00000000
00000000
00000000
,
00001000
00000000
00001000
00000000
,
00000000
00000000
00000000
00000000
,
00000001
00000000
00000001
00000000
,
00000100
00000000
00000100
00000000
,
00001000
00000000
00001000
00000000
,
00010000
00000000
00010000
00000000
,
01000000
00000000
10000000
00000000
,
00000000
00000000
00000000
00000000
,
00100000
00000000
10000000
00000000
,
00000000
00000000
00000000
00000000
,
10000000
00000000
00010000
00000000
,
00100000
00000000
00010000
00000000
,
01000000
00000000
00010000
00000000
,
00100000
00000000
01000000
00000000
,
00010000
00000000
00001000
00000000
,
00000100
00000000
00000010
00000000
,
00001000
00000000
00000100
00000000
,
00001000
00000000
00000001
00000000
,
00000010
00000000
00000000
00000000
,
00000001
00000000
00000000
00000000
,
00000100
00000000
00000000
00000000
,
00001000
00000000
00000000
00000000
,
00020000
00000000
00030000
00000000
,
00010000
00000000
00000000
00000000
,
01000000
00000000
00000000
00000000
,
10000000
00000000
00000000
00000000
,
00200000
00000000
00300000
00000000
,
10000000
00000000
10000000
00000000
,
01000000
00000000
01000000
00000000
,
00010000
00000000
00010000
00000000
,
00001000
00000000
00001000
00000000
,
00010000
00000000
00001000
00000000
,
00010000
00000000
00001000
00000000
,
00000100
00000000
00000010
00000000
,
00001000
00000000
00000100
00000000
,
00001000
00000000
00000000
00000000
,
00000010
00000000
00000000
00000110
;

//---------------dance-double - ----------------
#NOTES:
     dance-double:
     :
     Easy:
     3:
     :
00000000
00000000
00000000
00000000
,
00000000
00000000
00000000
00000000
,
00000000
00000000
00000000
00000000
,
00000000
00000000
00000000
00000000
,
00000000
00000000
00000000
00000000
,
00000000
00000000
00000000
00000000
,
00010000
00000000
00100000
00000000
,
00010000
00000000
01000000
00000000
,
00020000
00000000
00000000
00030000
,
00000000
00000000
10000000
00000000
,
01000000
00010000
00001000
00000000
,
00011000
00000000
00001000
00000000
,
00000100
00000001
00000001
00000000
,
00000100
00000000
00000010
00000000
,
00000100
00000001
00000100
00000000
,
00000000
00000000
00001000
00000000
,
00010000
00001000
00001000
00000000
,
00010000
00000000
00000000
00000000
,
01000000
01000000
10000000
10000000
,
00100000
00100000
00100000
00000000
,
10000000
10000000
01000000
00010000
,
00001000
00000100
00000001
00000000
,
00000100
00000001
00000001
00000000
,
00000100
00000000
00000001
00000000
,
00001000
00000001
00001000
00000000
,
00000100
00000000
00000010
00000000
,
00000001
00000000
00001000
00000000
,
00000002
00000000
00000003
00000000
,
00000001
00000000
00000100
00001000
,
00000000
00000000
00000000
00000000
,
00010000
00000000
01000000
00000000
,
01000000
00000000
10000000
00000000
,
00020000
00000000
00030000
00000000
,
10000000
01000000
00010000
00000000
,
00001000
00010000
00011000
00000000
,
00001000
00000100
00000001
00000000
,
00000001
00000000
00000100
00000000
,
00000010
00000010
00000010
00000000
,
00000100
00000000
00000001
00000000
,
00000010
00000100
00001000
00000000
,
00000001
00000000
00000100
00000000
,
00000000
00001000
00000000
00010000
,
01000000
10000000
00010000
00000000
,
01000000
00000000
00010000
00000000
,
00010000
00100000
00010000
00000000
,
10000000
00000000
01000000
00000000
,
00010000
00001000
00000100
00000001
,
00000001
00001000
00001000
00000000
,
00000001
00001000
00000010
00000000
,
00000100
00000100
00000100
00000000
,
00000001
00000100
00000001
00000000
,
00000100
00000000
00001000
00001000
,
00000000
00010000
00000000
00010000
;

//---------------dance-double - ----------------
#NOTES:
     dance-double:
     :
     Medium:
     5:
     :
00000000
00000000
00000000
00000000
,
00000000
00000000
00000000
00000000
,
00000000
00000000
00000000
00000000
,
00000000
00000000
00000000
00000000
,
00000000
00000000
00000000
00000000
,
00000000
00000000
00000000
00000000
,
00000100
00000000
00000000
00000010
00000000
00000010
00000000
00001000
,
00000000
00000000
00000100
00000000
,
00001000
00000000
00000000
00000200
00000000
00000000
00000300
00000000
,
00010000
00001000
00010000
00000000
00010000
01000000
10000000
00000000
,
10000000
00000000
00100000
00000000
,
01000000
00010000
10000000
01000000
,
00100000
00000000
00010000
00000000
,
01000000
00001000
00010000
00000010
,
00001000
00000000
00000010
00000100
,
00000001
00000010
00000100
00001000
,
00000010
00000000
00001000
00000000
,
00000001
00000100
00000101
00000000
,
00000001
00000010
00000100
00001000
,
00000100
00000000
00010000
00000000
00001000
00100000
00010000
00000000
,
00010000
00100000
01000000
10000000
,
00010000
00000000
01000000
00010000
10000000
00000000
00010000
00100000
,
00010000
00000000
10000000
00010000
10000000
00100000
00000000
10000000
,
10100000
00000000
10100000
00000000
10100000
00000000
00100000
10000000
,
00010000
00000000
00010000
01000000
00001000
00010000
00000000
00000100
,
00001000
00001000
00002002
00003003
,
00000002
00000003
00000020
00000030
,
00002000
00003000
00020000
00030000
,
00002000
00000000
00003000
00010000
,
00002000
00003000
02000000
03000000
,
00020000
00030000
20000000
30000000
,
00200000
00300000
00020000
00030000
,
00002000
00000000
00000000
00003000
,
00022000
00000000
00000000
00033000
,
00010000
00000000
00000000
00000100
00000000
00001000
00000000
00000000
,
00000010
00000000
00000000
00000100
00000000
00000000
00000000
00000001
,
00001000
00000010
00000100
00000100
00000001
00000000
00000000
00001000
,
00000001
00000100
00000010
00000010
00001000
00000000
00000010
00010000
,
00001000
01000000
00010000
00000000
,
10000000
00000000
00000000
01000000
00000000
00000000
00000000
00100000
,
01000000
10000000
00010000
10000000
00010000
00000000
00000000
00010000
,
01000000
00100000
01000000
00010000
10000000
00000000
01000000
10000000
,
00010000
00000000
01000000
01000000
00000000
00000000
00000000
00000000
,
00020000
00030000
02000000
03000000
,
00001000
00010000
00001000
00000000
,
00020000
00030000
00000200
00000300
,
00001000
00000001
00000001
00000000
,
00000200
00000300
00000020
00000030
,
00001000
00000010
00000100
00000000
,
00002000
00003000
00020000
00030000
,
00010000
01000000
10000000
00000000
,
00100000
00000000
01000000
00000000
00010000
00000000
01000000
01000000
,
00001000
00010000
00001000
00011000
;

//---------------dance-double - ----------------
#NOTES:
     dance-double:
     :
     Hard:
     7:
     :
00000000
00000000
00000000
00000000
,
00000000
00000000
00000000
00000000
,
00000000
00000000
00000000
00000000
,
00000000
00000000
00000000
00000000
,
00000000
00000000
00000000
00000000
,
00000000
00000000
00000000
00000000
,
10000000
00000000
00000000
01000000
00000000
00010000
00000000
00002000
,
00000000
00000000
00003000
00000000
,
00000100
00000000
00000000
00000002
00000000
00000000
00000003
00000000
,
00000001
00000010
00001000
00000000
00000010
00000001
00000100
00000100
,
00000010
00000000
00001000
00000100
00000010
00000010
00000000
00000100
,
00001000
00000000
00001000
00000000
00001000
00000000
00000001
00000100
,
00000001
00000000
00000001
00000100
00001000
00010000
00000000
01000000
,
10000000
00000000
10000000
00000000
10000000
00000000
00010000
00100000
,
10000000
00000000
00100000
01000000
10000000
00100000
10000000
00000000
,
00010000
00000000
00010000
00000000
00010000
00000000
01000000
00010000
,
00100000
00000000
00001000
00010000
00000100
00000000
00001000
00002000
,
00000100
00000100
00003001
00000110
,
00000001
00000010
00001000
00000010
00000001
00000100
00000001
00001000
,
00000001
00000010
00001000
00010000
01000000
10000000
10000000
00000000
,
10000000
01000000
00010000
01000000
10000000
01000000
00100000
00010000
,
01000000
00000000
01001000
00000000
00011000
00000000
00010000
00000100
,
00001000
00000000
00000001
00001000
00000100
00000100
00000000
00001000
,
00000001
00000000
00001010
00000000
00001001
00000000
00000100
00000001
,
00001000
00000000
00000001
00001000
00000100
00010000
00000000
00001000
,
01000000
00010000
01100000
00000000
,
02000000
13000000
00020000
00130000
,
02000000
03100000
00020000
01030000
,
00002000
00000000
00003000
00010000
,
00002000
00000000
00000200
00003300
,
00000002
00000103
00002000
00013000
,
02000000
03010000
00002000
00003000
,
00000200
00000000
00000000
00000300
,
00000002
00000000
00000000
00000003
,
00000010
00000000
00000000
00000100
00000000
00001100
00000000
00000000
,
00002000
00000000
00000000
00003020
00000000
00000000
00000030
00001000
,
00000001
00000010
00000001
00000100
00001000
00000000
00000000
00000100
,
00000001
00000010
00000100
00001000
00000001
00000100
00001000
00010000
,
01000000
10000000
02000000
03000000
,
20000000
00000000
00000000
30200000
00000000
00000000
00300000
10000000
,
01000000
00010000
01000000
10000000
00010000
00000000
00000000
00010000
,
01000000
10000000
01000000
00010000
00100000
00001000
00010000
00000010
,
00001000
00000000
00000001
00000100
00000000
00000000
00000010
00000100
,
00000001
00000000
00001000
00000100
00001000
00000010
00000000
00001000
,
00000001
00000000
00001000
00000000
00001000
00000000
00001000
00000001
,
00000100
00000000
00001000
00010000
00100000
10000000
00000000
01000000
,
00100000
00000000
00100000
00000000
00010000
00000000
10000000
01000000
,
01000000
00000000
00100000
10000000
00100000
01000000
00010000
00000000
,
10000000
00000000
00010000
00000000
00100000
00000000
00010000
10000000
,
00010000
00000000
10000000
01000000
10000000
00100000
01000000
00000000
,
01010000
00000000
00110000
00000000
00011000
00000000
00010000
00001000
,
00000010
00000000
00001000
00000000
00010000
00000000
00010000
00010000
,
00100000
00010000
00001000
00011000
;
