#TITLE:Body Rock;
#SUBTITLE:(Olav Basoski's Da Hot Funk Da Freak Funk Remix);
#ARTIST:Moby;
#BANNER:Body Rock (Olav Basoski's Da Hot Funk Da Freak Funk Remix).png;
#BACKGROUND:Body Rock (Olav Basoski's Da Hot Funk Da Freak Funk Remix)-bg.png;
#CDTITLE:./CDTITLES/DANCE DANCE REVOLUTION ULTRAMIX 3.PNG;
#MUSIC:Body Rock (Olav Basoski's Da Hot Funk Da Freak Funk Remix).ogg;
#SAMPLESTART:39.496;
#SAMPLELENGTH:15;
#DISPLAYBPM:128;
#BPMS:0=128.3,4=127.573;

//---------------dance-single - ----------------
#NOTES:
     dance-single:
     :
     Beginner:
     1:
     :
0000
0000
0000
0000
,
0000
0000
0000
0000
,
0000
0000
0000
0000
,
0000
0000
0000
0000
,
0000
0000
0000
0000
,
0010
0000
0000
0000
,
1000
0000
0000
0000
,
0100
0000
0000
0000
,
0001
0000
0000
0000
,
0001
0000
0000
0000
,
0001
0000
0000
0000
,
0001
0000
0001
0000
,
0001
0000
0001
0000
,
1000
0000
0000
0000
,
1000
0000
0000
0000
,
1000
0000
1000
0000
,
1001
0000
0000
0000
,
1001
0000
0000
0000
,
0110
0000
0000
0000
,
1000
1000
1000
0000
,
0001
0001
0001
0000
,
0100
0000
0100
0000
,
0100
0000
0100
0000
,
0010
0000
0010
0000
,
0010
0000
0010
0000
,
1000
0000
0000
0000
,
1000
0000
0000
0000
,
0001
0000
0000
0000
,
0001
0000
0000
0000
,
0100
0000
0100
0000
,
0010
0010
0010
0000
,
0010
0000
0010
0000
,
0100
0100
0100
0000
,
1000
0000
1000
0000
,
0001
0001
0001
0000
,
0001
0000
0001
0000
,
1000
1000
1000
0000
,
0010
0000
0000
0000
,
1000
0000
0000
0000
,
0001
0000
0000
0000
,
0100
0000
0000
0000
,
0110
0000
0000
0000
,
0110
0000
0000
0000
,
0110
0000
0000
0000
,
1001
0000
0000
0000
,
0010
0010
0010
0010
,
0000
0000
0000
0000
,
1000
1000
1000
1000
,
0000
0000
0000
0000
,
0001
0001
0001
0001
,
0000
0000
0000
0000
,
0100
0100
0100
0100
,
0000
0000
0000
0000
,
1001
0000
0000
0000
;

//---------------dance-single - ----------------
#NOTES:
     dance-single:
     :
     Easy:
     3:
     :
0000
0000
0000
0000
,
0000
0000
0000
0000
,
0000
0000
0000
0000
,
0000
0000
0000
0000
,
0000
0000
0000
0000
,
0002
0000
0000
0003
,
0200
0000
0000
0300
,
2000
0000
0000
3000
,
0200
0000
0000
0300
,
0010
0000
0100
0000
,
0010
0000
0100
0000
,
0001
0000
1000
0000
,
0001
0000
1000
0000
,
0100
0000
0010
0000
,
0001
0000
0010
0000
,
0100
0100
0100
0100
,
0001
0010
1000
0001
,
1001
0001
1000
1000
,
0010
0010
0000
0100
,
0001
0001
1000
1000
,
0100
0100
0000
0010
,
0002
0003
2000
3000
,
0020
0030
0100
0100
,
0002
0003
0020
0030
,
0200
0300
1000
1000
,
0002
0003
0200
0300
,
0020
0030
1000
1000
,
0002
0003
0020
0030
,
0200
0300
0000
0000
,
1001
0000
0000
0000
,
0110
0000
0000
0000
,
1001
0000
0000
0000
,
0110
0000
0000
0000
,
0001
0001
1000
1000
,
0010
0000
0100
0000
,
0001
0001
1000
1000
,
0100
0000
0010
0000
,
0100
0100
1000
1000
,
0001
0000
0100
0000
,
0010
0010
1000
1000
,
0001
0000
0010
0000
,
0200
0000
0000
0300
,
2000
0000
0000
3000
,
0002
0003
2000
3000
,
2002
0000
0000
3003
,
0001
0001
1000
1000
,
0010
0010
0000
0100
,
0001
0001
1000
1000
,
0100
0100
0000
0010
,
0002
0003
2000
3000
,
0020
0030
0100
0100
,
0001
0001
0001
0001
,
1000
1000
1000
1000
,
1001
0000
0000
0000
;

//---------------dance-single - ----------------
#NOTES:
     dance-single:
     :
     Medium:
     5:
     :
0000
0000
0000
0000
,
0000
0000
0000
0000
,
0000
0000
0000
0000
,
0000
0000
0000
0000
,
0000
0000
0000
0000
,
2000
3001
2000
3001
,
0002
1003
2000
3001
,
0002
1003
0002
1003
,
2000
3001
0002
1003
,
0000
0100
0000
0010
0000
1000
0000
0101
,
0000
0010
0000
0100
0000
0010
0000
0100
,
0000
0101
0000
0001
0000
1100
0000
0010
,
0000
1100
0000
0010
0000
0100
0000
1000
,
0000
0101
0000
1000
0000
0101
0000
0010
,
0000
0110
0000
1000
0000
0001
0000
1000
,
0000
1100
0000
0100
0000
0110
0000
0000
,
0022
0000
0000
0033
,
0010
0001
0100
0000
0010
1000
0100
0000
,
1000
0100
1000
0100
1000
0100
1000
0000
,
1000
0100
0001
0000
0001
0100
1000
0000
,
0100
1000
0020
0000
0030
0010
0010
0000
,
0000
0010
0000
1000
0000
0101
0000
1000
,
0000
0202
0000
0000
0000
0000
0000
0303
,
0000
1000
0000
0100
0000
0110
0000
0100
,
0000
2200
0000
0000
0000
0000
0000
3300
,
0000
0001
0000
1000
0000
0010
0000
1100
,
0000
2002
0000
0000
0000
0000
0000
3003
,
0000
0100
0000
0101
0000
0010
0000
0100
,
0000
0220
0000
0000
0000
0000
0330
0000
,
0001
2000
0000
3000
,
0010
1000
0010
0000
0010
0100
0010
0000
,
1000
0002
0000
0003
,
0010
0001
0010
0000
0010
0100
0010
0000
,
1000
0001
0100
0000
1000
0001
0100
0000
,
0001
0010
0100
1000
0000
0001
0001
0000
,
0100
0010
1000
0000
1000
0001
0100
0000
,
0001
1000
0010
0100
0000
0010
0010
0000
,
1000
1000
0100
0000
0010
0010
0001
0000
,
0100
1000
0010
1000
0000
0100
0100
0000
,
0001
0100
0001
0000
0001
0100
0001
0000
,
1000
0001
1000
0001
0000
1000
1000
0000
,
1100
0000
0101
0000
,
0011
0000
1010
0000
,
0110
0101
1001
1100
,
1000
0100
1000
0010
0000
0100
0100
0000
,
0001
0100
1000
0000
0100
1000
0010
0000
,
1000
0010
0001
0000
0010
0001
0100
0000
,
0010
1000
0100
0000
0010
0001
0100
0000
,
1000
0001
0100
0000
0001
1000
1000
0000
,
0001
1000
0100
0000
0001
1000
0100
0000
,
0001
0010
0100
0000
1000
0100
1000
0000
,
1000
0010
1010
0000
0001
0010
0011
0000
,
0001
0100
0101
0000
1000
0100
1100
0000
,
1001
0000
0000
0000
;

//---------------dance-single - ----------------
#NOTES:
     dance-single:
     :
     Hard:
     7:
     :
0000
0000
0000
0000
,
0000
0000
0000
0000
,
0000
0000
0000
0000
,
0000
0000
0000
0000
,
0000
0000
0000
0000
,
2000
0010
0000
3010
,
0200
0010
0000
0310
,
0002
1000
0000
1003
,
0200
1000
0000
1300
,
0001
0000
0100
0100
0001
0000
0010
0010
,
0100
0000
1000
1000
0010
0000
0100
0100
,
0001
0000
1000
1000
0001
0000
1000
1000
,
0100
0000
0010
0001
0100
0010
1000
0100
,
0010
0000
0001
0001
0100
0000
0001
0001
,
1000
0000
0001
1000
0001
1000
0100
0000
,
0001
0000
1000
1000
0001
0000
1000
1000
,
0001
0000
1000
0000
0100
1000
1001
0000
,
0001
0010
0100
1000
0100
1000
0100
1000
,
0010
0100
0001
0010
0001
0010
0001
0010
,
0100
1000
0010
1000
0010
0100
0001
0010
,
0001
1000
0001
0100
0010
0100
0220
0000
,
0330
0000
0001
0000
1000
0100
1000
0000
,
0001
0000
0100
0000
0010
0100
0010
0000
1000
0000
0001
0000
1000
0000
0001
0000
,
1000
0001
0100
0000
1000
0001
1000
0000
,
0010
0000
1000
0000
0001
0100
0001
0000
1000
0000
0100
0000
1000
0000
0010
0000
,
0100
0001
0010
0000
0001
1000
0100
0000
,
1000
0000
0010
0000
0100
0001
0100
0000
0010
0000
1000
0000
0100
0000
1000
0000
,
0010
0100
0001
0000
1000
0001
0100
0000
,
0001
1000
0002
0000
0010
0010
0013
0000
,
0011
0000
0000
0100
0000
0000
1010
0000
0000
0100
0000
0000
0110
0000
0000
0000
,
0100
0001
0100
0001
0100
0001
0100
0000
,
0110
0000
0000
1000
0000
0000
0101
0000
0000
1000
0000
0000
1100
0000
0000
0000
,
0010
1000
0010
1000
0010
1000
0100
0000
,
0100
1000
0000
1000
0010
0000
0010
0100
0000
0100
0001
0000
0001
0010
0000
0000
,
0100
0100
1000
1000
0010
0100
0010
0000
,
0100
0001
0000
0001
0100
0000
0100
0010
0000
0010
0100
0000
0100
0001
0000
0000
,
1000
1000
0010
0010
0100
0001
0100
0000
,
0002
1000
0000
1003
,
1000
0100
0010
0100
1000
0001
0100
0000
,
0002
1000
0000
1003
,
0001
0010
0100
1000
0010
1000
0001
0000
,
2010
3001
2010
3001
,
2100
3001
2100
3001
,
1010
0101
0011
1100
,
1000
0010
0100
0001
0100
0010
0110
0000
,
0001
0100
0001
0100
0001
0100
1000
0100
,
0001
0000
0010
0000
0100
1000
0100
0000
1000
0000
0001
0000
1000
0000
0001
0000
,
1000
0010
0100
0001
0010
0010
0100
0010
,
0100
0000
0010
0000
0100
0010
0100
0000
1000
0000
0010
0000
0100
0000
0001
0000
,
0100
0001
0100
0010
1000
0001
1000
0001
,
1000
0000
0010
0000
0100
0001
0100
0000
0001
0000
1000
0000
1001
0000
0000
0000
,
0001
0100
0000
0000
0001
0100
0000
0000
0010
0100
0000
0000
0010
0100
0000
0000
,
0001
1000
0000
0000
0001
1000
0000
0000
0010
1000
0000
0000
0010
1000
0000
0000
,
1010
0000
0000
0000
;

//---------------dance-double - ----------------
#NOTES:
     dance-double:
     :
     Beginner:
     1:
     :
00000000
00000000
00000000
00000000
,
00000000
00000000
00000000
00000000
,
00000000
00000000
00000000
00000000
,
00000000
00000000
00000000
00000000
,
00000000
00000000
00000000
00000000
,
00100000
00000000
00000000
00000000
,
10000000
00000000
00000000
00000000
,
01000000
00000000
00000000
00000000
,
00010000
00000000
00000000
00000000
,
00001000
00000000
00000000
00000000
,
00000100
00000000
00000000
00000000
,
00000010
00000000
00000010
00000000
,
00000010
00000000
00000010
00000000
,
00000100
00000000
00000000
00000000
,
00010000
00000000
00000000
00000000
,
10000000
00000000
10000000
00000000
,
10010000
00000000
00000000
00000000
,
00011000
00000000
00000000
00000000
,
00000110
00000000
00000000
00000000
,
00000001
00000001
00000001
00000000
,
00001000
00001000
00001000
00000000
,
00010000
00000000
00010000
00000000
,
00010000
00000000
00010000
00000000
,
00100000
00000000
00100000
00000000
,
00100000
00000000
00100000
00000000
,
10000000
00000000
00000000
00000000
,
10000000
00000000
00000000
00000000
,
00010000
00000000
00000000
00000000
,
00010000
00000000
00000000
00000000
,
00001000
00000000
00001000
00000000
,
00000010
00000010
00000010
00000000
,
00000010
00000000
00000010
00000000
,
00000100
00000100
00000100
00000000
,
00000001
00000000
00000001
00000000
,
00001000
00001000
00001000
00000000
,
00010000
00000000
00010000
00000000
,
00010000
00010000
00010000
00000000
,
00100000
00000000
00000000
00000000
,
10000000
00000000
00000000
00000000
,
00010000
00000000
00000000
00000000
,
01000000
00000000
00000000
00000000
,
01100000
00000000
00000000
00000000
,
10010000
00000000
00000000
00000000
,
10010000
00000000
00000000
00000000
,
00011000
00000000
00000000
00000000
,
00001000
00001000
00001000
00001000
,
00000000
00000000
00000000
00000000
,
00000001
00000001
00000001
00000001
,
00000000
00000000
00000000
00000000
,
00000100
00000100
00000100
00000100
,
00000000
00000000
00000000
00000000
,
00001000
00001000
00001000
00001000
,
00000000
00000000
00000000
00000000
,
00011000
00000000
00000000
00000000
;

//---------------dance-double - ----------------
#NOTES:
     dance-double:
     :
     Easy:
     3:
     :
00000000
00000000
00000000
00000000
,
00000000
00000000
00000000
00000000
,
00000000
00000000
00000000
00000000
,
00000000
00000000
00000000
00000000
,
00000000
00000000
00000000
00000000
,
20000000
00000000
00000000
30000000
,
02000000
00000000
00000000
03000000
,
00020000
00000000
00000000
00030000
,
00002000
00000000
00000000
00003000
,
00010000
00000000
00001000
00000000
,
00010000
00000000
00001000
00000000
,
00000100
00000000
00000010
00000000
,
00000100
00000000
00000010
00000000
,
00001000
00000000
00000100
00000000
,
00010000
00000000
00001000
00000000
,
00100000
00100000
00100000
00100000
,
10000000
01000000
00010000
00100000
,
10010000
00010000
00100000
00100000
,
01000000
01000000
00000000
00010000
,
00001000
00001000
00010000
00010000
,
00000100
00000100
00000000
00000010
,
00000002
00000003
00002000
00003000
,
00000002
00000003
00001000
00000100
,
00020000
00030000
00002000
00003000
,
00020000
00030000
00001000
00010000
,
02000000
03000000
00200000
00300000
,
02000000
03000000
10000000
10000000
,
00020000
00030000
20000000
30000000
,
00020000
00030000
00000000
00000000
,
10010000
00000000
00000000
00000000
,
00011000
00000000
00000000
00000000
,
00001001
00000000
00000000
00000000
,
00000110
00000000
00000000
00000000
,
00000001
00000001
00001000
00001000
,
00000001
00000000
00000100
00000000
,
00001000
00001000
00010000
00010000
,
00001000
00000000
00100000
00000000
,
00010000
00010000
10000000
10000000
,
00010000
00000000
01000000
00000000
,
00100000
00100000
10000000
10000000
,
00010000
00000000
00100000
00000000
,
00002000
00000000
00000000
00003000
,
00020000
00000000
00000000
00030000
,
00002000
00003000
00000200
00000300
,
00000220
00000000
00000000
00000330
,
00001001
00001000
00000100
00000100
,
00000010
00000010
00000000
00001000
,
00010000
00010000
00001000
00001000
,
00100000
00100000
00000000
01000000
,
20000000
30000000
00020000
00030000
,
20000000
30000000
00010000
00100000
,
00001000
00001000
00001000
00001000
,
00010000
00010000
00010000
00010000
,
00011000
00000000
00000000
00000000
;

//---------------dance-double - ----------------
#NOTES:
     dance-double:
     :
     Medium:
     5:
     :
00000000
00000000
00000000
00000000
,
00000000
00000000
00000000
00000000
,
00000000
00000000
00000000
00000000
,
00000000
00000000
00000000
00000000
,
00000000
00000000
00000000
00000000
,
20000000
30010000
20000000
30010000
,
00020000
10030000
20000000
30010000
,
00020000
10030000
00020000
10030000
,
20000000
30010000
00020000
10030000
,
00000000
01100000
00000000
00010000
00000000
00001000
00000000
00011000
,
00000000
00000010
00000000
00000100
00000000
00000001
00000000
00001000
,
00000000
00001100
00000000
00000001
00000000
00000101
00000000
00000100
,
00000000
00000110
00000000
00000001
00000000
00001000
00000000
00000100
,
00000000
00000110
00000000
00001000
00000000
00000110
00000000
00001000
,
00000000
00011000
00000000
01000000
00000000
00100000
00000000
10000000
,
00000000
11000000
00000000
00100000
00000000
00110000
00000000
00000000
,
20200000
00000000
00000000
30300000
,
00100000
10000000
02000000
00000000
03000000
00000000
10000000
00000000
,
00100000
01000000
00010000
01000000
10000000
01000000
00010000
00000000
,
00100000
01000000
10000000
00000000
01000000
10000000
00010000
00000000
,
00100000
00010000
02000000
00000000
03000000
00001000
00010000
00000000
,
00000000
00000010
00000000
00000001
00000000
00001100
00000000
00000010
,
00000000
00000202
00000000
00000000
00000000
00000000
00000000
00000303
,
00000000
00000010
00000000
00001000
00000000
00001010
00000000
00000001
,
00000000
00002002
00000000
00000000
00000000
00000000
00000000
00003003
,
00000000
00001000
00000000
00000100
00000000
00000010
00000000
00000011
,
00000000
00002200
00000000
00000000
00000000
00000000
00000000
00003300
,
00000000
00001000
00000000
00010000
00000000
01001000
00000000
00010000
,
00000000
02020000
00000000
00000000
00000000
00000000
03030000
00000000
,
00200000
00000000
00300000
10000000
,
00100000
01000000
00200000
00000000
00300000
01000000
00100000
00000000
,
20000000
00000000
30000000
01000000
,
00100000
00010000
02000000
00000000
03000000
00100000
10000000
00000000
,
00010000
01000000
00010000
00000000
10000000
00010000
01000000
00000000
,
00100000
10000000
00010000
01000000
00000000
00010000
00010000
00000000
,
01000000
00100000
01000000
00000000
00001000
00010000
00001000
00000000
,
00000010
00001000
00000100
00000010
00000000
00000001
00000001
00000000
,
00000100
00000100
00000010
00000000
00001000
00001000
00000001
00000000
,
00001000
00000100
00001000
00000100
00000000
00001000
00000010
00000000
,
00000100
00000001
00001000
00000000
00000100
00010000
00001000
00000000
,
01000000
00010000
01000000
00010000
00000000
00100000
00100000
00000000
,
10010000
00000000
00011000
00000000
,
00001001
00000000
00011000
00000000
,
01010000
00010100
01010000
00010100
,
02020000
00000000
00000000
03030000
00000000
00100000
00100000
00000000
,
10000000
01000000
10000000
00000000
01000000
10000000
00100000
00000000
,
00100000
10000000
00010000
00000000
00100000
00010000
01000000
00000000
,
00100000
01000000
00010000
00000000
00100000
00001000
00010000
00000000
,
00010000
00001000
00000100
00000000
00000001
00000010
00000100
00000000
,
00001000
00000010
00001000
00000000
00000001
00000100
00000001
00000000
,
00000010
00000100
00000010
00000000
00001000
00000100
00001000
00000000
,
00000001
00000100
00000101
00000000
00001000
00000100
00001100
00000000
,
00010000
01000000
01010000
00000000
00010000
00100000
00110000
00000000
,
00011000
00000000
00000000
00000000
;

//---------------dance-double - ----------------
#NOTES:
     dance-double:
     :
     Hard:
     7:
     :
00000000
00000000
00000000
00000000
,
00000000
00000000
00000000
00000000
,
00000000
00000000
00000000
00000000
,
00000000
00000000
00000000
00000000
,
00000000
00000000
00000000
00000000
,
10000000
00010000
01000000
00001000
,
00010000
00000010
00001000
00000001
,
00001000
00000100
00010000
00001000
,
00100000
00010000
10000000
00100000
,
10000000
00000000
01000000
10000000
00100000
00000000
01000000
00010000
,
10000000
00000000
01000000
00010000
00001000
00000000
00010000
00000000
,
00000010
00000000
00010000
00001000
00000100
00000000
00000001
00001000
,
00000010
00000000
00000100
00001000
00010000
00000000
00001000
00000000
,
00100000
00010000
10000000
01000000
,
00010000
00000000
00001000
00000000
00000100
00000001
00000100
00000000
,
00000010
00010000
00001000
01000000
,
10000000
01000000
00010000
10000000
01000000
00010000
00001000
00000000
,
00100000
00010000
01000000
00001000
00010000
01000000
00100000
00010000
,
01000000
00000000
00000000
00000000
00011000
00001000
00010000
00000000
,
00000010
00001000
00000100
00010000
00001000
00000100
00000010
00001000
,
00000100
00000000
00000000
00000000
00011000
00010000
00001000
00000000
,
00001001
00000000
00001000
00000000
00000010
00000100
00000010
00000000
,
00000100
00000010
00000100
00000000
00001000
00010000
00100000
00000000
,
00100000
10000000
01000000
00000000
00100000
01000000
00100000
00000000
,
01000000
00100000
01000000
00000000
00100000
01000000
00010000
00000000
,
00001000
00010000
00100000
00000000
00010000
00001000
00000100
00000000
,
00001000
00010000
01000000
00000000
00010000
00001000
00000010
00000000
,
00000001
00000100
00001000
00000000
00010000
01000000
10000000
00000000
,
10000000
01000000
00010000
00000000
00001000
00000100
00000001
00000000
,
00000001
00000100
00000000
00000001
00000100
00000000
00000001
00000100
00000000
00000001
00000100
00000000
00001000
00000000
00000000
00000000
,
00010000
00000000
00001000
00000000
00010000
00001000
00010000
00000000
00001000
00000000
00010000
00001000
00000000
00000000
00000000
00000000
,
00100000
00010000
00000000
00100000
00010000
00000000
00100000
00010000
00000000
00100000
00010000
00000000
10000000
00000000
00000000
00000000
,
01000000
00000000
10000000
00000000
01000000
10000000
01000000
00000000
10000000
00000000
01000000
10000000
00000000
00000000
00000000
00000000
,
01000000
10000000
00000000
10000000
00010000
00000000
00010000
01000000
00000000
01000000
00010000
00000000
00010000
00100000
00000000
00000000
,
00001000
00001000
00010000
00010000
00001000
00000100
00000001
00000000
,
00000010
00000001
00000000
00000001
00001000
00000000
00001000
00000010
00000000
00000010
00001000
00000000
00001000
00000100
00000000
00000000
,
00010000
00010000
00001000
00001000
00010000
00100000
10000000
00010000
,
20000000
00100000
00000000
30100000
,
10000000
01000000
00010000
00001000
00000100
00000001
00001000
00000000
,
00000002
00000100
00000000
00000103
,
00000001
00000010
00001000
00010000
00100000
10000000
00010000
00000000
,
01010000
01000000
00001000
00000000
00011000
00010000
00000100
00000000
,
00001100
00001000
00000010
00000000
00000101
00000001
00000010
00000000
,
00001100
00010100
00011000
01001000
,
01010000
20020000
00000000
30030000
,
00010000
01000000
10000000
01000000
00010000
00001000
00000001
00000100
,
00001000
00010000
00001000
00000000
00010000
00001000
00000100
00000000
,
00001000
00000100
00000001
00000100
00001000
00010000
10000000
01000000
,
00010000
00001000
00010000
00000000
00000100
00001000
00000010
00000000
,
00010000
00000100
00001000
00000000
00000100
00010000
00001000
00000000
,
00100000
00010000
00001000
00000100
00001000
00010000
00100000
00000000
,
10100000
11000000
01010000
00011000
,
00001100
00000101
00000011
00001010
,
00011000
00000000
00000000
00000000
;
