#TITLE:Bassile;
#ARTIST:or-if-is;
#BANNER:Bassile.png;
#BACKGROUND:Bassile-bg.png;
#CDTITLE:./CDTITLES/DANCE DANCE REVOLUTION ULTRAMIX 3.PNG;
#MUSIC:Bassile.ogg;
#SAMPLESTART:18.001;
#SAMPLELENGTH:15;
#BPMS:0=159.475,4=160;

//---------------dance-single - ----------------
#NOTES:
     dance-single:
     :
     Beginner:
     1:
     :
0000
0000
0000
0000
,
0000
0000
0000
0000
,
0000
0000
0000
0000
,
0000
0000
0000
0000
,
1000
0000
0000
0000
,
1000
0000
0000
0000
,
0001
0000
0000
0000
,
0001
0000
0000
0000
,
1000
0000
0000
0000
,
1000
0000
0000
0000
,
0001
0000
0000
0000
,
0001
0000
0000
0000
,
0010
0000
0010
0000
,
0010
0000
0000
0000
,
0100
0000
0100
0000
,
0100
0000
0000
0000
,
1001
0000
0000
0000
,
0100
0000
0100
0000
,
0100
0000
0000
0000
,
0010
0000
0010
0000
,
0010
0000
0000
0000
,
0001
0000
0000
0000
,
0001
0000
0000
0000
,
0100
0000
0000
0000
,
0100
0000
0000
0000
,
0010
0000
0000
0000
,
0010
0000
0000
0000
,
1000
0000
0000
0000
,
1000
0000
0000
0000
,
1001
0000
0000
0000
,
0001
0000
0000
0000
,
0010
0000
0000
0000
,
0100
0000
0000
0000
,
1000
0000
0000
0000
,
0001
0000
0000
0000
,
0100
0000
0000
0000
,
0010
0000
0000
0000
,
1000
0000
1000
0000
,
1000
0000
0000
0000
,
0001
0000
0001
0000
,
0001
0000
0000
0000
,
0010
0000
0010
0000
,
0010
0000
0000
0000
,
0200
0000
0000
0300
,
0000
0000
0000
0000
,
1000
0000
0000
0000
,
1000
0000
0000
0000
,
1000
0000
0000
0000
,
1000
0000
0000
0000
,
1001
0000
0000
0000
,
0001
0000
0000
0000
,
0001
0000
0000
0000
,
0001
0000
0000
0000
,
0010
0000
0000
0000
,
0010
0000
0000
0000
,
0001
0000
1000
0000
,
0001
0000
0000
0000
,
0100
0000
0010
0000
,
0100
0000
0000
0000
,
0001
0000
1000
0000
,
0001
0000
0000
0000
,
1000
0000
0000
0000
,
0001
0000
0000
0000
,
1000
0000
0000
0000
,
0001
0000
0000
0000
;

//---------------dance-single - ----------------
#NOTES:
     dance-single:
     :
     Easy:
     4:
     :
0000
0000
0000
0000
,
0000
0000
0000
0000
,
0000
0000
0000
0000
,
0000
0000
0000
0000
,
1000
0000
1000
0000
,
1000
0000
0001
0001
,
0100
0000
0100
0000
,
0100
0000
0010
0010
,
1000
0000
1000
0000
,
1000
0000
0100
0100
,
0010
0000
0010
0000
,
0010
0000
0001
0001
,
0100
0010
0000
0010
,
0000
1000
0000
1000
,
0000
0100
0000
0100
,
0000
0010
0000
0010
,
0001
0001
1000
1000
,
0001
0001
0100
0000
,
0010
0010
0100
0100
,
0020
0000
0030
0000
,
0200
0000
0300
0010
,
1010
1000
1000
0000
,
0001
0000
1000
0000
,
0001
0001
0001
0000
,
1000
0000
0001
0000
,
0010
0010
0010
0000
,
0100
0000
0010
0000
,
0100
0100
0100
0000
,
2000
3000
0002
0003
,
1001
0000
1000
0000
,
0001
0000
1000
0000
,
0010
0000
0100
0000
,
0010
0000
0100
0000
,
0001
0001
0000
0000
,
1000
1000
0000
0000
,
0001
0001
0000
0000
,
0200
0300
0020
0030
,
1000
0000
0001
0000
,
0100
0001
0100
0000
,
0001
0000
1000
0000
,
0100
1000
0100
0000
,
0020
0030
0002
0003
,
0200
0300
0020
0030
,
2000
0000
0000
3000
,
0002
0000
0000
0003
,
1000
1000
1000
0000
,
0001
0000
1000
0000
,
0001
0001
0001
0000
,
1000
0000
0001
0000
,
0010
0010
0010
0000
,
0100
0000
0010
0000
,
0100
0100
0100
0000
,
2000
3000
0002
0003
,
1000
0010
1000
0000
,
0010
0000
1000
0000
,
0001
0100
0001
0000
,
0100
0000
0001
0000
,
1000
0100
1000
0000
,
0100
0000
1000
0000
,
2010
0000
3000
0010
,
0120
0000
0030
0100
,
0101
0000
0001
0000
,
1000
0000
1000
0000
,
0100
0000
0100
0000
,
0010
0000
0010
0000
;

//---------------dance-single - ----------------
#NOTES:
     dance-single:
     :
     Medium:
     5:
     :
0000
0000
0000
0000
,
0000
0000
0000
0000
,
0000
0000
0000
0000
,
0000
0000
0000
0000
,
0001
0000
0010
0000
0001
0000
0000
0100
,
0000
0010
0200
0000
,
1300
0000
0100
0000
1000
0000
0000
0100
,
0000
0001
0200
0320
,
1030
0000
0010
0000
1000
0000
0000
0100
,
0000
0010
0200
0000
,
0301
0000
0100
0000
0001
0000
0000
0100
,
0000
1000
0200
0320
,
0031
1000
0001
1000
,
0010
0100
0010
0100
,
0001
0010
0001
0010
,
0100
0000
1000
0000
0100
0000
1000
0001
,
1000
1000
0010
0010
,
0100
0100
0001
0001
,
0010
0010
0100
0100
,
0110
0000
0000
0011
0000
0000
1001
0000
,
1100
0000
0000
1010
0000
0000
0110
0000
,
0101
0000
0001
0000
0001
0000
0000
2000
,
0000
0000
0000
3020
0000
0000
0000
0000
,
0130
0000
0100
0000
0100
0000
0000
0002
,
0000
0000
0000
0023
0000
0000
0000
0000
,
0130
1000
0100
1000
0001
0000
0000
0200
,
0000
0000
0000
0302
0000
0000
0000
0000
,
0103
0001
0100
0001
1000
0000
0000
0000
,
0010
0000
0000
1001
0000
0000
0100
0000
,
1001
0000
1000
0000
0001
1000
0000
0010
,
0000
0000
0100
0000
0001
0000
0000
0010
,
0000
0000
0100
0000
1000
0000
0000
0010
,
0000
0001
0000
0010
0000
1000
0000
0001
,
1000
0000
0100
0000
0010
0100
0000
0010
,
0000
0000
0001
0000
0100
0000
0000
0010
,
0000
0000
1000
0000
0100
0000
0000
0010
,
0000
1000
0000
0010
0000
0001
0000
1000
,
0001
1000
0001
1000
,
0100
0010
0100
0010
,
0001
0100
0001
0100
,
0010
1000
0010
1000
,
0100
1000
0100
1000
,
0001
0100
0010
1000
,
2002
0000
0000
0000
,
0000
3003
0000
0000
,
0110
0000
0100
0000
0010
0000
0000
2000
,
0000
0000
0100
3000
0200
0000
0000
0000
,
0310
0000
0001
0000
0010
0000
0000
0200
,
0000
0000
1000
0300
2000
0000
0000
0000
,
3010
0000
1000
0000
0010
0000
0000
0200
,
0000
0000
0001
0300
0002
0000
0000
0000
,
1003
0000
0100
0000
1000
0000
0000
0020
,
0000
0000
0100
0030
0200
0000
0000
0000
,
0301
0010
0001
0010
0100
0000
0000
2000
,
0000
0000
0010
3000
0020
0000
0000
0000
,
1030
0010
1000
0010
0100
0000
0000
0002
,
0000
0000
0010
0003
0020
0000
0000
0000
,
0130
1000
0100
1000
0010
0000
0000
0200
,
0000
0000
0001
0300
0002
0000
0003
0000
,
1001
0000
0000
1100
0000
0000
0011
0000
,
0000
0101
0000
0000
1010
0000
0000
1000
,
0100
0010
0001
0100
,
0010
1000
0100
0001
,
0010
1000
0100
0001
,
0010
0100
0001
1000
;

//---------------dance-single - ----------------
#NOTES:
     dance-single:
     :
     Hard:
     8:
     :
0000
0000
0000
0000
,
0000
0000
0000
0000
,
0000
0000
0000
0000
,
0000
0000
0000
0000
,
1000
0000
0100
0000
1000
0100
0000
0010
,
0000
0100
1000
0000
0020
0000
0030
0000
,
0100
0000
0001
0000
0100
0001
0000
0010
,
0000
0001
0100
0000
0020
0000
0230
0000
,
0310
0000
1000
0000
0010
1000
0000
0100
,
0000
1000
0010
0000
0200
0000
0300
0000
,
0001
0000
0010
0000
0001
0010
0000
0100
,
0000
0010
0001
0000
0020
0000
0230
0000
,
1300
0001
1000
0000
0001
1000
0001
0000
,
1000
0100
1000
0000
0001
0100
0001
0000
,
0100
0010
0100
0000
0010
0100
0010
0000
,
1000
0000
0010
0000
1000
0000
0000
0000
0001
0000
0010
0000
0001
0000
1000
0100
,
0010
0010
0010
0010
,
0010
0000
0000
0000
0010
0000
0000
0000
0010
0000
0100
0000
1000
0100
1000
0000
,
0001
1000
0010
0100
0001
0000
0010
0000
,
0100
0000
0000
1000
0010
0000
0100
0000
0000
0001
0010
0000
0001
0000
1000
0010
,
0100
0000
0000
0001
0010
0000
0100
0000
0000
1000
0010
0000
1001
0000
0000
0000
,
1001
0010
0100
0010
1000
0001
1000
0200
,
0000
0301
0100
2000
0000
0000
3001
0000
,
0001
0010
0100
0010
0001
1000
0001
0200
,
0000
0000
1300
0000
0100
0000
0002
0000
0000
0000
0000
0000
1003
0000
0010
0100
,
0001
0100
0001
1000
0100
1000
0010
0200
,
0000
0301
0010
0200
0000
0000
1300
0000
,
0001
0010
0001
1000
0010
1000
0100
0010
,
0001
0000
1000
0001
1000
0000
0010
0000
0100
0010
0100
0000
0110
0000
0000
0000
,
1001
0000
0100
0000
0001
0010
0100
0010
,
0001
0000
0100
0010
0001
0010
0100
0001
,
0010
0000
0100
0001
0100
0010
0001
0100
,
0010
0000
0001
0010
0100
0001
0100
0010
,
1001
0000
0010
0000
1000
0100
0010
0100
,
1000
0000
0010
0100
1000
0100
0010
1000
,
0100
0000
0010
1000
0010
0100
1000
0010
,
0100
0000
1000
0100
0010
1000
0010
0100
,
0010
0000
0000
0000
0000
0000
0000
0000
1000
0000
0000
0000
0000
0000
0000
0001
0000
0000
0000
0000
0000
0000
0000
0000
1000
0000
0000
0000
0000
0000
0000
0000
0000
0000
0000
0000
0000
0000
0000
0000
0000
0000
0000
0000
0000
0000
0000
0000
0100
0000
0000
0000
0000
0000
0000
0000
1000
0000
0000
0000
0000
0000
0000
0001
0000
0000
0000
0000
0000
0000
0000
0000
1000
0000
0000
0000
0000
0000
0000
0000
0000
0000
0000
0000
0000
0000
0000
0000
0000
0000
0000
0000
0000
0000
0000
0000
,
0001
0000
0000
0000
0000
0000
0000
0000
0100
0000
0000
0000
0000
0000
0000
0001
0000
0000
0000
0000
0000
0000
0000
0000
0100
0000
0000
0000
0000
0000
0000
0000
0001
0000
0000
0000
0000
0000
0000
1000
0000
0000
0000
0000
0000
0000
0000
0000
0010
0000
0000
0000
0000
0000
0000
0000
1000
0000
0000
0000
0000
0000
0000
0010
0000
0000
0000
0000
0000
0000
0000
0000
1000
0000
0000
0000
0000
0000
0000
0000
0000
0000
0000
0000
0000
0000
0000
0000
0000
0000
0000
0000
0000
0000
0000
0000
,
0001
0000
0000
0000
0000
0000
0000
0000
0010
0000
0000
0000
0000
0000
0000
0001
0000
0000
0000
0000
0000
0000
0000
0000
1000
0000
0000
0000
0000
0000
0000
0000
0000
0000
0000
0000
0000
0000
0000
0000
0000
0000
0000
0000
0000
0000
0000
0000
0001
0000
0000
0000
0000
0000
0000
0000
0100
0000
0000
0000
0000
0000
0000
0001
0000
0000
0000
0000
0000
0000
0000
0000
1000
0000
0000
0000
0000
0000
0000
0000
0000
0000
0000
0000
0000
0000
0000
0000
0000
0000
0000
0000
0000
0000
0000
0000
,
0100
0000
0000
0000
0000
0000
0000
0000
1000
0000
0000
0000
0000
0000
0000
0100
0000
0000
0000
0000
0000
0000
0000
0000
1000
0000
0000
0000
0000
0000
0000
0000
0100
0000
0000
0000
0000
0000
0000
0010
0000
0000
0000
0000
0000
0000
0000
0000
0001
0000
0000
0000
0000
0000
0000
0000
0010
0000
0000
0000
0000
0000
0000
0001
0000
0000
0000
0000
0000
0000
0000
0000
0010
0000
0000
0000
0000
0000
0000
0000
0000
0000
0000
0000
0000
0000
0000
0000
0000
0000
0000
0000
0000
0000
0000
0000
,
0100
1000
0001
0100
0001
1000
0010
1000
,
0001
0000
0010
0000
0001
0000
0100
0000
1000
0000
0100
0000
0010
0000
1000
0001
,
1000
0001
1000
0001
1000
0000
0100
0000
0010
0000
0000
0001
0000
0000
2000
0000
,
0000
0000
0000
0002
0000
0000
0000
0000
0000
0000
0000
0000
0000
0000
3003
0000
,
1100
0000
2010
0000
0001
0001
0000
0100
,
0000
0001
0001
0000
0010
0000
0010
0000
,
0100
0000
0100
0000
0001
0001
0000
0010
,
0000
0000
0001
0000
0001
0000
0000
0000
0100
0000
0000
0000
3100
0000
0010
0001
,
1000
0001
0100
0000
0001
0010
0100
1000
,
0000
0010
0100
0000
0001
0100
0010
0000
,
1000
0010
0100
0000
0001
0010
0100
1000
,
0000
0001
0010
0000
0100
1000
0010
0000
,
1001
0000
0102
0000
1000
1000
0000
0010
,
0000
1000
1000
0000
0100
0000
0100
0000
,
0010
0000
0010
0000
1000
1000
0000
0100
,
0000
0000
1000
0000
1000
0000
0000
0000
0010
0000
0000
0000
0013
0000
0100
1000
,
0001
1000
0010
0000
1000
0100
0010
0001
,
0000
0100
0010
0000
1000
0010
0100
0000
,
0001
0000
0100
0010
0000
0000
1000
0000
0001
0100
0000
0000
0001
0000
1000
0100
,
0000
0000
0010
0000
0001
1000
0000
0000
0010
0000
0100
0001
0000
0000
1000
0100
,
1000
1100
1000
1010
,
0010
0011
0001
1001
,
1000
1010
0010
0110
,
0100
1100
1000
2002
,
0000
0000
0000
3003
;

//---------------dance-double - ----------------
#NOTES:
     dance-double:
     :
     Beginner:
     1:
     :
00000000
00000000
00000000
00000000
,
00000000
00000000
00000000
00000000
,
00000000
00000000
00000000
00000000
,
00000000
00000000
00000000
00000000
,
10000000
00000000
00000000
00000000
,
10000000
00000000
00000000
00000000
,
00010000
00000000
00000000
00000000
,
00010000
00000000
00000000
00000000
,
00100000
00000000
00000000
00000000
,
00100000
00000000
00000000
00000000
,
00001000
00000000
00000000
00000000
,
00001000
00000000
00000000
00000000
,
00010000
00000000
00010000
00000000
,
00010000
00000000
00000000
00000000
,
00001000
00000000
00001000
00000000
,
00001000
00000000
00000000
00000000
,
00011000
00000000
00000000
00000000
,
00000100
00000000
00000100
00000000
,
00000100
00000000
00000000
00000000
,
00001000
00000000
00001000
00000000
,
00001000
00000000
00000000
00000000
,
00000001
00000000
00000000
00000000
,
00000001
00000000
00000000
00000000
,
00000010
00000000
00000000
00000000
,
00000010
00000000
00000000
00000000
,
00001000
00000000
00000000
00000000
,
00001000
00000000
00000000
00000000
,
00010000
00000000
00000000
00000000
,
00010000
00000000
00000000
00000000
,
00011000
00000000
00000000
00000000
,
00010000
00000000
00000000
00000000
,
00100000
00000000
00000000
00000000
,
10000000
00000000
00000000
00000000
,
01000000
00000000
00000000
00000000
,
00010000
00000000
00000000
00000000
,
01000000
00000000
00000000
00000000
,
00100000
00000000
00000000
00000000
,
00001000
00000000
00001000
00000000
,
00001000
00000000
00000000
00000000
,
00010000
00000000
00010000
00000000
,
00010000
00000000
00000000
00000000
,
00000100
00000000
00000100
00000000
,
00000100
00000000
00000000
00000000
,
00000020
00000000
00000000
00000030
,
00000000
00000000
00000000
00000000
,
00000001
00000000
00000000
00000000
,
00000001
00000000
00000000
00000000
,
00000001
00000000
00000000
00000000
,
00000001
00000000
00000000
00000000
,
00001001
00000000
00000000
00000000
,
00001000
00000000
00000000
00000000
,
00001000
00000000
00000000
00000000
,
00001000
00000000
00000000
00000000
,
00000100
00000000
00000000
00000000
,
00000100
00000000
00000000
00000000
,
00010000
00000000
00001000
00000000
,
00010000
00000000
00000000
00000000
,
00001000
00000000
00010000
00000000
,
00001000
00000000
00000000
00000000
,
00100000
00000000
00010000
00000000
,
00100000
00000000
00000000
00000000
,
01000000
00000000
00000000
00000000
,
10000000
00000000
00000000
00000000
,
00100000
00000000
00000000
00000000
,
00010000
00000000
00000000
00000000
;

//---------------dance-double - ----------------
#NOTES:
     dance-double:
     :
     Easy:
     4:
     :
00000000
00000000
00000000
00000000
,
00000000
00000000
00000000
00000000
,
00000000
00000000
00000000
00000000
,
00000000
00000000
00000000
00000000
,
10000000
00000000
10000000
00000000
,
10000000
00000000
01000000
01000000
,
00010000
00000000
00010000
00000000
,
00010000
00000000
00001000
00001000
,
00000100
00000000
00000100
00000000
,
00000100
00000000
00000001
00000001
,
00000010
00000000
00000010
00000000
,
00000010
00000000
00001000
00001000
,
00010000
00001000
00000000
00001000
,
00000000
00100000
00000000
00100000
,
00000000
00010000
00000000
00010000
,
00000000
10000000
00000000
10000000
,
00100000
00100000
01000000
01000000
,
00010000
00010000
00100000
00000000
,
00001000
00001000
00010000
00010000
,
00002000
00000000
00003000
00000000
,
00000020
00000000
00000030
00000001
,
00001001
00001000
00001000
00000000
,
00000001
00000000
00001000
00000000
,
00000001
00000001
00000001
00000000
,
00000100
00000000
00001000
00000000
,
00010000
00010000
00010000
00000000
,
00001000
00000000
00010000
00000000
,
00001000
00001000
00001000
00000000
,
00020000
00030000
02000000
03000000
,
01100000
00000000
10000000
00000000
,
00010000
00000000
10000000
00000000
,
00100000
00000000
01000000
00000000
,
00100000
00000000
00010000
00000000
,
00001000
00001000
00000000
00000000
,
00010000
00010000
00000000
00000000
,
00000100
00000100
00000000
00000000
,
00002000
00003000
00000002
00000003
,
00000100
00000000
00000010
00000000
,
00000100
00000010
00000100
00000000
,
00001000
00000000
00010000
00000000
,
00001000
00010000
00001000
00000000
,
00200000
00300000
00020000
00030000
,
02000000
03000000
20000000
30000000
,
02000000
00000000
00000000
03000000
,
00020000
00000000
00000000
00030000
,
10010000
00010000
00010000
00000000
,
10000000
00000000
00010000
00000000
,
10000000
10000000
10000000
00000000
,
00100000
00000000
00010000
00000000
,
00001000
00001000
00001000
00000000
,
00010000
00000000
00001000
00000000
,
00010000
00010000
00010000
00000000
,
00002000
00003000
00000020
00000030
,
00000001
00000100
00000001
00000000
,
00000100
00000000
00000001
00000000
,
00000100
00001000
00000100
00000000
,
00001000
00000000
00000100
00000000
,
00001000
00010000
00001000
00000000
,
00010000
00000000
00001000
00000000
,
00011000
00000000
00000000
00100000
,
01100000
00000000
00000000
00010000
,
10010000
00000000
00010000
00000000
,
00100000
00000000
00100000
00000000
,
00001000
00000000
00001000
00000000
,
00010000
00000000
00010000
00000000
;

//---------------dance-double - ----------------
#NOTES:
     dance-double:
     :
     Medium:
     5:
     :
00000000
00000000
00000000
00000000
,
00000000
00000000
00000000
00000000
,
00000000
00000000
00000000
00000000
,
00000000
00000000
00000000
00000000
,
10000000
00000000
01000000
00000000
10000000
00000000
00000000
00100000
,
00000000
01000000
00200000
00000000
,
00310000
00000000
00001000
00000000
00010000
00000000
00000000
00000100
,
00000000
00001000
00000020
00000230
,
00000301
00000000
00000100
00000000
00000001
00000000
00000000
00000010
,
00000000
00000100
00000020
00000000
,
00001030
00000000
00010000
00000000
00001000
00000000
00000000
01000000
,
00000000
00010000
00200000
02300000
,
13000000
00010000
10000000
00010000
,
00100000
00001000
01000000
00001000
,
00010000
00000010
00010000
00000100
,
00001000
00000000
00000001
00000000
00001000
00000000
00000001
00000100
,
00001000
00001000
00010000
00010000
,
00100000
00100000
00010000
00010000
,
00001000
00001000
00000100
00000100
,
00000110
00000000
00000000
00001000
00000000
00000000
00011000
00000000
,
00010000
00000000
00000000
01100000
00000000
00000000
00010000
00000000
,
00011000
00000000
00001000
00000000
00001000
00000000
00000000
00020000
,
00000000
00000000
00000000
02030000
00000000
00000000
00000000
00000000
,
13000000
00000000
10000000
00000000
10000000
00000000
00000000
00200000
,
00000000
00000000
00000000
02300000
00000000
00000000
00000000
00000000
,
03010000
00100000
00010000
00100000
00010000
00000000
00000000
00200000
,
00000000
00000000
00000000
00302000
00000000
00000000
00000000
00000000
,
00013000
00001000
00010000
00001000
00010000
00000000
00000000
00000000
,
00000100
00000000
00000000
00011000
00000000
00000000
00100000
00000000
,
00101000
00000000
00010000
00000000
00001000
00010000
00000000
00000100
,
00000000
00000000
00001000
00000000
00000010
00000000
00000000
00000100
,
00000000
00000000
00000001
00000000
00000100
00000000
00000000
00000010
,
00000000
00001000
00000000
00000100
00000000
00010000
00000000
00001000
,
00010000
00000000
00001000
00000000
00010000
00001000
00000000
00100000
,
00000000
00000000
00010000
00000000
01000000
00000000
00000000
00100000
,
00000000
00000000
10000000
00000000
00100000
00000000
00000000
01000000
,
00000000
00010000
00000000
00100000
00000000
00001000
00000000
00010000
,
00001000
00010000
00001000
00010000
,
00000100
00001000
00000100
00001000
,
00000001
00000100
00000001
00000100
,
00001000
00010000
00001000
00010000
,
01000000
00100000
01000000
00100000
,
00010000
10000000
00010000
10000000
,
02200000
00000000
00000000
00000000
,
00000000
03300000
00000000
00000000
,
00011000
00000000
00010000
00000000
00010000
00000000
00000000
00002000
,
00000000
00000000
00000010
00003000
00000020
00000000
00000000
00000000
,
00000031
00000000
00000001
00000000
00000001
00000000
00000000
00000200
,
00000000
00000000
00001000
00000300
00002000
00000000
00000000
00000000
,
00013000
00000000
00010000
00000000
00010000
00000000
00000000
02000000
,
00000000
00000000
10000000
03000000
20000000
00000000
00000000
00000000
,
30010000
00000000
00010000
00000000
00010000
00000000
00000000
00200000
,
00000000
00000000
00010000
00300000
00002000
00000000
00000000
00000000
,
00013000
00001000
00010000
00001000
00010000
00000000
00000000
00002000
,
00000000
00000000
00000100
00003000
00000200
00000000
00000000
00000000
,
00000301
00000010
00000001
00000010
00000001
00000000
00000000
00000020
,
00000000
00000000
00001000
00000030
00002000
00000000
00000000
00000000
,
00013000
00001000
00010000
00001000
00010000
00000000
00000000
00200000
,
00000000
00000000
10000000
00300000
20000000
00000000
00000000
00000000
,
30010000
00000000
00000000
00100000
00000000
00000000
00001000
00000000
,
00000000
00010000
00000000
00000000
00000100
00000000
00000000
00001000
,
00000001
00000100
00001000
00010000
,
00100000
10000000
01000000
00010000
,
00001000
00000010
00000001
00000100
,
00001000
00010000
01000000
10000000
;

//---------------dance-double - ----------------
#NOTES:
     dance-double:
     :
     Hard:
     8:
     :
00000000
00000000
00000000
00000000
,
00000000
00000000
00000000
00000000
,
00000000
00000000
00000000
00000000
,
00000000
00000000
00000000
00000000
,
00100000
00000000
10000000
00000000
00100000
00010000
00000000
00001000
,
00000000
00010000
00100000
00000000
00002000
00000000
00003000
00000000
,
00010000
00000000
00001000
00000000
00000100
00000010
00000000
00000001
,
00000000
00000010
00000100
00000000
00002000
00000000
00023000
00000000
,
01030000
00000000
10000000
00000000
00100000
01000000
00000000
00001000
,
00000000
01000000
00100000
00000000
00020000
00000000
00030000
00000000
,
00001000
00000000
00010000
00000000
00000100
00000010
00000000
00001000
,
00000000
00000010
00000100
00000000
00020000
00000000
00032000
00000000
,
00103000
00010000
01000000
00000000
00100000
10000000
01000000
00000000
,
00010000
01000000
00100000
00000000
00001000
01000000
00100000
00000000
,
00010000
00001000
00100000
00000000
00001000
00010000
00000100
00000000
,
00001000
00000000
00000001
00000000
00001000
00000000
00000000
00000000
00000010
00000000
00000100
00000000
00000010
00000000
00001000
00000001
,
00001000
00001000
00000100
00000100
,
00010000
00000000
00000000
00000000
00010000
00000000
00000000
00000000
00001000
00000000
00010000
00000000
00001000
00100000
00010000
00000000
,
10000000
01000000
00100000
01000000
00010000
00000000
01000000
00000000
,
10000000
00000000
00000000
00100000
01000000
00000000
00001000
00000000
00000000
00010000
00001000
00000000
00000010
00000000
00000100
00001000
,
00000010
00000000
00000000
00000100
00000001
00000000
00001000
00000000
00000000
00000010
00010000
00000000
00010100
00000000
00000000
00000000
,
00101000
00001000
00010000
00001000
00100000
00010000
01000000
00200000
,
00000000
10300000
01000000
00020000
00000000
00000000
00031000
00000000
,
00010000
00001000
00010000
00000010
00001000
00000010
00000100
00000020
,
00000000
00000000
00000031
00000000
00000010
00000000
00002000
00000000
00000000
00000000
00000000
00000000
00003100
00000000
00010000
00001000
,
00010000
00001000
01000000
00010000
01000000
00100000
10000000
02000000
,
00000000
03010000
01000000
20000000
00000000
00000000
30010000
00000000
,
00100000
00001000
00010000
00000010
00010000
00001000
01000000
00010000
,
00100000
00000000
00001000
00010000
00001000
00000000
00100000
00000000
00001000
00010000
00001000
00000000
00101000
00000000
00000000
00000000
,
00010100
00000000
00000100
00000000
00000010
00000001
00000100
00000010
,
00000001
00000000
00000010
00000100
00000001
00000010
00000100
00000010
,
00000001
00000000
00000100
00000001
00000010
00000100
00000001
00000100
,
00000010
00000000
00000001
00000100
00000010
00001000
00000100
00010000
,
00011000
00000000
00100000
00000000
01000000
10000000
00100000
01000000
,
10000000
00000000
01000000
00100000
10000000
01000000
00100000
01000000
,
10000000
00000000
00100000
10000000
01000000
00100000
10000000
00100000
,
01000000
00000000
10000000
00100000
01000000
00010000
00100000
00001000
,
00010000
00000000
00000000
00000000
00000000
00000000
00000000
00000000
00001000
00000000
00000000
00000000
00000000
00000000
00000000
00010000
00000000
00000000
00000000
00000000
00000000
00000000
00000000
00000000
00000100
00000000
00000000
00000000
00000000
00000000
00000000
00000000
00000000
00000000
00000000
00000000
00000000
00000000
00000000
00000000
00000000
00000000
00000000
00000000
00000000
00000000
00000000
00000000
00001000
00000000
00000000
00000000
00000000
00000000
00000000
00000000
00000100
00000000
00000000
00000000
00000000
00000000
00000000
00001000
00000000
00000000
00000000
00000000
00000000
00000000
00000000
00000000
00000010
00000000
00000000
00000000
00000000
00000000
00000000
00000000
00000000
00000000
00000000
00000000
00000000
00000000
00000000
00000000
00000000
00000000
00000000
00000000
00000000
00000000
00000000
00000000
,
00000100
00000000
00000000
00000000
00000000
00000000
00000000
00000000
00000001
00000000
00000000
00000000
00000000
00000000
00000000
00000100
00000000
00000000
00000000
00000000
00000000
00000000
00000000
00000000
00000001
00000000
00000000
00000000
00000000
00000000
00000000
00000000
00000100
00000000
00000000
00000000
00000000
00000000
00000000
00000010
00000000
00000000
00000000
00000000
00000000
00000000
00000000
00000000
00001000
00000000
00000000
00000000
00000000
00000000
00000000
00000000
00000010
00000000
00000000
00000000
00000000
00000000
00000000
00001000
00000000
00000000
00000000
00000000
00000000
00000000
00000000
00000000
00000010
00000000
00000000
00000000
00000000
00000000
00000000
00000000
00000000
00000000
00000000
00000000
00000000
00000000
00000000
00000000
00000000
00000000
00000000
00000000
00000000
00000000
00000000
00000000
,
00010000
00000000
00000000
00000000
00000000
00000000
00000000
00000000
00001000
00000000
00000000
00000000
00000000
00000000
00000000
00010000
00000000
00000000
00000000
00000000
00000000
00000000
00000000
00000000
00100000
00000000
00000000
00000000
00000000
00000000
00000000
00000000
00000000
00000000
00000000
00000000
00000000
00000000
00000000
00000000
00000000
00000000
00000000
00000000
00000000
00000000
00000000
00000000
01000000
00000000
00000000
00000000
00000000
00000000
00000000
00000000
00100000
00000000
00000000
00000000
00000000
00000000
00000000
01000000
00000000
00000000
00000000
00000000
00000000
00000000
00000000
00000000
00010000
00000000
00000000
00000000
00000000
00000000
00000000
00000000
00000000
00000000
00000000
00000000
00000000
00000000
00000000
00000000
00000000
00000000
00000000
00000000
00000000
00000000
00000000
00000000
,
10000000
00000000
00000000
00000000
00000000
00000000
00000000
00000000
01000000
00000000
00000000
00000000
00000000
00000000
00000000
10000000
00000000
00000000
00000000
00000000
00000000
00000000
00000000
00000000
01000000
00000000
00000000
00000000
00000000
00000000
00000000
00000000
10000000
00000000
00000000
00000000
00000000
00000000
00000000
00010000
00000000
00000000
00000000
00000000
00000000
00000000
00000000
00000000
00100000
00000000
00000000
00000000
00000000
00000000
00000000
00000000
00010000
00000000
00000000
00000000
00000000
00000000
00000000
00100000
00000000
00000000
00000000
00000000
00000000
00000000
00000000
00000000
00010000
00000000
00000000
00000000
00000000
00000000
00000000
00000000
00000000
00000000
00000000
00000000
00000000
00000000
00000000
00000000
00000000
00000000
00000000
00000000
00000000
00000000
00000000
00000000
,
01000000
00001000
00010000
00000100
00010000
00001000
00100000
00001000
,
00010000
00000000
00000010
00000000
00010000
00000000
00000100
00000000
00001000
00000000
00000010
00000000
00000100
00000000
00000001
00001000
,
00000001
00001000
00000001
00001000
00000001
00000000
00000010
00000000
00000100
00000000
00000000
00010000
00000000
00000000
00002000
00000000
,
00000000
00000000
00000000
02000000
00000000
00000000
00000000
00000000
00000000
00000000
00000000
00000000
00000000
00000000
03003000
00000000
,
01001000
00000000
02010000
00000000
00010000
00010000
00000000
10000000
,
00000000
00010000
00010000
00000000
00100000
00000000
00100000
00000000
,
10000000
00000000
10000000
00000000
00010000
00010000
00000000
00100000
,
00000000
00000000
00010000
00000000
00010000
00000000
00000000
00000000
10000000
00000000
00000000
00000000
13000000
00000000
01000000
00100000
,
01000000
00010000
00100000
00000000
00001000
00010000
00000100
00010000
,
00000000
00000100
00001000
00000000
00000010
00000100
00000001
00000000
,
00000010
00000100
00001000
00000000
00000100
00010000
00001000
00100000
,
00000000
00010000
01000000
00000000
00100000
00010000
00001000
00000000
,
00011000
00000000
00010020
00000000
00001000
00001000
00000000
00000001
,
00000000
00001000
00001000
00000000
00000100
00000000
00000100
00000000
,
00000001
00000000
00000001
00000000
00001000
00001000
00000000
00000100
,
00000000
00000000
00001000
00000000
00001000
00000000
00000000
00000000
00000001
00000000
00000000
00000000
00000031
00000000
00000010
00000100
,
00000010
00001000
00000100
00000000
00010000
00001000
00100000
00001000
,
00000000
00100000
00010000
00000000
01000000
00100000
10000000
00000000
,
00010000
00000000
01000000
00100000
00000000
00000000
10000000
00000000
00100000
01000000
00000000
00000000
00001000
00000000
00010000
00001000
,
00000000
00000000
00000100
00000000
00000010
00000100
00000000
00000000
00000001
00000000
00001000
00000001
00000000
00000000
00001000
00000100
,
00001000
00001100
00000100
00000110
,
00000010
00001010
00001000
00011000
,
00010000
01010000
01000000
01100000
,
00100000
00110000
00010000
20020000
,
00000000
00000000
00000000
30030000
;
