#TITLE:Bass On the Side;
#ARTIST:Tronso;
#BANNER:Bass On the Side.png;
#BACKGROUND:Bass On the Side-bg.png;
#CDTITLE:./CDTITLES/Song Pack 13.png;
#MUSIC:Bass On The Side.ogg;
#SAMPLESTART:5.53;
#SAMPLELENGTH:15;
#BPMS:0=130;

//---------------dance-single - SaxxonPike----------------
#NOTES:
     dance-single:
     SaxxonPike:
     Beginner:
     1:
     :
0000
0000
0000
0000
,
0000
0000
0000
0000
,
0000
0000
0000
0000
,
0000
0000
0000
0000
,
0000
0000
0000
0000
,
0001
0000
0000
0000
,
0010
0000
0000
0000
,
0001
0000
0000
0000
,
1000
0000
0000
0000
,
0100
0000
0100
0000
,
1000
0000
0000
0000
,
0010
0000
0100
0000
,
0001
0000
0000
0000
,
1000
0000
0100
0000
,
1000
0000
0000
0000
,
0100
0000
0010
0000
,
0100
0000
0000
0000
,
1000
0000
0001
0000
,
0001
0000
0000
0000
,
0100
0000
0000
0000
,
0001
0000
0000
0000
,
0001
0000
1000
0000
,
1000
0000
0000
0000
,
0010
0000
0100
0000
,
0001
0000
0000
0000
,
0100
0000
0001
0000
,
1000
0000
0000
0000
,
0010
0000
0000
0000
,
1000
0000
0000
0000
,
1000
0000
1000
0000
,
0001
0000
1000
0000
,
0010
0000
0100
0000
,
0001
0000
1000
0000
,
0001
0000
1000
0000
,
0100
0000
0010
0000
,
0001
0000
1000
0000
,
0100
0000
0010
0000
,
0001
0001
0000
0000
,
1000
1000
0000
0000
,
0010
0010
0000
0000
,
0100
0100
0000
0000
,
0001
0000
1000
0000
,
0001
0000
0000
0000
,
0010
0000
0100
0000
,
1000
0000
0000
0000
,
0001
0000
1000
0000
,
0001
0000
0000
0000
,
0010
0000
0100
0000
,
1000
0000
0000
0000
,
0100
0000
0010
0000
,
0001
0000
0000
0000
,
0020
0000
0000
0030
,
0010
0000
0001
0000
,
1001
0000
0000
0000
;

//---------------dance-single - SaxxonPike----------------
#NOTES:
     dance-single:
     SaxxonPike:
     Easy:
     3:
     :
0000
0000
0000
0000
,
0000
0000
0000
0000
,
0000
0000
0000
0000
,
0000
0000
0000
0000
,
0000
0000
0000
0000
,
0100
0000
0100
0000
,
1000
0000
0001
0000
,
0010
0000
0001
0000
,
0010
0000
0001
0000
,
1000
0000
0100
0000
,
0010
0001
0100
0000
,
0010
0000
1000
0000
,
0100
1000
0010
0000
,
0010
1000
0001
0010
,
0100
0000
0100
0000
,
1000
0010
0100
0001
,
0100
0000
0010
0000
,
0010
1000
0100
0010
,
0001
0000
1000
0000
,
0010
0100
0001
1000
,
2000
0000
0000
3000
,
1000
0001
0001
0010
,
0100
0000
0100
0000
,
1000
0001
0100
0010
,
1000
0000
1000
0000
,
0010
0100
0001
0010
,
0100
0000
1000
0000
,
1000
0010
0100
0000
,
0001
1000
0100
0000
,
0010
0000
0010
0000
,
0001
0000
0100
0000
,
0001
0000
1000
0000
,
0010
0000
0100
0000
,
0001
0000
1000
0000
,
0010
0000
0100
0000
,
0001
0000
0001
0000
,
0100
0000
0100
0000
,
0001
1000
0010
0100
,
0001
1000
0001
0000
,
0010
0100
1000
0010
,
0100
0001
0001
0000
,
1000
0100
0010
0001
,
0100
0010
0010
0000
,
1000
0010
0100
0001
,
1000
0001
0001
0000
,
0010
0100
1000
0000
,
0010
0100
0100
0000
,
0001
0100
0010
0000
,
1000
1000
0010
0000
,
0100
0000
0001
0000
,
1000
0001
0010
0000
,
0002
0000
0000
0003
,
0001
0000
1000
0000
,
2002
0000
0000
0000
,
0000
0000
0000
3003
;

//---------------dance-single - SaxxonPike----------------
#NOTES:
     dance-single:
     SaxxonPike:
     Medium:
     5:
     :
0000
0000
0000
0000
,
0000
0000
0000
0000
,
0000
0000
0000
0000
,
0000
0000
0000
0000
,
0000
0000
0000
0000
,
0010
1000
0001
0100
,
0010
0100
0001
0000
,
0001
0100
0001
1000
,
0010
0100
0100
0000
,
0001
0000
1000
0100
0000
0000
1000
0000
,
0001
0000
1000
0010
0000
0000
0010
0000
,
0100
0000
0010
0100
0000
0000
0001
0000
,
0010
0000
0100
1000
0000
1000
0100
0000
,
0100
0010
0001
0000
0001
0000
0100
0000
,
0010
1000
0001
0000
1000
0000
0001
0000
,
0100
0010
0100
0000
0001
0000
0001
0000
,
0010
0001
1000
0000
0001
0000
0100
0000
,
0010
0000
1000
0001
1000
0000
0100
0000
,
1000
0010
2000
0000
0001
0000
0001
0000
,
3001
0000
1000
0010
0000
1000
0001
0000
,
0100
0000
0010
1000
0001
0000
0100
0000
,
0010
0100
0001
0000
0001
0000
1000
0000
,
0010
0100
0100
0000
0010
0000
1000
0000
,
1000
0100
1000
0000
0010
0000
0010
0000
,
1000
1000
0001
0000
1000
0000
0010
0000
,
0100
0000
0001
0001
0100
0000
0001
0000
,
0010
0001
0002
0000
1000
0000
1000
0000
,
1003
0000
0001
1000
0000
1000
0001
0000
,
0010
0000
0001
1000
0010
0000
1000
0000
,
0010
0100
0010
0000
1000
0001
1000
0000
,
0010
1000
0010
0000
1000
0100
1000
0000
,
0100
0010
0100
0000
0010
0001
0010
0000
,
0001
0100
0001
0000
1000
0001
1000
0000
,
1000
0010
1000
0000
0100
0010
0100
0000
,
1000
1000
0001
0000
1000
1000
0010
0000
,
0100
0100
0001
0000
0001
0001
0010
0000
,
0010
0010
0100
0000
0100
1000
1000
0000
,
1000
0010
1000
0100
0010
0000
0000
0000
,
0100
0010
0001
1000
0002
0000
0000
0000
,
1003
0010
1000
0001
0010
0000
0000
0000
,
0100
1000
0001
0100
0002
0000
0000
0000
,
1003
0100
1000
0100
0010
0000
0000
0000
,
0100
1000
0100
1000
0200
0000
0000
0000
,
1300
1000
0010
0100
0001
0000
0000
0000
,
1000
0100
0010
0001
2000
0000
0000
0000
,
3010
0100
0001
0001
0010
0000
0011
0000
,
1000
0001
0010
0100
1000
0000
1100
0000
,
0001
0100
0010
1000
0001
0000
1001
0000
,
0001
0010
0100
1000
0010
0000
0110
0000
,
0010
1000
0001
0010
0001
0000
0011
0000
,
0001
0100
0001
1000
0010
0000
1010
0000
,
1001
0000
0110
0000
,
1001
0000
0110
0000
,
2002
0000
0000
0000
,
0000
0000
0000
3003
;

//---------------dance-single - SaxxonPike----------------
#NOTES:
     dance-single:
     SaxxonPike:
     Hard:
     8:
     :
0000
0000
0000
0000
,
0000
0000
0000
0000
,
0000
0000
0000
0000
,
0000
0000
0000
0000
,
0000
0000
0000
0000
,
1010
0110
0011
0110
,
0001
0010
0001
1000
0001
0100
0001
0001
,
1000
0010
1000
0001
1000
0100
1000
1000
,
0100
0001
0100
0010
0100
1000
0100
0000
,
1000
0100
0001
0000
0001
0100
1000
0000
,
0010
1000
0100
0000
0010
0001
0100
0000
,
1000
0001
1000
0000
0001
1000
0001
0000
,
0100
0010
0100
0000
0010
0100
0010
0000
,
1001
1100
0110
0101
,
1001
0011
0110
1010
,
0001
0100
1000
0100
0001
0010
0001
0100
,
0001
1000
0001
0100
0001
0010
0001
0001
,
1000
0100
0001
0100
1000
0010
1000
0100
,
1000
0001
1000
0100
1000
0010
1000
1000
,
0001
0100
1000
0001
0010
1000
0001
0100
,
1000
0001
0010
1000
0001
0100
1000
0000
,
1001
0000
0000
1001
0000
0000
1001
0000
2002
0000
0000
0000
3003
0000
0000
0000
,
0001
0100
0001
1000
0001
0010
0001
0000
,
0011
0000
0000
0011
0000
0000
0011
0000
0022
0000
0000
0000
0033
0000
0000
0000
,
0010
0001
0010
0100
0010
1000
0010
0000
,
0110
0000
0000
0110
0000
0000
0110
0000
0220
0000
0000
0000
0330
0000
0000
0000
,
1000
0100
1000
0001
1000
0010
1000
0000
,
1100
0000
0000
1100
0000
0000
1100
0000
2200
0000
0000
0000
3300
0000
0000
0000
,
0100
0001
0100
0010
0100
1000
0100
0000
,
0011
1001
0101
0110
,
1100
1001
1010
0110
,
1000
0010
0001
0010
1000
0100
1000
0001
,
1000
0010
1000
0001
1000
0100
1000
1000
,
0001
0100
1000
0100
0001
0010
0001
1000
,
0001
0100
0001
1000
0001
0010
0001
0001
,
1000
0100
0001
1000
0010
0001
1000
0100
,
0001
1000
0010
0001
1000
0100
0001
0000
,
1100
0000
0000
1100
0000
0000
1100
0000
2200
0000
0000
0000
3300
0000
0000
0000
,
0100
1000
0100
0010
0100
0001
0100
0000
,
0110
0000
0000
0110
0000
0000
0110
0000
0220
0000
0000
0000
0330
0000
0000
0000
,
0001
0010
0001
1000
0001
0100
0001
0000
,
0011
0000
0000
0011
0000
0000
0011
0000
0022
0000
0000
0000
0033
0000
0000
0000
,
1000
0010
1000
0001
1000
0100
1000
0000
,
1001
0000
0000
1001
0000
0000
1001
0000
2002
0000
0000
0000
3003
0000
0000
0000
,
0010
0001
0010
0100
0010
1000
0010
0000
,
0101
0000
0000
0101
0000
0000
0101
0000
0202
0000
0000
0000
0303
0000
0000
0000
,
0001
0100
1000
0001
0010
1000
0100
0000
,
1100
0000
0000
1100
0000
0000
1100
0000
2200
0000
0000
0000
3300
0000
0000
0000
,
1000
0100
0001
1000
0010
0001
0010
0000
,
0011
0000
0000
0011
0000
0000
0011
0000
0022
0000
0000
0000
0033
0000
0000
0000
,
0001
0100
1000
0010
1000
0100
0001
0000
,
1100
0000
0000
1100
0000
0000
1100
0000
2200
0000
0000
0000
3300
0000
0000
0000
,
2002
0000
0000
0000
,
3003
0000
0000
0000
;

//---------------dance-double - SaxxonPike----------------
#NOTES:
     dance-double:
     SaxxonPike:
     Beginner:
     1:
     :
00000000
00000000
00000000
00000000
,
00000000
00000000
00000000
00000000
,
00000000
00000000
00000000
00000000
,
00000000
00000000
00000000
00000000
,
00000000
00000000
00000000
00000000
,
00010000
00000000
00000000
00000000
,
00100000
00000000
00000000
00000000
,
01000000
00000000
00000000
00000000
,
10000000
00000000
00000000
00000000
,
01000000
00000000
00010000
00000000
,
00001000
00000000
00000000
00000000
,
00010000
00000000
00001000
00000000
,
00000100
00000000
00000000
00000000
,
00000001
00000000
00001000
00000000
,
00000010
00000000
00000000
00000000
,
00000001
00000000
00000100
00000000
,
00001000
00000000
00000000
00000000
,
00001000
00000000
00010000
00000000
,
01000000
00000000
00000000
00000000
,
10000000
00000000
00000000
00000000
,
00010000
00000000
00000000
00000000
,
10000000
00000000
00100000
00000000
,
10000000
00000000
00000000
00000000
,
01000000
00000000
00100000
00000000
,
01000000
00000000
00000000
00000000
,
00010000
00000000
00001000
00000000
,
00000100
00000000
00000000
00000000
,
00000001
00000000
00000000
00000000
,
00001000
00000000
00000000
00000000
,
00000001
00000000
00000010
00000000
,
00000100
00000000
00000010
00000000
,
00000001
00000000
00000100
00000000
,
00001000
00000000
00010000
00000000
,
00010000
00000000
01000000
00000000
,
10000000
00000000
00100000
00000000
,
01000000
00000000
00010000
00000000
,
01000000
00000000
00100000
00000000
,
10000000
10000000
00000000
00000000
,
01000000
01000000
00000000
00000000
,
00010000
00010000
00000000
00000000
,
00001000
00001000
00000000
00000000
,
00000100
00000000
00000001
00000000
,
00001000
00000000
00000000
00000000
,
00000010
00000000
00001000
00000000
,
00000010
00000000
00000000
00000000
,
00000100
00000000
00001000
00000000
,
00010000
00000000
00000000
00000000
,
00001000
00000000
00010000
00000000
,
01000000
00000000
00000000
00000000
,
10000000
00000000
01000000
00000000
,
00100000
00000000
00000000
00000000
,
00020000
00000000
00000000
00030000
,
00010000
00000000
10000000
00000000
,
10010000
00000000
00000000
00000000
;

//---------------dance-double - SaxxonPike----------------
#NOTES:
     dance-double:
     SaxxonPike:
     Easy:
     3:
     :
00000000
00000000
00000000
00000000
,
00000000
00000000
00000000
00000000
,
00000000
00000000
00000000
00000000
,
00000000
00000000
00000000
00000000
,
00000000
00000000
00000000
00000000
,
00100000
00000000
00100000
00000000
,
00010000
00000000
10000000
00000000
,
01000000
00000000
00010000
00000000
,
00001000
00000000
00000100
00000000
,
00000001
00000000
00001000
00000000
,
00000100
00001000
00000010
00000000
,
00000100
00000000
00000001
00000000
,
00000001
00000100
00001000
00000000
,
00010000
01000000
10000000
01000000
,
00100000
00000000
00100000
00000000
,
00010000
01000000
00100000
10000000
,
01000000
00000000
10000000
00000000
,
00100000
10000000
01000000
00010000
,
00001000
00000000
00010000
00000000
,
00001000
00000100
00000001
00001000
,
00002000
00000000
00000000
00003000
,
00001000
00000001
00000001
00000010
,
00000100
00000000
00000100
00000000
,
00001000
00000001
00000100
00001000
,
00010000
00000000
00001000
00000000
,
00010000
01000000
10000000
01000000
,
10000000
00000000
00010000
00000000
,
00010000
01000000
00100000
00000000
,
10000000
10000000
01000000
00000000
,
00010000
00000000
00001000
00000000
,
00010000
00000000
00001000
00000000
,
00000100
00000000
00000001
00000000
,
00000100
00000000
00000010
00000000
,
00001000
00000000
00000001
00000000
,
00000100
00000000
00001000
00000000
,
00010000
00000000
00010000
00000000
,
00001000
00000000
00001000
00000000
,
00010000
01000000
10000000
01000000
,
01000000
00100000
00010000
00000000
,
01000000
00100000
10000000
01000000
,
00100000
01000000
10000000
00000000
,
00100000
01000000
00100000
10000000
,
01000000
00100000
00100000
00000000
,
01000000
10000000
01000000
00010000
,
00001000
00010000
00010000
00000000
,
00001000
00000100
00000001
00000000
,
00000010
00000100
00000100
00000000
,
00001000
00000100
00001000
00000000
,
00000001
00000100
00001000
00000000
,
00010000
00000000
01000000
00000000
,
10000000
01000000
00010000
00000000
,
00002000
00000000
00000000
00003000
,
00001000
00000000
00010000
00000000
,
00022000
00000000
00000000
00000000
,
00000000
00000000
00000000
00033000
;

//---------------dance-double - SaxxonPike----------------
#NOTES:
     dance-double:
     SaxxonPike:
     Medium:
     5:
     :
00000000
00000000
00000000
00000000
,
00000000
00000000
00000000
00000000
,
00000000
00000000
00000000
00000000
,
00000000
00000000
00000000
00000000
,
00000000
00000000
00000000
00000000
,
00000100
00000001
00001000
00000010
,
00000100
00000010
00001000
00000000
,
00000100
00010000
00001000
00010000
,
00001000
01000000
00010000
00000000
,
10000000
00010000
01000000
00010000
,
10000000
01000000
00010000
00001000
,
00001000
00000000
00010000
00001000
00000000
00000000
00010000
00000000
,
00001000
00000000
00000100
00000001
00000000
00000001
00000010
00000000
,
00000010
00000100
00001000
00000000
00001000
00000000
00000010
00000000
,
00000100
00000001
00001000
00000000
00000010
00000000
00010000
00000000
,
00001000
00100000
00010000
00000000
10000000
00000000
01000000
00000000
,
00100000
00010000
01000000
00000000
00100000
00000000
10000000
00000000
,
00100000
00000000
01000000
00001000
00010000
00000000
00001000
00000000
,
00001000
00000100
00000002
00000000
00001000
00000000
00001000
00000000
,
00001003
00000000
00000001
00000100
00000000
00000001
00001000
00000000
,
00000010
00000000
00000100
00000001
00001000
00000000
00000010
00000000
,
00000100
00000010
00001000
00000000
00001000
00000000
00000100
00000000
,
00010000
00001000
00001000
00000000
00100000
00000000
00001000
00000000
,
00010000
00001000
00010000
00000000
00001000
00000000
00010000
00000000
,
01000000
10000000
00010000
00000000
10000000
00000000
00010000
00000000
,
00100000
00000000
00010000
00010000
01000000
00000000
00001000
00000000
,
00010000
00001000
00002000
00000000
00010000
00000000
00010000
00000000
,
00013000
00000000
00010000
00001000
00000000
00001000
00000100
00000000
,
00000001
00000000
00001000
00000001
00000100
00000000
00000001
00000000
,
00000100
00000010
00000100
00000000
00000001
00001000
00000001
00000000
,
00001000
00000100
00001000
00000000
00000100
00010000
00000100
00000000
,
00010000
00001000
00010000
00000000
00001000
01000000
00001000
00000000
,
01000000
00010000
01000000
00000000
00010000
10000000
00010000
00000000
,
00010000
01000000
00010000
00000000
00100000
01000000
00100000
00000000
,
00010000
00010000
10000000
00000000
00010000
00010000
01000000
00000000
,
00001000
00001000
00010000
00000000
00010000
00010000
00000010
00000000
,
00001000
00001000
00000100
00000000
00000010
00000001
00000001
00000000
,
00000001
00000100
00000001
00000010
00000100
00000000
00000000
00000000
,
00010000
00001000
00010000
00001000
00020000
00000000
00000000
00000000
,
00031000
00100000
00010000
00010000
00100000
00000000
00000000
00000000
,
00100000
00010000
10000000
00100000
20000000
00000000
00000000
00000000
,
30010000
00100000
00010000
00100000
01000000
00000000
00000000
00000000
,
00010000
00001000
00000100
00000001
00000002
00000000
00000000
00000000
,
00001003
00000100
00001000
00000001
00000010
00000000
00000000
00000000
,
00000100
00010000
00001000
00010000
02000000
00000000
00000000
00000000
,
13000000
10000000
01000000
00010000
00001000
00000000
00011000
00000000
,
00001000
00010000
00001000
01000000
00010000
00000000
01010000
00000000
,
01000000
00001000
00010000
00001000
00010000
00000000
00011000
00000000
,
00010000
00000010
00001000
00000100
00001000
00000000
00001100
00000000
,
00000100
00001000
00000100
00010000
00001000
00000000
00011000
00000000
,
00001000
00100000
00010000
00100000
00001000
00000000
00101000
00000000
,
00011000
00000000
00010100
00000000
,
00011000
00000000
01001000
00000000
,
00022000
00000000
00000000
00000000
,
00000000
00000000
00000000
00033000
;

//---------------dance-double - SaxxonPike----------------
#NOTES:
     dance-double:
     SaxxonPike:
     Hard:
     8:
     :
00000000
00000000
00000000
00000000
,
00000000
00000000
00000000
00000000
,
00000000
00000000
00000000
00000000
,
00000000
00000000
00000000
00000000
,
00000000
00000000
00000000
00000000
,
00001001
00000001
00000100
00001000
,
00010000
01000000
00100000
00010000
,
11000000
00100000
00010000
01000000
,
01010000
00000000
00000000
00000000
10000000
00000000
00000000
00000000
00010000
00000000
00000000
00000000
01000000
00000000
00000000
00010000
,
10000000
00000000
00000000
00000000
01000000
00000000
10000000
00000000
01000000
00000000
00000000
00000000
10000000
00000000
00000000
00010000
,
01000000
00000000
00000000
00000000
00100000
00000000
10000000
00000000
00010000
00000000
00000000
00000000
01000000
00000000
00000000
00001000
,
00010000
00000000
00000100
00001000
00000100
00000000
00000010
00000000
,
00000022
00000000
00000000
00000033
,
00000001
00000000
00001000
00000000
00000010
00000000
00001000
00000000
00000100
00000000
00000010
00000000
00000001
00000000
00000000
00001000
,
00000100
00000000
00000010
00000000
00000001
00000000
00001000
00000000
00000100
00000000
00000010
00000000
00000001
00000000
00000000
00000100
,
00000010
00000000
00001000
00000000
00000100
00000000
00010000
00000000
00001000
00000000
01000000
00000000
00010000
00000000
00000000
01000000
,
00010000
00000000
10000000
00000000
01000000
00000000
10000000
00000000
00010000
00000000
01000000
00000000
00100000
00000000
00000000
01000000
,
00010000
00000000
01000000
00000000
00010000
00000000
10000000
00000000
01000000
00000000
00100000
00000000
01000000
00000000
00000000
10000000
,
01000000
00000000
00000000
00000000
11000000
00000000
00000000
00000000
01010000
00000000
00000000
00000000
00011000
00000000
00000000
00001000
,
00010000
00000000
00000000
00000000
00001100
00000000
00000000
00000000
00000101
00000000
00000000
00000000
00000110
00000000
00000000
00000001
,
00000100
00000010
00001000
00000100
00010000
00001000
00010000
00000000
,
00011000
00000000
00000000
01000000
00000000
00000000
00010000
00000000
01000000
00000000
00000000
00000000
01100000
00000000
00000000
00000000
,
10010000
00011000
00001001
00011000
,
00001000
00000000
00000000
00000100
00000000
00000000
00000010
00000000
00000001
00000000
00000000
00000000
00001000
00000000
00000000
00000000
,
00000001
00000100
00000010
00001000
00000100
00010000
00001000
00000000
,
00010000
00000000
00000000
00001000
00000000
00000000
00010000
00000000
00001000
00000000
00000000
00000000
00011000
00000000
00000000
00000000
,
00001000
00100000
00010000
01000000
00001000
00000000
00011000
00000000
,
00001000
00000000
00000000
00010000
00000000
00000000
00001000
00000000
00010000
00000000
00000000
00000000
00011000
00000000
00000000
00000000
,
00010000
00000010
00001000
00000100
00010000
00000000
00011000
00000000
,
00110000
10100000
11000000
01010000
,
00011000
00001100
00000011
00000101
,
00000001
00000100
00001000
00010000
01000000
10000000
00100000
10000000
,
01000000
00010000
00001000
00000100
00000001
00000010
00000001
00000000
,
00001000
00000100
00000010
00000100
00001000
00000010
00000100
00000001
,
00000100
00001000
00010000
00100000
10000000
01000000
00100000
00001000
,
00000100
00000010
00001000
00000100
00010000
00000010
00001000
00000100
,
00010000
00001000
01000000
00100000
10000000
00000000
11000000
00000000
,
01010000
00101000
00010010
00001100
,
00001100
00110000
00011000
00001010
,
00001000
00000000
00000000
00000100
00000000
00000000
00000020
00000000
00000031
00000000
00000000
00000000
00000011
00000000
00000000
00000000
,
00001000
00000100
00001000
00000010
00000100
00000001
00000100
00000000
,
00000001
00000000
00000000
00000100
00000000
00000000
00000020
00000000
00001030
00000000
00000000
00000000
00001010
00000000
00000000
00000000
,
00000001
00000100
00000010
00001000
00000010
00001000
00000100
00000000
,
00001000
00000000
00000000
00000001
00000000
00000000
00002000
00000000
00003001
00000000
00000000
00000000
00000110
00000000
00000000
00000000
,
00001000
00000000
00000010
00000000
00001000
00000000
00000001
00000000
00000100
00000000
00000010
00000000
00000100
00000000
00000000
00000001
,
00000100
00000000
00000000
00000100
00001000
00000000
00000000
00001000
00010000
00000000
00000000
00010000
01000000
00000000
00000000
01000000
,
00100000
00000000
00000000
00100000
00010000
00000000
00000000
00010000
10000000
00000000
00000000
10000000
00010000
00000000
00000000
00000000
,
01000000
00000000
00000000
01000000
00000000
00000000
00100000
00000000
10000000
00000000
00000000
00000000
10100000
00000000
00000000
00000000
,
10000000
00010000
01000000
00001000
00010000
00000100
00001000
00000000
,
00000100
00000000
00000000
00000010
00000000
00000000
00000010
00000000
00000001
00000000
00000000
00000000
00000011
00000000
00000000
00000000
,
00000001
00000010
00000100
00001000
00000100
00000010
00000001
00000000
,
00000001
00000000
00000000
00001000
00000000
00000000
00000100
00000000
00010000
00000000
00000000
00000000
00010100
00000000
00000000
00000000
,
00011000
00010000
00011000
00010100
,
00022000
00000000
00000000
00000000
,
00033000
00000000
00000000
00000000
;
