#TITLE:Alphabet Aerobics;
#ARTIST:BLACKALICIOUS;
#BANNER:Alphabet Aerobics.png;
#BACKGROUND:Alphabet Aerobics-bg.png;
#CDTITLE:./CDTITLES/DANCE DANCE REVOLUTION ULTRAMIX 3.PNG;
#MUSIC:Alphabet Aerobics.ogg;
#SAMPLESTART:14.94;
#SAMPLELENGTH:15;
#DISPLAYBPM:84:144;
#BPMS:0=76.596,12=86.538,20=88.67,24=88.235,28=90.452,36=93.264,40=92.308,44=94.241,48=95.238,52=96.257,56=96.604,60=98.901,64=97.826,68=100.559,76=102.857,84=106.509,92=109.756,100=110.429,104=111.111,108=112.5,112=113.208,116=114.65,124=116.883,128=116.803,132=119.205,140=120,144=120.805,148=123.288,152=123.098,156=124.138,160=125.874,164=126.501,168=125.874,172=128.571,176=127.66,180=128.571,184=129.496,188=130.435,192=130.405,196=133.303,200=132.353,204=137.305,208=137.405,212=137.105,216=136.364,224=137.405,228=136.364,232=139.005,236=133.333,240=137.405;

//---------------dance-single - ----------------
#NOTES:
     dance-single:
     :
     Beginner:
     1:
     :
0000
0000
0000
0000
,
0000
0000
0000
0000
,
0000
0000
0000
0000
,
0000
0000
0000
0000
,
0000
0000
0000
0000
,
0010
0000
0000
0000
,
1000
0000
0000
0000
,
0100
0000
0000
0000
,
0010
0000
0000
0000
,
0001
0000
0000
0000
,
0100
0000
0000
0000
,
0010
0000
0000
0000
,
1000
0000
0000
0000
,
0001
0000
0000
0000
,
1000
0000
0000
0000
,
0001
0000
0001
0000
,
0100
0000
0100
0000
,
1000
0000
1000
0000
,
0010
0000
0010
0000
,
1000
0000
1000
0000
,
0100
0000
0100
0000
,
0001
0000
0001
0000
,
0100
0000
0100
0000
,
1000
0000
0000
0000
,
0100
0000
0000
0000
,
0010
0000
0000
0000
,
0001
0000
0000
0000
,
0100
0000
0000
0000
,
0010
0000
0000
0000
,
0100
0000
0000
0000
,
0010
0000
0000
0000
,
1000
0000
0000
0000
,
0001
0000
0000
0000
,
1000
0000
0000
0000
,
0001
0000
0000
0000
,
1000
0000
0000
0000
,
0010
0000
0000
0000
,
0100
0000
0000
0000
,
0001
0000
0000
0000
,
0001
0000
0000
0000
,
0010
0000
0000
0000
,
0010
0000
0000
0000
,
1000
0000
0000
0000
,
1000
0000
0000
0000
,
0010
0000
0000
0000
,
0010
0000
0000
0000
,
0001
0000
0000
0000
,
0001
0000
0000
0000
,
0100
0000
0000
0000
,
0100
0000
0000
0000
,
1000
0000
0000
0000
,
1000
0000
0000
0000
,
0100
0000
0000
0000
,
0100
0000
0000
0000
,
0001
0000
0000
0000
,
0001
0000
0000
0000
,
1000
0000
0000
0000
,
0001
0000
0000
0000
,
1000
0000
0000
0000
,
0200
0000
0000
0000
,
0000
0000
0000
0000
,
0300
0000
0000
0000
;

//---------------dance-single - ----------------
#NOTES:
     dance-single:
     :
     Easy:
     4:
     :
0000
0000
0000
0000
,
0000
0000
0000
0000
,
0000
0000
0000
0000
,
0000
0000
0000
0000
,
0000
0000
0000
0000
,
1000
1000
0001
0001
,
1000
0001
1000
0001
,
0100
0100
0010
0010
,
1000
0000
0001
0000
,
0010
0000
0001
1000
,
0001
0000
0100
0100
,
0010
0010
0100
0010
,
0100
0010
1000
1000
,
0001
0001
1000
0001
,
1000
0010
0010
0100
,
0100
0000
0110
0000
,
1001
0000
0010
0000
,
0100
0100
0100
0000
,
1001
0000
0010
0010
,
0010
0000
1000
0001
,
1000
0000
2002
3003
,
0001
0001
1000
1000
,
0001
1000
0001
0000
,
0100
0100
0010
0010
,
0100
0010
0100
0010
,
0110
0000
1000
0001
,
1000
0000
0001
0100
,
0100
0001
0002
0003
,
2000
3000
0020
0030
,
1000
1000
0001
0001
,
1001
0000
0110
0000
,
1000
0100
1000
0100
,
1000
0000
0001
0000
,
0001
0100
0001
0100
,
0001
0000
1000
0000
,
0100
0010
0100
0010
,
0100
0000
0010
0000
,
0001
0001
1000
1000
,
0001
1000
0001
1000
,
1001
0000
0100
0000
,
1001
0000
0010
0000
,
0001
0001
0010
0100
,
1000
1000
2000
3000
,
0001
0001
0010
0100
,
1000
1000
2000
3000
,
0001
0000
0100
0100
,
0100
0000
0010
0000
,
1000
0000
0001
0001
,
0001
0000
1000
0000
,
0100
0000
0010
0100
,
0010
0000
0001
1000
,
0001
0000
0100
0000
,
0001
0001
1000
1000
,
0001
1000
0001
1000
,
1001
0000
0010
0100
,
0010
0000
0110
0000
,
1000
0100
0010
0001
,
0000
1001
0000
0000
;

//---------------dance-single - ----------------
#NOTES:
     dance-single:
     :
     Medium:
     6:
     :
0000
0000
0000
0000
,
0000
0000
0000
0000
,
0000
0000
0000
0000
,
0000
0000
0000
0000
,
0000
0000
0000
0000
,
0010
0001
0100
0000
1000
0000
0100
0000
,
0100
0010
0100
0000
0001
0000
1000
0000
,
0010
0100
1000
0000
0100
0000
0010
0000
,
1000
0100
0001
0000
0100
0000
0100
0000
,
1010
0000
0000
0001
1000
0100
1000
0100
,
0010
0000
0000
0100
0010
0001
0100
0000
,
1000
0100
1000
0000
0001
0100
0001
0000
,
0010
0001
0100
1000
0100
0001
0010
0000
,
0001
0100
1000
0000
0100
0000
0100
0000
,
0001
0000
0010
0000
0100
1000
0100
0000
,
1000
0000
0100
0000
0010
0001
0010
0000
,
0001
0000
0010
0000
0100
1000
0100
0000
,
1000
0000
0001
0000
1000
0001
1000
0000
,
0010
0000
0100
0000
0010
0100
0010
0000
,
1000
0100
0001
0000
0001
0100
1000
0000
,
0001
0000
0100
0000
0010
1000
0010
1000
,
0010
0000
0100
0000
0001
0100
0010
0000
,
1000
0000
0010
0000
1000
0010
0100
0000
,
0001
0100
0010
0000
1000
0000
0100
0000
,
0010
0000
0001
0000
0100
1000
0100
0000
,
0001
0100
0001
0000
1000
0100
1000
0000
,
0001
0010
0001
0000
1000
0010
1000
0000
,
0001
0010
0100
0200
,
1300
2000
3001
0002
,
1003
0010
0100
0010
0100
0010
1000
0000
,
0002
0100
0100
0103
,
1001
0000
0010
0100
0010
0100
0001
0000
,
2000
0100
0100
3100
,
0010
1000
0100
0000
0010
0001
0100
0000
,
0001
0100
0001
0000
1000
0100
1000
0000
,
0100
1000
0100
0100
,
0010
0001
2002
3003
,
1000
0100
1000
0000
1000
0000
1000
0000
,
0010
0100
0010
0000
0010
0000
0010
0000
,
0100
0001
0100
0100
,
0010
0010
1000
1000
,
0010
0100
0010
0000
1000
1000
1000
0000
,
0001
0000
0001
0000
0001
0001
0001
0000
,
0100
0010
0100
0000
0010
0010
0010
0000
,
1000
0000
1000
0000
1000
1000
1000
0000
,
0100
0000
0010
0000
0001
0010
0001
0000
,
0010
0000
0100
0000
1000
0100
1000
0000
,
0100
0000
0010
0000
0001
0010
0001
0000
,
0010
0000
0100
0000
1000
0100
1000
0000
,
0010
0100
0101
1100
,
0001
1000
1001
0110
,
0010
0100
1100
0101
,
1000
0001
1001
0110
,
0100
0001
1000
0000
0001
0100
0001
0000
,
0010
0100
1000
0000
0100
1000
0100
0000
,
1000
0100
0010
0001
,
0101
1100
1100
0101
,
0000
1000
0001
0000
0000
0000
0000
0000
;

//---------------dance-single - ----------------
#NOTES:
     dance-single:
     :
     Hard:
     8:
     :
0000
0000
0000
0000
,
0000
0000
0000
0000
,
0000
0000
0000
0000
,
0000
0000
0000
0000
,
0000
0000
0000
0000
,
0001
0100
0001
0100
0001
1000
0010
0100
,
0001
0100
1000
0100
0010
0100
0001
0010
,
0001
1000
0100
0010
0001
1000
0100
1000
,
0100
1000
0010
0001
1000
0100
0001
0010
,
0100
0001
0100
1000
0010
0100
0010
0100
,
0010
1000
0010
0100
0010
0001
0010
0100
,
0010
1000
0100
0010
0001
0100
0001
0000
,
1000
0100
1000
0010
1000
0001
1000
0100
,
0010
1000
0010
0001
0100
1000
0100
0010
,
1000
0100
0010
0001
1000
0100
1000
0001
,
0010
0001
1000
0001
0010
0001
0100
0010
,
1000
0001
1000
0100
0010
0001
0010
1000
,
0001
1000
0010
1000
0010
0001
0100
1000
,
0100
0001
1000
0010
0001
1000
0100
0001
,
0010
0100
0010
0100
0010
0001
1000
0001
,
0010
0001
1000
0001
0100
0001
0010
0001
,
1000
0100
1000
0001
1000
0010
1000
0100
,
0010
0001
1000
0001
0100
0010
1000
0100
,
0001
0100
0010
0001
1000
0100
1000
0010
,
0001
0010
1000
0100
1000
0100
0010
0001
,
1000
0001
0100
0010
1000
0010
1000
0010
,
0100
0001
0100
0001
0100
0010
0100
0010
,
0100
0001
1000
0001
1000
0001
0100
1000
,
0100
0000
0001
0000
0100
0000
1000
0000
0100
0000
0001
0000
1000
0100
1000
0000
,
0100
0000
0010
0000
0001
0000
0010
0001
0010
0000
0001
0000
1000
0000
0010
0000
,
0100
0001
0100
0000
0010
0000
1000
0100
1000
0000
0001
1000
0001
0000
0010
0000
,
1001
0000
0000
0000
1000
0001
1000
0000
0010
0000
0100
0010
0100
0000
0000
0000
,
0001
0000
0010
0100
0010
0000
0100
0000
1000
0000
0100
1000
0100
0000
0000
0000
,
1000
0001
1000
0000
0001
0000
1000
0000
0001
0000
0100
0000
0010
0000
0100
0000
,
0010
0100
0010
0000
1000
0001
1000
0000
0100
0000
0010
0000
0001
0000
1000
0000
,
0001
0000
1000
0000
0001
0000
1000
0000
0001
0100
0001
0000
0010
0000
0100
0000
,
1000
0100
1000
0000
0100
0010
0100
0010
0100
0000
1000
0000
0100
0000
0000
0000
,
0010
0000
0001
0000
0100
0000
1000
0000
0100
0001
0100
0000
0001
0000
0000
0000
,
0010
0001
0010
0000
0001
0000
0100
0000
0010
0000
1000
0000
0001
0100
0000
0000
,
0001
1000
0001
0000
0100
0000
0000
0000
0001
1000
0001
0000
0100
0010
0100
0000
,
0001
0000
0100
0000
0010
0000
1000
0000
0100
0000
0010
0000
0100
1000
0100
0000
,
0010
0000
0001
0000
1000
0001
1000
0000
0100
0000
1000
0000
0100
0000
0000
0000
,
0010
0000
0001
0000
0010
0000
0001
0000
0100
0000
0010
0100
0010
0000
0000
0000
,
0100
0000
0001
0000
0010
0000
0100
1000
0100
0000
1000
0000
0010
0000
0000
0000
,
0100
0000
0001
0000
0010
0001
0010
0000
0100
1000
0100
0000
1000
0000
0000
0000
,
0010
1000
0001
0100
0001
1000
0100
1000
,
0001
0010
1000
0010
0001
0100
0010
1000
,
0001
1000
0010
0001
0010
1000
0001
0100
,
0010
0100
0001
0100
1000
0100
0010
1000
,
0001
0000
0010
0000
0001
0000
0100
1000
0100
0000
0001
0000
1000
0000
0000
0000
,
0010
0000
1000
0000
0100
0000
0010
0000
0001
0000
1000
0001
1000
0000
0000
0000
,
0001
0100
0000
1000
0100
0000
0010
0000
0100
0000
0001
0000
0100
0000
0000
0000
,
1000
0000
0100
0000
0001
0100
0000
1000
0100
0000
0010
0000
0100
0000
0000
0000
,
0001
0010
0001
1000
0001
0100
0001
0000
,
0010
0001
0010
0100
0010
1000
0010
0000
,
0001
1000
0001
0100
0001
0010
0001
0100
,
1000
0000
0010
0000
0001
0000
0100
0000
1000
0100
0000
0100
0010
0000
1000
0000
,
0000
0010
0100
0000
0000
0000
0000
0000
;

//---------------dance-double - ----------------
#NOTES:
     dance-double:
     :
     Beginner:
     1:
     :
00000000
00000000
00000000
00000000
,
00000000
00000000
00000000
00000000
,
00000000
00000000
00000000
00000000
,
00000000
00000000
00000000
00000000
,
00000000
00000000
00000000
00000000
,
00100000
00000000
00000000
00000000
,
00001000
00000000
00000000
00000000
,
00010000
00000000
00000000
00000000
,
00001000
00000000
00000000
00000000
,
00010000
00000000
00000000
00000000
,
00010000
00000000
00000000
00000000
,
00000100
00000000
00000000
00000000
,
00000100
00000000
00000000
00000000
,
00000010
00000000
00000000
00000000
,
00000010
00000000
00000000
00000000
,
00000001
00000000
00000001
00000000
,
00000100
00000000
00000100
00000000
,
00000010
00000000
00000010
00000000
,
00001000
00000000
00001000
00000000
,
00010000
00000000
00010000
00000000
,
00100000
00000000
00100000
00000000
,
10000000
00000000
10000000
00000000
,
01000000
00000000
01000000
00000000
,
10000000
00000000
00000000
00000000
,
01000000
00000000
00000000
00000000
,
00100000
00000000
00000000
00000000
,
00001000
00000000
00000000
00000000
,
00000010
00000000
00000000
00000000
,
00000001
00000000
00000000
00000000
,
00000100
00000000
00000000
00000000
,
00000010
00000000
00000000
00000000
,
00001000
00000000
00000000
00000000
,
00000001
00000000
00000000
00000000
,
00000100
00000000
00000000
00000000
,
00000010
00000000
00000000
00000000
,
00010000
00000000
00000000
00000000
,
00100000
00000000
00000000
00000000
,
01000000
00000000
00000000
00000000
,
00010000
00000000
00000000
00000000
,
00010000
00000000
00000000
00000000
,
10000000
00000000
00000000
00000000
,
10000000
00000000
00000000
00000000
,
01000000
00000000
00000000
00000000
,
01000000
00000000
00000000
00000000
,
00001000
00000000
00000000
00000000
,
00001000
00000000
00000000
00000000
,
00000100
00000000
00000000
00000000
,
00000100
00000000
00000000
00000000
,
00000001
00000000
00000000
00000000
,
00000001
00000000
00000000
00000000
,
00000100
00000000
00000000
00000000
,
00000100
00000000
00000000
00000000
,
00000010
00000000
00000000
00000000
,
00000010
00000000
00000000
00000000
,
00001000
00000000
00000000
00000000
,
00001000
00000000
00000000
00000000
,
00000100
00000000
00000000
00000000
,
00000100
00000000
00000000
00000000
,
00010000
00000000
00000000
00000000
,
00002000
00000000
00000000
00000000
,
00000000
00000000
00000000
00000000
,
00003000
00000000
00000000
00000000
;

//---------------dance-double - ----------------
#NOTES:
     dance-double:
     :
     Easy:
     4:
     :
00000000
00000000
00000000
00000000
,
00000000
00000000
00000000
00000000
,
00000000
00000000
00000000
00000000
,
00000000
00000000
00000000
00000000
,
00000000
00000000
00000000
00000000
,
00000002
00000003
00000100
00000100
,
00002000
00003000
00010000
00010000
,
02000000
03000000
10000000
10000000
,
00200000
00300000
01000000
01000000
,
00020000
00030000
00010000
10000000
,
02000000
03000000
01000000
00010000
,
00002000
00003000
00001000
00000100
,
00000002
00000003
00000001
00001000
,
00000002
00000003
00000001
00000010
,
00000200
00000300
00000100
00000010
,
00000002
00000003
00000200
00000300
,
00002000
00003000
00020000
00030000
,
02000000
03000000
20000000
30000000
,
00200000
00300000
02000000
03000000
,
00020000
00030000
10000000
01000000
,
00010000
00000000
00022000
00033000
,
00010000
00010000
00001000
00001000
,
00010000
00001000
00000100
00000000
,
00000001
00000001
00000100
00000100
,
00000002
00000003
00000100
00001000
,
00020000
00030000
00001000
00010000
,
02000000
03000000
00010000
01000000
,
10000000
10000000
00020000
00030000
,
00200000
00300000
02000000
03000000
,
10000000
10000000
01000000
01000000
,
00020000
00030000
00002000
00003000
,
00010000
00010000
00001000
00001000
,
00000200
00000300
00000002
00000003
,
00000010
00000010
00000100
00000100
,
00002000
00003000
00000002
00000003
,
00000100
00000100
00001000
00001000
,
00020000
00030000
02000000
03000000
,
01000000
01000000
10000000
10000000
,
00100000
00100000
01000000
01000000
,
10010000
00000000
10000000
00000000
,
01100000
00000000
01000000
00000000
,
00010000
00010000
00001000
00010000
,
00001000
00001000
00002000
00003000
,
00010000
00010000
00001000
00000100
,
00000001
00000001
00000002
00000003
,
00000001
00000000
00001000
00000001
,
00001001
00000000
00000110
00000000
,
00001000
00000001
00000001
00001000
,
00000100
00000000
00011000
00000000
,
00010000
00000000
01000000
10000000
,
01000000
00000000
00100000
00010000
,
00100000
00000000
00010000
00000000
,
10000000
10000000
01000000
01000000
,
00010000
01000000
00010000
00001000
,
00011000
00000000
00001000
00000100
,
00001000
00000000
00001001
00000000
,
00000001
00000010
00000100
00001000
,
00000000
00001001
00000000
00000000
;

//---------------dance-double - ----------------
#NOTES:
     dance-double:
     :
     Medium:
     6:
     :
00000000
00000000
00000000
00000000
,
00000000
00000000
00000000
00000000
,
00000000
00000000
00000000
00000000
,
00000000
00000000
00000000
00000000
,
00000000
00000000
00000000
00000000
,
00000010
00000001
00000010
00000000
00001000
00000000
00000010
00000000
,
00000001
00000100
00000001
00000000
00001000
00000000
00000001
00000000
,
00000100
00001000
00010000
00000000
01000000
00000000
00100000
00000000
,
00010000
10000000
00010000
00000000
10000000
00000000
00100000
00000000
,
10010000
00000000
00000000
00100000
01000000
00100000
01000000
00100000
,
01000000
00000000
00000000
00100000
00001000
00100000
00001000
00000000
,
00010000
00001000
00010000
00000000
00001000
00000100
00001000
00000000
,
00000100
00000001
00000010
00000100
00000010
00000100
00000010
00000000
,
00000001
00000100
00000001
00000000
00001000
00000000
00000100
00000000
,
00010000
00000000
00001000
00000000
00010000
01000000
00010000
00000000
,
01000000
00000000
10000000
00000000
00100000
01000000
00100000
00000000
,
01000000
00000000
00010000
00000000
10000000
00010000
10000000
00000000
,
10000000
00000000
00010000
00000000
00100000
00001000
00100000
00000000
,
00001000
00000000
00010000
00000000
00000100
00010000
00000100
00000000
,
00001000
00000010
00001000
00000000
00000001
00000010
00000001
00000000
,
00000010
00000000
00000010
00000000
00000001
00000100
00000001
00000100
,
00001000
00010000
00001000
00010000
,
01000000
00000000
10000000
00000000
00010000
00100000
01000000
00000000
,
10000000
01000000
00100000
00000000
00010000
00000000
10000000
00000000
,
01000000
00010000
00001000
00010000
,
00001000
00000100
00001000
00000000
00000100
00000000
00000001
00000000
,
00000001
00000000
00000010
00000000
00000001
00001000
00000001
00000000
,
00002000
00003002
00002003
00003200
,
00020300
00032000
00203000
00320000
,
10030000
01000000
00100000
00010000
10000000
01000000
00100000
00000000
,
00020000
00100000
00100000
00130000
,
10010000
00000000
01000000
10000000
00010000
00100000
01000000
00000000
,
20000000
00010000
00010000
30010000
,
01000000
00010000
01000000
00000000
00010000
00000000
00010000
00000000
,
00001000
00000000
00001000
00000000
00000100
00000001
00000100
00000000
,
00000001
00001000
00000001
00001000
,
00010000
00001000
00022000
00033000
,
00010000
01000000
00010000
00000000
00001000
00000000
00010000
00000000
,
00001000
00000100
00001000
00000000
00010000
00000000
00001000
00000000
,
00010000
01000000
01000000
10000000
,
00100000
10000000
10000000
01000000
,
00010000
00001000
00010000
00000000
00001000
00000100
00001000
00000000
,
00000100
00000001
00001100
00000011
,
00000001
00001000
00000001
00000000
00000100
00001000
00000100
00000000
,
00001000
00000000
00010000
00000000
00001000
00001000
00011000
00000000
,
00010000
01000000
10000000
10000000
,
01000000
00000000
00100000
00000000
00010000
10000000
00010000
00000000
,
10000000
00100000
00010000
00001000
,
00000010
00000000
00000001
00000000
00001000
00000001
00001000
00000000
,
00000001
00000100
00000001
00000001
,
00000100
00000000
00001000
00000000
00010000
00001000
00010000
00000000
,
00001000
00010000
01000000
01000000
,
10000000
00000000
00100000
00000000
01000000
00100000
01000000
00000000
,
00001000
00010000
00001000
00000000
00010000
00000000
00010000
00000000
,
00001000
00000100
00001000
00000000
00000100
00000001
00000100
00000000
,
00000001
00000010
00000100
00001000
,
00000100
00010000
00011000
01001000
,
00000000
00010000
10000000
00000000
00000000
00000000
00000000
00000000
;

//---------------dance-double - ----------------
#NOTES:
     dance-double:
     :
     Hard:
     9:
     :
00000000
00000000
00000000
00000000
,
00000000
00000000
00000000
00000000
,
00000000
00000000
00000000
00000000
,
00000000
00000000
00000000
00000000
,
00000000
00000000
00000000
00000000
,
00000010
00000001
00000100
00000000
00000001
00000000
00001000
00000000
00000010
00000100
00000010
00000100
00000010
00000000
00000100
00000000
,
00000001
00000010
00000100
00000000
00001000
00000000
00000001
00000100
00001000
00000000
00000100
00001000
00010000
00000000
00001000
00000000
,
00010000
01000000
10000000
00000000
00100000
00000000
00100000
00000000
00010000
00000000
00010000
00100000
10000000
00000000
10000000
00000000
,
00100000
00000000
10000000
01000000
00010000
00000000
00010000
01000000
10000000
00000000
01000000
00000000
00010000
00000000
00001000
00000000
,
00010000
00000000
00001000
00000000
00000100
00000000
00001000
00000100
00000001
00000000
00000001
00000000
00000010
00000000
00000010
00000000
,
00000001
00000100
00000001
00000100
00000000
00000010
00000000
00001000
00000100
00001000
00000100
00000000
00000001
00000000
00000100
00000000
,
00001000
00000100
00001000
00000000
00000001
00000000
00000001
00000000
00000100
00001000
00000100
00001000
00000100
00000000
00000000
00000000
,
00001000
00010000
00001000
00000000
00001000
00000000
00001000
00000000
00010000
01000000
00010000
01000000
00010000
00000000
01000000
00000000
,
10000000
01000000
10000000
00000000
00010000
00000000
00100000
00000000
01000000
00000000
10000000
00000000
00010000
01000000
00010000
00000000
,
10000000
00000000
01000000
00000000
00100000
00000000
00010000
00000000
10000000
01000000
10000000
00000000
00100000
00000000
00100000
00000000
,
01000000
00010000
01000000
00000000
00001000
00000000
00010000
00001000
00010000
00000000
00010000
00000000
00000100
00000000
00000100
00000000
,
00001000
00000100
00001000
00000000
00001000
00000000
00000100
00000000
00000010
00000000
00000001
00000000
00000010
00000000
00001000
00000000
,
00000010
00000000
00000001
00000000
00001000
00000000
00000001
00000100
00000001
00000000
00000100
00000000
00001000
00000100
00001000
00000000
,
00010000
00001000
00010000
00000000
01000000
00010000
01000000
00000000
10000000
00000000
10000000
00000000
00010000
01000000
00010000
00000000
,
00100000
01000000
00100000
00000000
00010000
10000000
00010000
00000000
00010000
00000000
10000000
01000000
10000000
00000000
10000000
00000000
,
00100000
01000000
00100000
00000000
00100000
00000000
01000000
00000000
00010000
10000000
00010000
10000000
00010000
00000000
10000000
00000000
,
01000000
00010000
01000000
00000000
00010000
00000000
00001000
00000000
00010000
00001000
00010000
00001000
00010000
00000000
00000000
00000000
,
00001000
00000000
00001000
00000000
00000100
00000000
00000001
00000000
00000010
00000001
00000010
00000000
00000010
00000000
00000000
00000000
,
00000001
00000000
00000010
00000100
00000010
00000000
00000100
00000000
00001000
00000100
00001000
00000000
00000001
00000010
00000001
00000000
,
00000010
00000000
00000100
00000010
00000100
00000000
00001000
00000000
00000100
00010000
00000100
00000000
00010000
00000000
00000000
00000000
,
00001000
00000000
00001000
00000000
01000000
00010000
01000000
00000000
00100000
00000000
00100000
00000000
10000000
00000000
00100000
00000000
,
00000000
00000000
01000000
00000000
01000000
00000000
00010000
00000000
01000000
00000000
00100000
10000000
00100000
00000000
01000000
00000000
,
00010000
00000000
10000000
01000000
10000000
00000000
01000000
00000000
00010000
01000000
00010000
00000000
00001000
00000000
00001000
00000000
,
00001000
00000000
00001000
00000000
00001000
00000000
00001000
00000000
00001000
00000000
00010000
00000000
00001000
00010000
00001000
00000000
,
00010000
00000010
00001000
00000100
00000001
00000100
00001000
00000010
,
00000001
00000010
00000100
00000001
00001000
00000100
00010000
00000100
,
00011000
00000000
00010000
00001000
01000000
00010000
10000000
00100000
,
01000000
00100000
01000000
00010000
00100000
00001000
01000000
00010000
,
10000000
01000000
00010000
00001000
00000010
00000001
00001000
00001000
,
00000010
00010000
00001000
00100000
00001000
00010000
00000010
00010000
,
00001000
01000000
00010000
10000000
00100000
10000000
01000000
00010000
,
00001000
00010000
00000100
00001000
00000010
00000001
00000010
00001000
,
00000100
00000010
00001000
00000010
00000001
00001000
00000010
00010000
,
00000100
00010000
00001000
00010000
00000010
00010000
00001000
00100000
,
00010000
00100000
00001000
00100000
00010000
00100000
01000000
10000000
,
00010000
01000000
00100000
10000000
00010000
01000000
00100000
10000000
,
01000000
00100000
01000000
00000000
10000000
00010000
10000000
00000000
01000000
00000000
00010000
00000000
00001000
00000000
00000000
00000000
,
01000000
00000000
00010000
00000000
00100000
00000000
00001000
00000000
00010000
00000000
00001000
00010000
00001000
00000000
00000000
00000000
,
00000100
00000000
00000001
00000000
00000010
00000000
00000100
00001000
00000100
00000000
00001000
00000000
00000010
00000000
00000000
00000000
,
00000100
00000000
00000001
00000000
00000010
00000001
00000010
00000000
00000100
00001000
00000100
00000000
00001000
00000000
00000000
00000000
,
00000010
00010000
00001000
00100000
00001000
00010000
00000010
00010000
,
00001000
01000000
00010000
10000000
00100000
10000000
01000000
00010000
,
00001000
00010000
00000100
00001000
00000010
00000001
00000010
00001000
,
00000100
00000010
00001000
00000010
00000001
00001000
00000010
00000100
,
00000001
00000000
00000100
00000000
00001000
00000000
00000100
00001000
00000100
00000000
00010000
00000000
00001000
00000000
00000000
00000000
,
00010000
00000000
00100000
00000000
10000000
00000000
00010000
00000000
10000000
00000000
01000000
10000000
01000000
00000000
00000000
00000000
,
00100000
00010000
00000000
00010000
00100000
00000000
00100000
00000000
01000000
00000000
01000000
00000000
10000000
00000000
00000000
00000000
,
01000000
00000000
00010000
00000000
00001000
00010000
00000000
00010000
00001000
00000000
00001000
00000000
00000100
00000000
00000000
00000000
,
00000001
00000010
00000001
00001000
00000100
00010000
00010000
00000000
,
00001000
00010000
00100000
10000000
01000000
00100000
00100000
00000000
,
00001000
00010000
00001000
00000100
00000001
00000010
00000001
00000100
,
00001000
00000000
00100000
00000000
00010000
00000000
01000000
00000000
10000000
01000000
00000000
01000000
00100000
00000000
10000000
00000000
,
00000000
00010000
01000000
00000000
00000000
00000000
00000000
00000000
;
