#TITLE:infinite;
#ARTIST:PARALLEL FLOATERS;
#BANNER:infinite.png;
#BACKGROUND:infinite-bg.png;
#CDTITLE:./CDTITLES/Song Pack 12.png;
#MUSIC:infinite.ogg;
#SAMPLESTART:28.227;
#SAMPLELENGTH:15;
#DISPLAYBPM:170;
#BPMS:0=170;

//---------------dance-single - ----------------
#NOTES:
     dance-single:
     :
     Beginner:
     3:
     :
0000
0000
0000
0000
,
0000
0000
0000
0000
,
0000
0000
0000
0000
,
0000
0000
0000
0000
,
0001
0000
0001
0000
,
1000
0000
1000
0000
,
0001
0000
0001
0000
,
1000
0000
1000
0000
,
0010
0000
0010
0000
,
0100
0000
0100
0000
,
0010
0000
0010
0000
,
0100
0000
0100
0000
,
1000
0000
1000
0000
,
0001
0000
1000
0000
,
0100
0000
0100
0000
,
0010
0000
0100
0000
,
0010
0000
0010
0000
,
0001
0000
0010
0000
,
0100
0000
0100
0000
,
1000
0000
0100
0000
,
1000
0000
1000
0000
,
0010
0000
1000
0000
,
0001
0000
0001
0000
,
0100
0000
0001
0000
,
0100
0000
0100
0000
,
0010
0000
0100
0000
,
0001
0000
0001
0000
,
1000
0000
0001
0000
,
1000
0000
1000
0000
,
1000
0000
1000
0000
,
1000
0000
1000
0000
,
1000
0000
0100
0000
,
0001
0000
0001
0000
,
0001
0000
0001
0000
,
0001
0000
0001
0000
,
0001
0000
0100
0000
,
1000
0000
0100
0000
,
1001
0000
0000
0000
,
0100
0000
1000
0000
,
0001
0000
0010
0000
,
0100
0000
0001
0000
,
1000
0000
0010
0000
,
0010
0000
0100
0000
,
0010
0000
0001
0000
,
0010
0000
0100
0000
,
0010
0000
1000
0000
,
0110
0000
1001
0000
,
0110
0000
0110
0000
,
1001
0000
0110
0000
,
0110
0000
1001
0000
,
0100
0000
0001
0000
,
0001
0000
0100
0000
,
1001
0000
0100
0000
,
0010
0000
0100
0000
,
0010
0000
1001
0000
,
1001
0000
0110
0000
,
0010
0000
0010
0000
,
1000
0000
1000
0000
,
0010
0000
0001
0000
,
0100
0000
1000
0000
,
0100
0000
1000
0000
,
0001
0000
0100
0000
,
1001
0000
1000
0000
,
0100
0000
0100
0000
,
0010
0000
0010
0000
,
0001
0000
0001
0000
,
1000
0000
1000
0000
,
0010
0000
0010
0000
,
0100
0000
0100
0000
,
1000
0000
1000
0000
,
1000
0000
1000
0000
,
0001
0000
1000
0000
,
0100
0000
0100
0000
,
0010
0000
0100
0000
,
0010
0000
0010
0000
,
0001
0000
0010
0000
,
0100
0000
0100
0000
,
1000
0000
0001
0000
,
1001
0000
0000
0000
;

//---------------dance-single - ----------------
#NOTES:
     dance-single:
     :
     Easy:
     3:
     :
0000
0000
0000
0000
,
0000
0000
0000
0000
,
0000
0000
0000
0000
,
0000
0000
0000
0000
,
0001
0000
0001
0000
,
1000
0000
1000
0000
,
0001
0000
0001
0000
,
1000
0000
1000
0000
,
0010
0000
0010
0000
,
0100
0000
0100
0000
,
0010
0000
0010
0000
,
0100
0000
0100
0000
,
1000
0001
1000
0000
,
0001
0000
1000
0000
,
0100
0010
0100
0000
,
0010
0000
0100
0000
,
0010
0001
0010
0000
,
0001
0000
0010
0000
,
0100
1000
0100
0000
,
1000
0000
0100
0000
,
1000
0010
1000
0000
,
0010
0000
1000
0000
,
0001
0100
0001
0000
,
0100
0000
0001
0000
,
0100
0010
0100
0000
,
0010
0000
0100
0000
,
0001
1000
0001
0000
,
1000
0000
0001
0000
,
1000
0100
1000
0100
,
1000
0001
1000
0001
,
1000
0010
1000
0010
,
1000
0100
0100
1000
,
0001
0100
0001
0100
,
0001
1000
0001
1000
,
0001
0010
0001
0010
,
0001
0100
0100
0001
,
1000
0100
0100
1000
,
2002
0000
0000
3003
,
0100
0001
1000
0000
,
0001
0000
0010
0000
,
0100
1000
0001
0000
,
1000
0000
0010
0000
,
0010
1000
0100
0000
,
0010
0000
0001
0000
,
0010
0001
0100
0000
,
0010
0000
1000
0000
,
0101
0000
1001
0000
,
1100
0000
0110
0000
,
0011
0000
0101
0000
,
0110
0000
1001
0000
,
0100
1000
0001
0010
,
0001
1000
0100
1000
,
1001
0000
0100
0000
,
0010
0000
0100
1001
,
0010
0000
1001
0000
,
0011
0000
1100
0000
,
0010
0100
0010
0000
,
1000
0001
1000
0000
,
0010
1000
0001
0000
,
0100
0001
1000
0000
,
0100
0000
1000
0000
,
0001
0000
0100
0000
,
1001
1000
1000
1000
,
0100
0100
0100
0100
,
0010
0010
0010
0010
,
0001
0001
0001
0001
,
1000
1000
1000
1000
,
0010
0010
0010
0010
,
0100
0001
0100
0001
,
1000
0100
1000
0100
,
1000
0001
1000
0000
,
0001
0000
1000
0000
,
0100
0010
0100
0000
,
0010
0000
0100
0000
,
0010
0001
0010
0000
,
0001
0000
0010
0000
,
0100
1000
0100
0000
,
1000
0000
0001
0000
,
1001
0000
0000
0000
;

//---------------dance-single - ----------------
#NOTES:
     dance-single:
     :
     Medium:
     5:
     :
0000
0000
0000
0000
,
0000
0000
0000
0000
,
0000
0000
0000
0000
,
0000
0000
0000
0000
,
0001
0000
0100
0000
0001
0100
0000
0010
,
0000
1000
0100
0000
1000
0001
0000
0000
,
1000
0000
0100
0000
1000
0100
0000
0010
,
0000
0001
0100
0000
0001
1000
0000
0000
,
0001
0000
0010
0000
0100
1000
0000
0001
,
0000
0100
0001
0000
1000
0010
0000
0000
,
0001
0000
1000
0000
0100
0001
0000
1000
,
0000
0100
1000
0000
0001
0010
0000
2000
,
0000
0000
3000
0000
0010
0001
0000
1000
,
0000
0001
0000
0100
0000
0010
0000
2000
,
0000
0000
3000
0002
0000
0000
0003
0000
,
0000
0000
0000
0000
0100
0001
0000
2000
,
0000
0000
3000
0000
0100
0010
0000
0001
,
0000
1000
0000
0001
0000
0200
0000
0000
,
0300
0000
0000
0000
1000
0100
0000
0010
,
0000
0002
0000
0000
0003
0000
0000
0000
,
2000
0000
3000
0000
0100
0010
0000
0001
,
0000
0100
0000
0010
0000
1000
0000
0002
,
0000
0000
0003
0000
1000
0100
0000
0020
,
0000
0000
0030
0002
0000
0000
0003
0000
,
2000
0000
3000
0000
0100
0010
0000
0001
,
0000
0100
0000
1000
0000
0100
0000
0002
,
0000
0000
0003
0000
0010
0001
0000
1000
,
0000
0100
0000
0000
1000
0010
0000
0200
,
0000
0000
0300
0000
0001
1000
0000
0200
,
0000
0000
0300
0000
1000
0010
0000
0200
,
0000
0000
0300
0000
0000
0001
1000
0100
,
0000
0001
0000
0100
0000
0010
0000
0000
,
0001
0000
0000
0000
0100
0010
0000
0200
,
0000
0000
0300
0000
0001
1000
0000
0020
,
0000
0000
0030
0000
0000
0100
0001
1000
,
0000
0010
0000
0001
0000
0010
0000
0100
,
0000
1000
0000
0100
0000
0001
0000
2000
,
0000
0000
3000
0110
,
0100
0000
0001
1000
0000
0001
0000
0010
,
0000
0100
0000
1000
0000
0001
0000
0000
,
1000
0000
0100
0010
0000
0001
0000
0010
,
0000
1000
0000
0000
0000
1000
0000
0000
,
0010
0000
0001
1000
0000
0100
0000
0010
,
0000
0001
0000
1000
0000
0010
0000
0000
,
0100
0000
0001
1000
0000
0010
0000
1000
,
0000
0100
0000
0010
0000
0001
0010
0100
,
0020
0030
0002
0003
,
0200
0300
0020
0030
,
2000
3000
0200
0300
,
2000
0000
3000
0000
0002
0000
0000
0103
,
0000
0000
1000
0000
0001
1000
0000
0001
,
0000
1000
0100
0000
0010
0000
0001
0000
,
0011
0000
0000
1001
0000
0000
0101
0000
,
0000
0110
0000
0000
1010
0000
1001
0000
,
0020
0030
0200
0300
,
0002
0003
2000
3000
,
0100
0010
0000
0010
0000
0010
0000
0001
,
1000
0000
0001
0100
0000
0001
0000
1001
,
0000
0000
1000
0000
0001
0100
0000
0110
,
0000
0100
0001
1000
,
0200
0000
0300
0020
0000
0030
0002
0000
,
0003
2000
0000
3000
0002
0000
0003
0000
,
1001
0000
1000
0000
1000
0000
1000
0001
,
0100
0000
0100
0000
0100
0000
0100
0010
,
0001
0000
0001
0000
0001
0000
0001
0010
,
1000
0000
1000
0000
1000
0000
1000
0100
,
0010
0000
0010
0000
0010
0000
0010
0001
,
1000
0000
1000
0000
1000
0000
1000
0001
,
0100
0000
0001
0000
0100
1000
0000
0100
,
0000
0001
0000
1000
0000
0001
0100
0000
,
0001
0000
0010
0000
1000
0010
0000
0100
,
0000
1000
0010
0000
1000
0001
0000
0000
,
0001
0000
0010
0000
1000
0010
0000
0100
,
0000
0001
0010
0000
0001
1000
0000
0000
,
1000
0000
0100
0000
0010
0001
0000
1000
,
0000
0010
1000
0000
0001
0100
0000
0000
,
1000
0000
0001
0000
0010
1000
0000
0001
,
0000
0010
0001
0000
1000
0100
0000
0000
,
2002
0000
0000
0000
,
0000
0000
0000
0000
,
0000
0000
3003
0000
;

//---------------dance-single - ----------------
#NOTES:
     dance-single:
     :
     Hard:
     8:
     :
0000
0000
0000
0000
,
0000
0000
0000
0000
,
0000
0000
0000
0000
,
0000
0000
0000
0000
,
1000
0000
0001
0000
1000
0100
1000
0010
,
0000
1000
0001
0000
0001
1000
0000
0000
,
0001
0000
1000
0000
0001
0100
0001
0010
,
0000
0001
1000
0000
1000
0001
0000
0000
,
1000
0000
0010
0000
0100
0010
1000
0010
,
0000
1000
0100
0000
0100
1000
0000
0000
,
0001
0000
0010
0000
0100
0010
0001
0010
,
0000
0001
0100
0000
0100
0002
0000
2003
,
0000
0000
3000
0000
0001
0002
0000
0203
,
0000
0320
0000
2030
0000
3200
0000
0320
,
0000
0000
0000
0230
0000
0000
0300
0000
,
0000
0000
0000
0000
0100
2000
0000
3002
,
0000
0000
0003
0000
1000
2000
0000
3200
,
0000
0320
0000
0032
0000
2003
0000
3020
,
0000
0030
0000
0000
0100
0002
0000
2003
,
0000
3200
0000
0000
0300
0000
0000
0000
,
0020
0000
0000
0000
0031
2000
0000
3020
,
0000
0230
0000
2300
0000
3200
0000
0302
,
0000
0003
0000
0000
1000
0002
0000
0023
,
0000
0000
0000
0130
0000
0000
0000
0000
,
2000
0000
0000
0000
3001
0200
0000
0320
,
0000
0230
0000
0302
0000
2003
0000
3200
,
0000
0300
0000
0000
1000
0002
0000
2003
,
0000
3002
0000
0003
0100
0010
0000
1000
,
1001
0000
0001
0000
1000
0010
1000
0100
,
0000
1000
0001
0000
0001
1000
0010
0100
,
0000
0100
0010
0000
1000
0001
0100
0001
,
0010
0000
0010
0001
0000
1000
0010
0000
,
1001
0000
0010
0000
0001
0010
0001
0100
,
0000
0010
0100
0000
0001
1000
0100
0010
,
0000
0010
0100
0000
1000
0001
1000
0010
,
0000
0100
0000
0010
0000
0100
0000
0001
,
0000
1000
0000
0001
0000
1000
0000
0200
,
0000
0000
0300
0110
,
0001
0000
1000
0200
0000
0320
0000
0031
,
0000
1001
0000
1010
0000
0110
0000
0000
,
0100
0000
0001
2000
0000
3200
0000
0310
,
0000
0011
0000
1001
0000
1100
0000
0000
,
0010
0000
0001
0200
0000
2300
0000
3100
,
0000
0101
0000
0110
0000
1010
0000
0000
,
0001
0000
0010
0200
0000
2300
0000
3002
,
0000
0203
0000
0310
1000
0001
1000
0100
,
0010
0011
0001
0011
,
0010
0110
0100
1100
,
1000
1001
0001
0101
,
0100
0000
0110
0000
0010
0000
1010
2000
,
0000
0000
3001
0000
1000
0001
1000
0010
,
0000
0010
0100
0000
0100
0001
0010
0000
,
0100
0000
0000
1000
0001
0000
0010
0000
0000
0001
1000
0000
0100
0000
0000
1000
,
0001
0000
0100
0000
0000
0001
1000
0000
0010
0000
0100
0000
0001
0000
1000
0000
,
0100
1100
0001
0101
,
1000
1100
0001
1001
,
0002
0100
0000
0100
0000
0103
0000
0100
,
0010
1000
0001
0010
0100
1000
0000
1001
,
0000
0000
0001
0000
0001
1000
0010
0110
,
0000
0000
0100
0000
0001
0010
0100
0000
,
1000
0000
0000
0010
1000
0000
0001
0000
0000
0100
0001
0000
1000
0000
0000
0100
,
1000
0000
0010
0000
0100
0000
0001
0000
0100
0000
0001
0000
0100
0010
0000
0000
,
1001
0000
1000
0000
1000
0000
1000
0100
,
0010
0000
0010
0000
0010
0001
0010
0001
,
0100
0000
0100
0000
0100
0000
0100
0010
,
1000
0000
1000
0000
1000
0100
1000
0100
,
0010
0000
0000
0000
0010
0000
0000
0000
0010
0000
0000
0001
0100
0000
0001
0000
,
0010
0000
0000
0100
1000
0000
0010
0000
1000
0000
0000
0001
0100
0000
0001
0000
,
1001
0000
1000
0000
0001
1000
0020
0100
,
0000
0100
0000
0130
0000
0001
1000
0000
,
1000
0100
1000
0100
0010
0001
0010
0001
,
0100
0010
0100
0010
1000
0010
1000
0000
,
0001
0100
0001
0100
0010
1000
0010
1000
,
0100
0010
0100
0010
0001
0010
0001
0000
,
1000
0010
1000
0010
0100
0001
0100
0001
,
0010
0100
0010
0100
1000
0100
1000
0000
,
0100
1000
0001
0100
0010
1000
0001
1000
,
0010
0100
0001
1000
0001
0100
0010
0000
,
2002
0000
0000
0000
,
0000
0000
0000
0000
,
0000
0000
3003
0000
;

//---------------dance-double - ----------------
#NOTES:
     dance-double:
     :
     Beginner:
     3:
     :
00000000
00000000
00000000
00000000
,
00000000
00000000
00000000
00000000
,
00000000
00000000
00000000
00000000
,
00000000
00000000
00000000
00000000
,
00010000
00000000
00010000
00000000
,
01000000
00000000
01000000
00000000
,
00001000
00000000
00001000
00000000
,
00010000
00000000
00010000
00000000
,
00000100
00000000
00000100
00000000
,
00000010
00000000
00000010
00000000
,
00001000
00000000
00001000
00000000
,
00010000
00000000
00010000
00000000
,
00001000
00000000
00001000
00000000
,
00010000
00000000
00001000
00000000
,
00010000
00000000
00010000
00000000
,
01000000
00000000
00010000
00000000
,
00100000
00000000
00100000
00000000
,
00010000
00000000
00100000
00000000
,
01000000
00000000
01000000
00000000
,
10000000
00000000
01000000
00000000
,
00010000
00000000
00010000
00000000
,
01000000
00000000
00010000
00000000
,
00001000
00000000
00001000
00000000
,
00010000
00000000
00001000
00000000
,
00000100
00000000
00000100
00000000
,
00001000
00000000
00000100
00000000
,
00000010
00000000
00000010
00000000
,
00000100
00000000
00000010
00000000
,
00001000
00000000
00001000
00000000
,
00010000
00000000
00010000
00000000
,
01000000
00000000
01000000
00000000
,
00100000
00000000
00100000
00000000
,
10000000
00000000
10000000
00000000
,
01000000
00000000
01000000
00000000
,
00100000
00000000
00100000
00000000
,
00010000
00000000
00010000
00000000
,
00010000
00000000
00010000
00000000
,
00011000
00000000
00000000
00000000
,
00010000
00000000
10000000
00000000
,
00010000
00000000
00100000
00000000
,
00010000
00000000
00000100
00000000
,
00000001
00000000
00000010
00000000
,
00000100
00000000
00010000
00000000
,
00100000
00000000
10000000
00000000
,
10000000
00000000
00010000
00000000
,
00000010
00000000
00000001
00000000
,
00000110
00000000
00001001
00000000
,
00000110
00000000
00011000
00000000
,
01100000
00000000
01100000
00000000
,
01100000
00000000
10010000
00000000
,
00010000
00000000
00010000
00000000
,
00001000
00000000
00001000
00000000
,
00011000
00000000
00001000
00000000
,
00010000
00000000
01000000
00000000
,
00100000
00000000
10010000
00000000
,
10010000
00000000
01100000
00000000
,
00100000
00000000
00100000
00000000
,
00100000
00000000
00100000
00000000
,
00001000
00000000
00001000
00000000
,
00000100
00000000
00000010
00000000
,
00001000
00000000
00000001
00000000
,
00000010
00000000
00000100
00000000
,
00011000
00000000
00010000
00000000
,
01000000
00000000
01000000
00000000
,
10000000
00000000
10000000
00000000
,
00010000
00000000
00010000
00000000
,
00100000
00000000
00100000
00000000
,
01000000
00000000
01000000
00000000
,
10000000
00000000
10000000
00000000
,
01000000
00000000
00010000
00000000
,
00010000
00000000
00010000
00000000
,
00001000
00000000
00010000
00000000
,
00001000
00000000
00001000
00000000
,
00000010
00000000
00001000
00000000
,
00000100
00000000
00000100
00000000
,
00001000
00000000
00000100
00000000
,
00000010
00000000
00000010
00000000
,
00000001
00000000
00001000
00000000
,
00001001
00000000
00000000
00000000
;

//---------------dance-double - ----------------
#NOTES:
     dance-double:
     :
     Easy:
     3:
     :
00000000
00000000
00000000
00000000
,
00000000
00000000
00000000
00000000
,
00000000
00000000
00000000
00000000
,
00000000
00000000
00000000
00000000
,
00010000
00000000
00010000
00000000
,
01000000
00000000
01000000
00000000
,
00001000
00000000
00001000
00000000
,
00010000
00000000
00010000
00000000
,
00000100
00000000
00000100
00000000
,
00000010
00000000
00000010
00000000
,
00001000
00000000
00001000
00000000
,
00010000
00000000
00010000
00000000
,
00001000
00010000
00001000
00000000
,
00010000
00000000
00001000
00000000
,
00010000
01000000
00010000
00000000
,
01000000
00000000
00010000
00000000
,
00100000
00010000
00100000
00000000
,
00010000
00000000
00100000
00000000
,
01000000
10000000
01000000
00000000
,
10000000
00000000
01000000
00000000
,
00010000
01000000
00010000
00000000
,
01000000
00000000
00010000
00000000
,
00001000
00010000
00001000
00000000
,
00010000
00000000
00001000
00000000
,
00000100
00001000
00000100
00000000
,
00001000
00000000
00000100
00000000
,
00000010
00000100
00000010
00000000
,
00000100
00000000
00000010
00000000
,
00001000
00000100
00001000
00000100
,
00010000
00001000
00010000
00001000
,
01000000
00010000
01000000
00010000
,
00100000
01000000
00100000
01000000
,
10000000
00010000
10000000
00010000
,
01000000
00001000
01000000
00001000
,
00100000
00001000
00100000
00001000
,
00010000
00001000
00010000
00001000
,
00010000
00001000
00010000
00001000
,
00022000
00000000
00000000
00033000
,
00010000
01000000
10000000
00000000
,
00010000
00000000
00100000
00000000
,
00010000
00001000
00000100
00000000
,
00000001
00000000
00000010
00000000
,
00000100
00001000
00010000
00000000
,
00100000
00000000
10000000
00000000
,
10000000
01000000
00010000
00000000
,
00000010
00000000
00000001
00000000
,
00000101
00000000
00001001
00000000
,
00001100
00000000
00011000
00000000
,
01010000
00000000
11000000
00000000
,
01100000
00000000
10010000
00000000
,
00010000
10000000
00010000
00100000
,
00001000
00010000
00001000
00010000
,
00011000
00000000
00001000
00000000
,
00010000
00000000
01000000
10000000
,
00100000
00000000
10010000
00000000
,
00110000
00000000
11000000
00000000
,
00100000
01000000
00100000
00000000
,
00100000
00010000
00100000
00000000
,
00001000
00010000
00001000
00000000
,
00000100
00000001
00000010
00000000
,
00001000
00000100
00000001
00000000
,
00000010
00000000
00000100
00000000
,
00011000
00010000
00010000
00010000
,
01000000
01000000
01000000
01000000
,
10000000
10000000
10000000
10000000
,
00010000
00010000
00010000
00010000
,
00100000
00100000
00100000
00100000
,
01000000
01000000
01000000
01000000
,
10000000
00010000
10000000
00010000
,
01000000
00001000
00010000
00001000
,
00010000
00001000
00010000
00000000
,
00001000
00000000
00010000
00000000
,
00001000
00000010
00001000
00000000
,
00000010
00000000
00001000
00000000
,
00000100
00001000
00000100
00000000
,
00001000
00000000
00000100
00000000
,
00000010
00000001
00000010
00000000
,
00000001
00000000
00001000
00000000
,
00001001
00000000
00000000
00000000
;

//---------------dance-double - ----------------
#NOTES:
     dance-double:
     :
     Medium:
     6:
     :
00000000
00000000
00000000
00000000
,
00000000
00000000
00000000
00000000
,
00000000
00000000
00000000
00000000
,
00000000
00000000
00000000
00000000
,
00000001
00000000
00000010
00000000
00001000
00000010
00000000
00000100
,
00000000
00001000
00000010
00000000
00010000
00001000
00000000
00000000
,
00010000
00000000
00100000
00000000
10000000
00100000
00000000
01000000
,
00000000
00010000
00100000
00000000
00001000
00010000
00000000
00000000
,
00001000
00000000
00000100
00000000
00000010
00000001
00000000
00001000
,
00000000
00000010
00001000
00000000
00000100
00010000
00000000
00000000
,
00001000
00000000
00010000
00000000
00100000
10000000
00000000
00010000
,
00000000
00100000
00010000
00000000
01000000
00001000
00000000
00020000
,
00000000
00000000
00030000
00000000
00000100
00001000
00000000
00000001
,
00000000
00001000
00000000
00000010
00000000
00010000
00000000
00002000
,
00000000
00000000
00003000
00020000
00000000
00000000
00030000
00000000
,
00000000
00000000
00000000
00000000
00100000
10000000
00000000
00020000
,
00000000
00000000
00030000
00000000
00100000
01000000
00000000
00010000
,
00000000
00001000
00000000
00010000
00000000
00000100
00000000
00001000
,
00000000
00000000
00000000
00000000
00000001
00000010
00000000
00000100
,
00000000
00002000
00000000
00000000
00003000
00000000
00000000
00000000
,
00010000
00000000
00000000
00000000
00100000
01000000
00000000
10000000
,
00000000
00010000
00000000
10000000
00000000
00100000
00000000
00010000
,
00000000
00000000
00000000
00000000
00001000
00010000
00000000
00002000
,
00000000
00000000
00003000
00000200
00000000
00000000
00000300
00000000
,
00000001
00000000
00000000
00000000
00000010
00000100
00000000
00001000
,
00000000
00000010
00000000
00010000
00000000
00001000
00000000
00100000
,
00000000
00000000
00000000
00000000
01000000
10000000
00000000
00010000
,
00000000
10000000
00000000
00000000
00100000
00010000
00000000
00002000
,
00000000
00000000
00003000
00000000
00010000
00001000
00000000
00000020
,
00000000
00000000
00000030
00000000
00000001
00000100
00000000
00000020
,
00000000
00000000
00000030
00000000
00000000
00001000
00000100
00010000
,
00000000
00001000
00000000
00100000
00000000
01000000
00000000
00000000
,
10000000
00000000
00000000
00000000
00100000
01000000
00000000
00200000
,
00000000
00000000
00300000
00000000
00010000
00001000
00000000
00000200
,
00000000
00000000
00000300
00000000
00000000
00000001
00000010
00000001
,
00000000
00000100
00000000
00001000
00000000
00010000
00000000
00100000
,
00000000
01000000
00000000
00100000
00000000
10000000
00000000
00020000
,
00000000
00000000
00030000
10010000
,
00100000
00000000
00010000
00001000
00000000
00010000
00000000
00000100
,
00000000
00001000
00000000
00000010
00000000
00000100
00000000
00000000
,
00000001
00000000
00000010
00001000
00000000
00000010
00000000
00000100
,
00000000
00010000
00000000
00001000
00000000
00010000
00000000
00000000
,
01000000
00000000
10000000
00010000
00000000
00100000
00000000
01000000
,
00000000
00010000
00000000
00001000
00000000
00000100
00000000
00000000
,
00000010
00000000
00001000
00000100
00000000
00000010
00000000
00001000
,
00000000
00010000
00000000
01000000
00000000
10000000
01000000
00100000
,
00010000
00000000
02000000
03000000
,
00200000
00300000
00020000
00030000
,
00002000
00003000
00000020
00000030
,
00000002
00000000
00000003
00000000
00002000
00000000
00000000
00003010
,
00000000
00000000
00010000
00000000
00001000
00010000
00000000
00001000
,
00000000
00010000
00100000
00000000
10000000
00000000
00010000
00000000
,
00110000
00000000
00000000
00011000
00000000
00000000
00001010
00000000
,
00000000
00000011
00000000
00000000
00000110
00000000
00001001
00000000
,
00000100
00000000
00000020
00000030
,
00002000
00003000
00020000
00030000
,
00100000
01000000
00000000
01000000
00000000
01000000
00000000
00010000
,
10000000
00000000
00010000
00100000
00000000
00001000
00000000
00011000
,
00000000
00000000
00010000
00000000
00001000
00000010
00000000
00000110
,
00000000
00000010
00000001
00001000
,
00000020
00000000
00000030
00000200
00000000
00000300
00002000
00000000
,
00003000
00020000
00000000
00030000
00002000
00000000
00003000
00000000
,
00011000
00000000
00010000
00000000
00010000
00000000
00010000
00001000
,
00100000
00000000
00100000
00000000
00100000
00000000
00100000
01000000
,
10000000
00000000
10000000
00000000
10000000
00000000
10000000
00010000
,
01000000
00000000
01000000
00000000
01000000
00000000
01000000
00100000
,
00010000
00000000
00010000
00000000
00010000
00000000
00010000
00001000
,
00000100
00000000
00000100
00000000
00000100
00000000
00000100
00000010
,
00001000
00000000
00001000
00000000
00000100
00010000
00000000
00001000
,
00000000
00100000
00000000
00010000
00000000
10000000
00100000
00000000
,
10000000
00000000
01000000
00000000
00010000
01000000
00000000
00100000
,
00000000
00010000
01000000
00000000
00001000
00010000
00000000
00000000
,
00001000
00000000
00000100
00000000
00000001
00000100
00000000
00000010
,
00000000
00001000
00000100
00000000
00010000
00001000
00000000
00000000
,
00010000
00000000
00100000
00000000
01000000
10000000
00000000
00010000
,
00000000
01000000
00010000
00000000
00100000
00001000
00000000
00000000
,
00010000
00000000
00001000
00000000
00000100
00000001
00000000
00001000
,
00000000
00000100
00001000
00000000
00000100
00010000
00000000
00000000
,
00022000
00000000
00000000
00000000
,
00000000
00000000
00000000
00000000
,
00000000
00000000
00033000
00000000
;

//---------------dance-double - ----------------
#NOTES:
     dance-double:
     :
     Hard:
     7:
     :
00000000
00000000
00000000
00000000
,
00000000
00000000
00000000
00000000
,
00000000
00000000
00000000
00000000
,
00000000
00000000
00000000
00000000
,
00010000
00000000
10000000
00000000
00010000
01000000
00100000
00010000
,
00000000
00010000
00001000
00000000
00010000
00000010
00000000
00000000
,
00001000
00000000
00000001
00000000
00001000
00000100
00000010
00001000
,
00000000
00001000
00010000
00000000
00001000
00100000
00000000
00000000
,
00010000
00000000
00100000
00000000
01000000
10000000
00100000
00010000
,
00000000
00001000
00000010
00000000
00000001
00000100
00000000
00000000
,
00001000
00000000
00000010
00000000
00000100
00000001
00000010
00001000
,
00000000
00010000
00100000
00000000
10000000
02000000
00000000
03200000
,
00000000
00000000
00300000
00000000
00100000
00020000
00000000
02030000
,
00000000
03200000
00000000
02300000
00000000
03002000
00000000
00023000
,
00000000
00000000
00000000
00030200
00000000
00000000
00000000
00000300
,
00000000
00000000
00000000
00000000
00000010
00000002
00000000
00002003
,
00000000
00000000
00003000
00000000
00000100
00020000
00000000
00032000
,
00000000
00203000
00000000
00320000
00000000
20030000
00000000
30200000
,
00000000
00300000
00000000
00000000
01000000
00020000
00000000
20030000
,
00000000
32000000
00000000
00000000
03000000
00000000
00000000
00000000
,
00200000
00000000
00000000
00000000
00301000
00020000
00000000
00030200
,
00000000
00002300
00000000
00003002
00000000
00000203
00000000
00002300
,
00000000
00003000
00000000
00000000
00010000
00002000
00000000
00203000
,
00000000
00000000
00000000
01300000
00000000
00000000
00000000
00000000
,
20000000
00000000
00000000
00000000
30010000
02000000
00000000
03200000
,
00000000
00320000
00000000
00032000
00000000
00003200
00000000
00000320
,
00000000
00000030
00000000
00000000
00001000
00000200
00000000
00000320
,
00000000
00000230
00000000
00000300
00001000
00000010
00010000
00001000
,
00011000
00000000
00010000
00000000
00001000
00010000
00001000
00100000
,
00000000
00010000
01000000
00000000
00010000
10000000
00100000
01000000
,
00000000
01000000
00100000
00000000
00010000
00001000
00010000
00000100
,
00001000
00000000
00000100
00000010
00000000
00000010
00000001
00000000
,
00001001
00000000
00000100
00000000
00001000
00010000
00100000
01000000
,
00000000
00010000
01000000
00000000
00010000
10000000
01000000
00100000
,
00000000
00100000
00010000
00000000
00010000
01000000
00001000
00010000
,
00000000
00000010
00000000
00001000
00000000
00000001
00000000
00000100
,
00000000
00001000
00000000
00010000
00000000
01000000
00000000
20000000
,
00020000
00000000
30030000
01100000
,
00010000
00000000
10000000
02000000
00000000
03200000
00000000
00310000
,
00000000
00101000
00000000
00011000
00000000
00010100
00000000
00000000
,
00001000
00000000
00000010
00000200
00000000
00000302
00000000
00000013
,
00000000
00001100
00000000
00010100
00000000
00011000
00000000
00000000
,
00100000
00000000
00010000
02000000
00000000
23000000
00000000
31000000
,
00000000
01010000
00000000
01001000
00000000
00011000
00000000
00000000
,
00010000
00000000
00001000
00000200
00000000
00000320
00000000
00002030
,
00000000
00003002
00000000
00000013
00000100
00001000
00000010
00000100
,
00001000
00011000
00010000
01010000
,
01000000
01100000
00100000
00110000
,
00010000
01010000
01000000
01100000
,
00100000
00000000
00110000
00000000
00010000
00000000
00011000
00002000
,
00000000
00000000
00013000
00000000
00001000
00010000
00000100
00001000
,
00000000
00001000
00000001
00000000
00000100
00001000
00010000
00000000
,
00001000
00000000
00000000
00010000
00001000
00000000
00100000
00000000
00000000
00001000
00010000
00000000
00000010
00000000
00000000
00010000
,
00001000
00000000
01000000
00000000
00000000
00001000
00010000
00000000
00000100
00000000
00001000
00000000
00000001
00000000
00000100
00000000
,
00000010
00000110
00001000
00001010
,
00010000
00011000
01000000
01010000
,
00020000
10000000
00000000
10000000
00000000
10030000
00000000
00100000
,
10000000
00010000
00100000
01000000
00010000
00001000
00000000
00011000
,
00000000
00000000
00001000
00000000
00010000
00000010
00001000
00001010
,
00000000
00000000
00000100
00000000
00001000
00000010
00000100
00000000
,
00000001
00000000
00000000
00001000
00000100
00000000
00000100
00000000
00000000
00000010
00000001
00000000
00000001
00000000
00000000
00000100
,
00000010
00000000
00000010
00000000
00001000
00000000
00000010
00000000
00010000
00000000
00001000
00000000
00100000
00010000
00000000
00000000
,
00110000
00000000
01000000
00000000
01000000
00000000
01000000
00100000
,
00010000
00000000
00010000
00000000
00010000
01000000
00010000
01000000
,
00001000
00000000
00001000
00000000
00001000
00000000
00001000
00010000
,
00000010
00000000
00000010
00000000
00000010
00000100
00000010
00000100
,
00000001
00000000
00000000
00000000
00000001
00000000
00000000
00000000
00000001
00000000
00000000
00001000
00000100
00000000
00001000
00000000
,
00000100
00000000
00000000
00010000
00001000
00000000
00010000
00000000
00001000
00000000
00000000
01000000
00010000
00000000
01000000
00000000
,
01010000
00000000
00010000
00000000
10000000
00010000
00200000
00001000
,
00000000
00001000
00000000
00301000
00000000
00010000
00000100
00000000
,
00001000
00000100
00001000
00000100
00000010
00000001
00000010
00000001
,
00001000
00000010
00001000
00000010
00010000
00001000
00100000
00000000
,
00010000
00100000
00010000
00100000
01000000
10000000
01000000
10000000
,
00010000
01000000
00010000
01000000
00001000
00010000
00000100
00000000
,
00001000
00000010
00001000
00000010
00000100
00000001
00000100
00000001
,
00000010
00001000
00000010
00001000
00010000
00001000
00010000
00000000
,
00001000
00010000
00000100
00001000
00000100
00010000
00001000
00100000
,
00010000
00100000
00001000
00010000
00001000
00010000
00001000
00000000
,
00022000
00000000
00000000
00000000
,
00000000
00000000
00000000
00000000
,
00000000
00000000
00033000
00000000
;
