#TITLE:i feel... (Junk Circuit Mix);
#ARTIST:Junk Circuit;
#BANNER:i feel (Junk Circuit Mix).png;
#BACKGROUND:i feel (Junk Circuit Mix)-bg.png;
#CDTITLE:./CDTITLES/Song Pack 7.PNG;
#MUSIC:i feel (Junk Circuit Mix).ogg;
#SAMPLESTART:77.439;
#SAMPLELENGTH:15;
#BPMS:0=141;

//---------------dance-single - ----------------
#NOTES:
     dance-single:
     :
     Beginner:
     1:
     :
0000
0000
0000
0000
,
0000
0000
0000
0000
,
0000
0000
0000
0000
,
0000
0000
0000
0000
,
0000
0000
0000
0000
,
0000
0000
0000
0000
,
1000
0000
0001
0000
,
1000
0000
0001
0000
,
0010
0000
0100
0000
,
0010
0000
0100
0000
,
1000
0000
0010
0000
,
1000
0000
0010
0000
,
0100
0000
0001
0000
,
0100
0000
0001
0000
,
1000
0000
1000
0000
,
0010
0000
0010
0000
,
0100
0000
0100
0000
,
1000
0000
1000
0000
,
1000
0000
1000
0000
,
0010
0000
0010
0000
,
1000
0000
1000
0000
,
0001
0000
0001
0000
,
1000
0000
0001
0000
,
1000
0000
0001
0000
,
0010
0000
0100
0000
,
0010
0000
0100
0000
,
1000
0000
0100
0000
,
1000
0000
0100
0000
,
0010
0000
0001
0000
,
0010
0000
0001
0000
,
0100
0000
0100
0000
,
0010
0000
0010
0000
,
1000
0000
1000
0000
,
0001
0000
0001
0000
,
0010
0000
0010
0000
,
1000
0000
1000
0000
,
0100
0000
0100
0000
,
0001
0000
0001
0000
,
1000
0000
1000
0000
,
0100
0000
0100
0000
,
0010
0000
0010
0000
,
1000
0000
1000
0000
,
1000
0000
1000
0000
,
1000
0000
1000
0000
,
0010
0000
1000
0000
,
0010
0000
1000
0000
,
1000
0000
1000
0000
,
0001
0000
0001
0000
,
0100
0000
0100
0000
,
0010
0000
0010
0000
,
1000
0000
1000
0000
,
0010
0000
0010
0000
,
0100
0000
0100
0000
,
0010
0000
0010
0000
,
0010
0000
0010
0000
,
0100
0000
0100
0000
,
0001
0000
0001
0000
,
1000
0000
1000
0000
,
0100
0000
0100
0000
,
0001
0000
0001
0000
,
0010
0000
0010
0000
,
1000
0000
1000
0000
,
0100
0000
0100
0000
,
1000
0000
1000
0000
,
0010
0000
0010
0000
,
1000
0000
1000
0000
,
1001
0000
0000
0000
;

//---------------dance-single - ----------------
#NOTES:
     dance-single:
     :
     Easy:
     3:
     :
0000
0000
0000
0000
,
0000
0000
0000
0000
,
0000
0000
0000
0000
,
0000
0000
0000
0000
,
0000
0000
0000
0000
,
0000
0000
0000
0000
,
1000
0000
0001
0000
,
1000
0000
0001
0000
,
0010
0000
0100
0000
,
0010
0000
0100
0000
,
1000
0000
0010
0000
,
1000
0000
0010
0000
,
0100
0000
0001
0000
,
0100
0000
0001
0000
,
1000
0100
1000
0100
,
0010
0001
0010
0001
,
0100
0001
0100
0001
,
1000
0010
1000
0010
,
1000
0001
1000
0001
,
0010
0100
0010
0100
,
1000
0100
1000
0100
,
0001
0100
0001
0100
,
1000
0000
0001
0000
,
1000
0000
0001
0000
,
0010
0000
0100
0000
,
0010
0000
0100
0000
,
1000
0000
0100
0000
,
1000
0000
0100
0000
,
0010
0000
0001
0000
,
0010
0000
0001
0000
,
0100
0001
0100
0000
,
0010
1000
0010
0000
,
1000
0100
1000
0000
,
0001
0010
0001
0000
,
0010
0100
0010
0000
,
1000
0001
1000
0000
,
0100
0010
0100
0000
,
0001
1000
0001
0000
,
1000
0010
1000
0010
,
0100
0001
0100
0001
,
0010
0001
0010
0001
,
1000
0100
1000
0100
,
1000
0001
1000
0100
,
1000
0001
1000
0100
,
0010
0001
1000
0001
,
0010
0001
1000
0001
,
1000
1010
1000
1000
,
0001
0101
0001
0001
,
0100
0110
0100
0100
,
0010
1010
0010
0010
,
1000
1100
1000
1000
,
0010
0011
0010
0010
,
0100
0101
0100
0100
,
0010
1010
0010
0010
,
0010
1000
0010
0000
,
0100
0001
0100
0000
,
0001
0010
0001
0000
,
1000
0100
1000
0000
,
0100
0010
0100
0000
,
0001
1000
0001
0000
,
0010
0100
0010
0000
,
1000
0001
1000
0000
,
0100
0001
0100
0001
,
1000
0100
1000
0100
,
0010
0001
0010
0001
,
1000
0010
1000
0010
,
1001
0000
0000
0000
;

//---------------dance-single - ----------------
#NOTES:
     dance-single:
     :
     Medium:
     5:
     :
0000
0000
0000
0000
,
0000
0000
0000
0000
,
0000
0000
0000
0000
,
0000
0000
0000
0000
,
0000
0000
0000
0000
,
0000
0000
0000
0000
,
1000
0101
0001
1100
,
0100
1010
0100
0011
,
0001
1001
0100
0110
,
0010
1100
0100
0011
,
0100
1001
0010
0110
,
0001
1100
0100
0101
,
0010
1010
0100
0101
,
0010
0110
0001
1001
,
1000
0000
0100
0000
1000
0001
0100
0000
,
0001
0000
0100
0000
0001
1000
0100
0000
,
0010
0000
0100
0000
0010
0100
1000
0000
,
0010
0000
0100
0000
0010
0100
0001
0000
,
1000
0000
0001
0000
1000
0100
1000
0000
,
0001
0000
1000
0000
0001
0100
0001
0000
,
0010
0000
0100
0000
1000
0001
0100
0000
,
0010
0000
0100
0000
0001
1000
0100
0000
,
0002
1000
0000
1000
,
0000
1003
0000
0001
,
0200
0010
0000
0010
,
0000
0310
0000
0010
,
2000
0100
0000
0100
,
0000
3100
0000
0001
,
0200
0010
0000
0010
,
0000
0310
0000
0010
,
2000
0001
0100
3001
,
0002
1000
0100
1003
,
0200
0001
0010
0301
,
0020
1000
0100
1030
,
0200
1000
0010
1300
,
0020
0001
0100
0031
,
0200
0001
1000
0301
,
0020
1000
0001
1030
,
1000
0000
0010
0000
1000
0001
0010
0000
,
0001
0000
0010
0000
0001
1000
0010
0000
,
0100
0000
0010
0000
0100
0010
1000
0000
,
0100
0000
0010
0000
0100
0010
0001
0000
,
1000
0000
0001
0000
1000
0010
1000
0000
,
0001
0000
1000
0000
0001
0010
0001
0000
,
0100
0000
0010
0000
1000
0001
0010
0000
,
0100
0000
0010
0000
0001
1000
0010
0000
,
0001
1010
1000
0011
,
0100
1010
0100
0011
,
0100
1001
0010
1001
,
1000
0110
0001
0110
,
1000
0101
0001
1100
,
1000
0011
0010
1010
,
0100
0101
0010
1010
,
0100
0110
1000
1001
,
0002
1000
0010
1003
,
2000
0001
0010
3001
,
0020
1000
0100
1030
,
0200
0001
0010
0301
,
0020
0001
0100
0031
,
0200
1000
0010
1300
,
0020
1000
0001
1030
,
0200
0001
1000
0301
,
0100
0000
0001
0000
0100
0000
0001
0100
,
1000
0000
0100
0000
1000
0000
0010
1000
,
0001
0000
0010
0000
0001
0000
0010
0001
,
0100
0000
0010
0000
0100
0000
0010
1000
,
0100
0000
0000
0000
;

//---------------dance-single - ----------------
#NOTES:
     dance-single:
     :
     Hard:
     7:
     :
0000
0000
0000
0000
,
0000
0000
0000
0000
,
0000
0000
0000
0000
,
0000
0000
0000
0000
,
0000
0000
0000
0000
,
0000
0000
0000
0000
,
1000
0010
0110
0000
1000
1000
0101
0000
,
1000
0001
0101
0000
0100
0100
1001
0000
,
0001
0010
0110
0000
0001
0001
1100
0000
,
0010
0100
0000
0001
1000
0001
0101
0000
,
0001
1000
1001
0000
0010
0010
0101
0000
,
1000
0010
1010
0000
0100
0100
1001
0000
,
0010
0100
0110
0000
0001
0001
1100
0000
,
0010
1001
0100
0110
,
1000
0000
0000
0010
0000
0000
1000
0000
0001
0000
0001
0000
0100
0000
0000
0000
,
0001
1100
0001
1100
,
0001
0000
0000
1000
0000
0000
0010
0000
0100
0000
0100
0000
0001
0000
0000
0000
,
1000
0101
1000
0101
,
0001
2000
0000
0000
0000
0000
0000
0000
3000
0000
0000
0000
0110
0000
0000
0000
,
1000
0020
0000
0000
0000
0000
0000
0000
0030
0000
0000
0000
0101
0000
0000
0000
,
1001
0000
1000
0000
0001
0100
0000
0000
,
0101
0000
1000
0000
0010
1000
0000
0000
,
0001
1000
0001
0100
0000
0010
0010
0000
,
1000
0010
1000
0001
0000
1000
1000
0000
,
0100
1000
0001
0100
0000
0001
0001
0000
,
1000
0010
0110
0000
0001
0001
1100
0000
,
0001
0010
0100
1000
0000
0010
0100
0000
,
0001
0100
0001
0100
0000
0001
1000
0000
,
0010
1000
0001
1000
0000
0001
0100
0000
,
0020
2030
3002
0103
,
0000
0000
1000
0000
0001
0000
1000
0001
0000
0001
1000
0000
0100
0000
0000
0000
,
0000
0000
1000
0000
0100
0000
1000
0100
0000
0100
1000
0000
0010
0000
0100
0000
,
0000
0000
0010
0000
0100
0000
0010
0100
0000
0100
0010
0000
1000
0000
0000
0000
,
0000
0000
0001
0000
0100
0000
0001
0100
0000
0100
0001
0000
1000
0000
0001
0000
,
0000
0000
1000
0000
0010
0000
1000
0010
0000
0010
1000
0000
0001
0000
0000
0000
,
0000
0000
0001
0000
1000
0000
0001
1000
0000
1000
0001
0000
0100
0000
0000
0000
,
1010
0000
1000
0000
0010
0100
0000
0000
,
0110
0000
0001
0000
1000
0001
0000
0000
,
1000
0000
0000
0100
0000
0000
1000
0000
0010
0000
0010
0000
0100
0000
0000
0000
,
0020
1000
0000
0130
,
0010
0000
0000
1000
0000
0000
0100
0000
0010
0000
0010
0000
0100
0000
0000
0000
,
2000
0100
0000
3001
,
1001
0000
0001
1000
0000
1000
0001
0000
,
0101
0000
0001
1000
0000
1000
0010
0000
,
0110
0000
0100
0001
0000
0001
1000
0000
,
0010
0000
0000
0000
0100
0000
0000
0000
0001
0100
0001
0000
1000
0000
0100
0000
,
0010
0100
1000
0000
0001
0100
0010
0000
,
1000
0010
0100
0000
0001
0100
1000
0100
,
0001
0100
0001
0000
1000
0100
0001
0000
,
1000
0000
0100
0000
1000
0000
0001
0000
1000
0100
1000
0000
0001
0000
0000
0000
,
0001
0010
0100
1000
0010
0100
0001
0000
,
0010
0100
1000
0010
0100
0001
0010
0000
,
0100
1000
0010
0100
0001
0010
0100
0000
,
1000
0000
0010
0000
0100
0000
0001
0100
0000
0100
0010
0000
1000
0000
0000
0000
,
1000
0010
0100
0001
0010
0100
1000
0000
,
0010
0100
0001
0010
0100
1000
0010
0000
,
0100
0001
0010
0100
1000
0010
0100
0000
,
0001
0000
0100
0000
0010
0000
1000
0010
0000
0010
1000
0000
0001
0000
0100
0000
,
0010
1000
1010
0000
0001
0100
0101
0000
,
0001
1000
1001
0000
1000
0100
1100
0000
,
0100
0010
0110
0000
0001
0010
0011
0000
,
0010
0000
0100
0000
1000
0000
0100
1000
0000
1000
0001
0000
0100
0000
0000
0000
,
0101
0101
1001
0000
1100
1100
1010
0000
,
0110
0110
0101
0000
1001
1001
0110
0000
,
0110
0000
1000
0000
0001
1000
0000
0000
,
1001
0000
1000
0000
0010
0200
0000
0300
,
1001
0000
0000
0000
;

//---------------dance-double - ----------------
#NOTES:
     dance-double:
     :
     Beginner:
     2:
     :
00000000
00000000
00000000
00000000
,
00000000
00000000
00000000
00000000
,
00000000
00000000
00000000
00000000
,
00000000
00000000
00000000
00000000
,
00000000
00000000
00000000
00000000
,
00000000
00000000
00000000
00000000
,
10000000
00000000
10000000
00000000
,
01000000
00000000
01000000
00000000
,
10000000
00000000
10000000
00000000
,
00100000
00000000
00010000
00000000
,
00001000
00000000
00001000
00000000
,
00000010
00000000
00000010
00000000
,
00001000
00000000
00001000
00000000
,
00000001
00000000
00000001
00000000
,
00000010
00000000
00001000
00000000
,
00000010
00000000
00000001
00000000
,
00000010
00000000
00001000
00000000
,
00001000
00000000
00010000
00000000
,
00100000
00000000
00010000
00000000
,
00100000
00000000
10000000
00000000
,
01000000
00000000
00010000
00000000
,
00001000
00000000
00010000
00000000
,
00010000
00000000
00000010
00000000
,
00001000
00000000
00000001
00000000
,
00000010
00000000
00000001
00000000
,
00000001
00000000
00001000
00000000
,
00000100
00000000
00001000
00000000
,
00001000
00000000
00010000
00000000
,
01000000
00000000
10000000
00000000
,
00010000
00000000
10000000
00000000
,
00000000
01000000
00000000
01000000
,
00000000
00010000
00000000
01000000
,
00000000
00001000
00000000
00001000
,
00000000
00000100
00000000
00000100
,
00000000
00000100
00000000
00000001
,
00000000
00001000
00000000
00000000
,
00000100
00000000
00001000
00000000
,
00010000
00000000
10000000
00000000
,
00000000
00100000
00000000
01000000
,
00000000
10000000
00000000
00010000
,
00000000
00000100
00000000
00000010
,
00000000
00000010
00000000
00000100
,
00000000
00000001
00000000
00001000
,
00000000
00001000
00000000
00100000
,
00000000
10000000
00000000
00010000
,
00000000
00010000
00000000
00000100
,
00000000
00000110
00000000
00001001
,
00000000
00000110
00000000
00011000
,
00000000
01100000
00000000
10010000
,
00000000
00000000
10010000
00000000
,
01100000
00000000
00000000
00100000
,
00000000
00100000
00000000
00010000
,
00000000
00001000
00000000
00000100
,
00000000
00000010
00000000
00001000
,
00000000
00000001
00000000
00000000
,
00000100
00000000
00001000
00000000
,
00010000
00000000
01000000
00000000
,
10000000
00000000
00100000
00000000
,
00100000
00000000
10000000
00000000
,
00010000
00000000
01000000
00000000
,
00001000
00000000
00010000
00000000
,
00000100
00000000
00000010
00000000
,
00000100
00000000
00000100
00000000
,
00000100
00000000
00010000
00000000
,
00010000
00000000
00010000
00000000
,
00100000
00000000
00100000
00000000
,
10010000
00000000
00000000
00000000
;

//---------------dance-double - ----------------
#NOTES:
     dance-double:
     :
     Easy:
     3:
     :
00000000
00000000
00000000
00000000
,
00000000
00000000
00000000
00000000
,
00000000
00000000
00000000
00000000
,
00000000
00000000
00000000
00000000
,
00000000
00000000
00000000
00000000
,
00000000
00000000
00000000
00000000
,
10000000
00010000
10000000
00000000
,
01000000
00100000
01000000
00000000
,
10000000
00010000
10000000
00000000
,
00100000
01000000
00010000
00000000
,
00001000
00000010
00001000
00000000
,
00000010
00000001
00000010
00000000
,
00001000
00000100
00001000
00000000
,
00000001
00000100
00000001
00000000
,
00000010
00000100
00001000
00000000
,
00000010
00000100
00000001
00000000
,
00000010
00000100
00001000
00000000
,
00001000
00010000
00010000
00000000
,
00100000
01000000
00010000
00000000
,
00100000
01000000
10000000
00000000
,
01000000
00010000
00010000
00000000
,
00001000
00010000
00010000
00000000
,
00010000
00001000
00000010
00000000
,
00001000
00001000
00000001
00000001
,
00000010
00000010
00000001
00000000
,
00000001
00000001
00001000
00001000
,
00000100
00000100
00001000
00000000
,
00001000
00001000
00010000
00010000
,
01000000
01000000
10000000
00000000
,
00010000
00010000
10000000
10000000
,
00000000
01000000
00010000
01000000
,
00000000
00010000
00001000
01000000
,
00000000
00001000
00010000
00001000
,
00000000
00000100
00000001
00000100
,
00000000
00000100
00001000
00000001
,
00000100
00001000
00010000
00000000
,
00000100
00010000
00001000
00000000
,
00010000
01000000
10000000
00000000
,
00000000
00100000
10000000
01000000
,
00000000
10000000
01000000
00010000
,
00000000
00000100
00000001
00000010
,
00000000
00000010
00000001
00000100
,
00000000
00000001
00000100
00001000
,
00000000
00001000
00010000
00100000
,
00000000
10000000
00100000
00010000
,
00000000
00010000
00001000
00000100
,
00000000
00000110
00000000
00001001
,
00000000
00001100
00000000
00011000
,
00000000
01010000
00000000
10010000
,
10010000
00000000
10010000
00000000
,
01100000
00010000
00000000
00100000
,
10010000
00100000
00000000
00010000
,
00011000
00001000
00000000
00000100
,
00001001
00000010
00000000
00001000
,
00000010
00000001
00000001
00000000
,
00000100
00001000
00001000
00000000
,
00010000
01000000
01000000
00000000
,
10000000
00100000
00100000
00000000
,
00100000
10000000
10000000
00000000
,
00010000
01000000
01000000
00000000
,
00001000
00010000
00010000
00000000
,
00000100
00000010
00000010
00000000
,
00000100
00001000
00000100
00000000
,
00000100
00001000
00010000
00000000
,
00010000
00100000
00010000
00000000
,
00100000
01000000
00100000
01000000
,
10010000
00000000
00000000
00000000
;

//---------------dance-double - ----------------
#NOTES:
     dance-double:
     :
     Medium:
     6:
     :
00000000
00000000
00000000
00000000
,
00000000
00000000
00000000
00000000
,
00000000
00000000
00000000
00000000
,
00000000
00000000
00000000
00000000
,
00000000
00000000
00000000
00000000
,
00000000
00000000
00000000
00000000
,
10000000
00000000
00010000
00000000
10000000
01000000
00010000
00000000
,
01000000
00000000
00100000
00000000
01000000
10000000
00100000
00000000
,
10000000
00000000
00010000
00000000
10000000
00100000
00010000
00000000
,
00100000
00000000
01000000
00000000
00100000
00010000
00001000
00000000
,
00000010
00000000
00001000
00000000
00000010
00000001
00001000
00000000
,
00000010
00000000
00000001
00000000
00000010
00001000
00000001
00000000
,
00001000
00000000
00000100
00000000
00001000
00000010
00000100
00000000
,
00000001
00000000
00000100
00000000
00000001
00000010
00000100
00000000
,
00000010
00000000
00000100
00000000
00001000
00001000
00000001
00000000
,
00000010
00000000
00000100
00000000
00000001
00000001
00001000
00000000
,
00000010
00000000
00000100
00000000
00000100
00001000
00010000
00000000
,
00001000
00000000
00010000
00000000
00010000
01000000
10000000
00000000
,
00100000
00000000
01000000
00000000
00010000
00010000
10000000
00000000
,
00100000
00000000
01000000
00000000
10000000
10000000
00010000
00000000
,
01000000
01000000
00010000
00000000
00010000
00010000
00001000
00000000
,
00001000
00001000
00010000
00000000
00010000
00010000
00001000
00000000
,
00011000
00001000
00000010
00000001
,
00001000
00000010
00001000
00000000
00000001
00000100
00000001
00000000
,
00000010
00000010
00000001
00000100
,
00000001
00001000
00000001
00000000
00001000
00000001
00001000
00000000
,
00000100
00000100
00001000
00010000
,
00001000
00010000
00001000
00000000
00010000
00001000
00010000
00000000
,
01000000
01000000
10000000
00100000
,
00010000
10000000
00010000
00000000
10000000
00010000
10000000
00000000
,
00100000
01000000
00010000
10000000
,
01000000
00010000
00001000
00010000
,
01000000
00001000
00010000
00001000
,
00010000
00000100
00000001
00000100
,
00000010
00000100
00001000
00000001
,
00000100
00001000
00010000
00001000
,
00000100
00010000
00001000
00010000
,
00001000
01000000
10000000
01000000
,
00020000
00100000
10000000
01030000
,
00100000
10000000
01000000
00010000
,
00001000
00000100
00000001
00000010
,
00002000
00000010
00000001
00003100
,
00000020
00000001
00000100
00001030
,
00000100
00001000
00010000
00100000
,
02000000
10000000
00100000
03010000
,
00100000
00010000
00001000
00000100
,
00000100
00000000
00000110
00000000
00000000
00000001
00001001
00000000
,
00001000
00000000
00001100
00000000
00000000
00010000
00011000
00000000
,
01000000
00000000
01010000
00000000
00000000
10000000
10010000
00000000
,
01100000
10010000
01100000
10010000
,
01100000
10000000
01000000
00100000
,
10010000
01000000
00100000
00010000
,
00011000
00001000
00000100
00000010
,
00001001
00000100
00000010
00000001
,
00000010
00000000
00000001
00000100
00000001
00000000
00000100
00000000
,
00000100
00000000
00001000
00010000
00001000
00000000
00010000
00000000
,
00010000
00000000
01000000
10000000
01000000
00000000
10000000
00000000
,
10000000
00000000
00100000
00010000
00100000
00000000
00010000
00000000
,
00100000
00000000
10000000
00010000
10000000
00000000
00010000
00000000
,
00010000
00000000
01000000
00001000
01000000
00000000
00001000
00000000
,
00001000
00000000
00010000
00000100
00010000
00000000
00000100
00000000
,
00000100
00000000
00000010
00000001
00000010
00000000
00000001
00000000
,
00000100
00001000
00000010
00000001
,
00000100
00001000
00010000
01000000
,
10000000
00100000
00010000
01000000
,
00100000
10000000
10100000
00000000
00010000
01000000
01010000
00000000
,
10010000
00000000
00000000
00000000
;

//---------------dance-double - ----------------
#NOTES:
     dance-double:
     :
     Hard:
     9:
     :
00000000
00000000
00000000
00000000
,
00000000
00000000
00000000
00000000
,
00000000
00000000
00000000
00000000
,
00000000
00000000
00000000
00000000
,
00000000
00000000
00000000
00000000
,
00000000
00000000
00000000
00000000
,
00010000
00000000
00000000
00001000
00000000
00000000
00010000
00000000
02000000
00000000
00000000
00000000
00000000
00000000
00000000
00000000
,
10000000
00100000
00010000
03010000
,
00001000
00000000
00000000
00010000
00000000
00000000
00001000
00000000
00000200
00000000
00000000
00000000
00000000
00000000
00000000
00000000
,
00000001
00000010
00001000
00001300
,
00020000
00000000
00000000
00230000
00000000
00000000
00000000
10300000
,
02000000
00000000
00000000
00000000
00000000
00100000
00000000
00000000
00000000
00000000
00000000
00100000
00000000
00000000
03000000
00000000
,
01000000
20000000
00000000
00000000
00000000
00000000
30000000
00010000
,
02000000
00000000
00000000
03000000
,
10000000
01000000
00100000
01000000
10000000
00010000
01000000
00000000
,
00010000
01000000
00100000
01000000
00010000
10000000
01000000
00000000
,
00010000
01000000
10000000
00100000
00010000
00001000
00000010
00000000
,
00000001
00000100
00001000
00000100
00000001
00000010
00000100
00000000
,
00000001
00000100
00000010
00000100
00000001
00001000
00000100
00000000
,
00001000
00000100
00000010
00000100
00001000
00000001
00000100
00000000
,
00001000
00000100
00000001
00000010
00001000
00010000
00100000
00000000
,
10000000
01000000
00010000
01000000
10000000
00100000
01000000
00000000
,
00010000
10000000
01000000
00100000
00001000
00000010
00001000
00010000
,
01000000
10000000
00100000
01000000
00001000
00010000
01000000
00100000
,
00001000
01000000
00001000
00010000
00000100
00000010
00000001
00000010
,
00001000
00010000
00100000
00010000
00001000
00000100
00000001
00001000
,
00000100
00000010
00000100
00001000
00000001
00000010
00000100
00001000
,
00000001
00000100
00000010
00010000
00001000
00000010
00000001
00000100
,
00001000
00010000
00100000
10000000
00100000
01000000
00010000
10000000
,
01000000
00100000
00010000
01000000
00100000
00010000
00001000
00000000
,
00000000
00000000
00010000
00000000
00001000
00000000
00000100
00000001
00000000
00000100
00000001
00000000
00000000
00000000
00000000
00000000
,
00000000
00000000
00000010
00000000
00000100
00000000
00001000
00000001
00000000
00000001
00001000
00000000
00000010
00000000
00000100
00000000
,
00000000
00000000
00000001
00000000
00000100
00000000
00001000
00010000
00000000
00001000
00010000
00000000
00000000
00000000
00000000
00000000
,
00000000
00000000
00100000
00000000
10000000
00000000
00010000
01000000
00000000
01000000
00010000
00000000
10000000
00000000
00100000
00000000
,
01000000
00000000
00001000
00000000
00010000
00000000
00001000
01000000
00000000
00001000
01000000
00000000
00000000
00000000
00000000
00000000
,
00000000
00000000
00100000
00000000
10000000
00000000
01000000
00100000
00000000
00100000
01000000
00000000
10000000
00000000
00100000
00000000
,
00000000
00000000
10000000
00000000
01000000
00000000
00010000
00001000
00000000
00010000
00001000
00000000
00000000
00000000
00000000
00000000
,
00000000
00000000
00000100
00000000
00000001
00000000
00000010
00000100
00000000
00000100
00000010
00000000
00000001
00000000
00000100
00000000
,
00000010
00001000
00000100
00001000
00000010
00010000
00001000
00000000
,
00000100
00000001
00000010
00001000
00010000
00100000
00010000
00000000
,
00001000
00000100
00001000
00010000
00100000
01000000
10000000
01000000
,
00010000
00100000
01000000
10000000
00010000
01000000
00100000
00000000
,
01000000
00001000
00010000
00000010
00000100
00000001
00001000
00000001
,
00000010
00001000
00000010
00000001
00000100
00000010
00010000
00001000
,
00000100
00000010
00000100
00001000
00010000
00100000
10000000
01000000
,
00100000
00010000
01000000
00100000
10000000
01000000
10010000
00000000
,
00100000
00000000
01000000
00000000
00010000
00000000
00000000
00000000
00100000
00000000
01000000
00000000
10000000
00010000
10000000
00010000
,
10000000
00000000
01000000
00000000
00010000
00000000
00000000
00000000
00001000
00000000
00000010
00000000
00000001
00001000
00000001
00001000
,
00000001
00000000
00000100
00000000
00000010
00000000
00000000
00000000
00001000
00000000
00000001
00000000
00000100
00000010
00000100
00000010
,
00000100
00001000
00010000
00000000
00100000
10000000
00010000
01000000
,
00001000
00010000
00100000
01000000
00010000
10000000
00100000
01000000
,
00001000
00010000
00000010
00001000
00000010
00010000
00000100
00001000
,
00000100
00010000
01000000
00100000
00010000
10000000
00100000
01000000
,
00100000
10000000
01000000
10000000
00010000
01000000
00001000
00010000
,
00001000
01000000
00010000
00100000
01000000
10000000
00100000
00010000
,
00001000
00000100
00000010
00010000
00001000
00010000
01000000
00010000
,
00001000
00000010
00000001
00000100
00000001
00000010
00001000
00000010
,
00000100
00001000
00000001
00000010
00000100
00001000
00010000
00000000
,
00000000
00000000
00001000
00000000
00010000
00000000
00100000
10000000
00000000
00100000
10000000
00000000
00000000
00000000
00000000
00000000
,
00000000
00000000
01000000
00000000
00100000
00000000
00010000
10000000
00000000
10000000
00010000
00000000
01000000
00000000
00100000
00000000
,
00000000
00000000
10000000
00000000
00100000
00000000
00010000
00001000
00000000
00010000
00001000
00000000
00000000
00000000
00000000
00000000
,
00000000
00000000
00000100
00000000
00000001
00000000
00001000
00000010
00000000
00000010
00001000
00000000
00000001
00000000
00000100
00000000
,
00000010
00000000
00010000
00000000
00001000
00000000
00010000
00000010
00000000
00010000
00000010
00000000
00000000
00000000
00000000
00000000
,
00000000
00000000
00000100
00000000
00000001
00000000
00000010
00000100
00000000
00000100
00000010
00000000
00000001
00000000
00000100
00000000
,
00000000
00000000
00000001
00000000
00000010
00000000
00001000
00010000
00000000
00001000
00010000
00000000
00000000
00000000
00000000
00000000
,
00000000
00000000
01000000
00000000
10000000
00000000
00010000
01000000
00000000
01000000
00010000
00000000
10000000
00000000
00010000
00000000
,
20020000
00000000
00000000
30030000
;
