#TITLE:fly through the night;
#ARTIST:Mr. T;
#BANNER:fly through the night.png;
#BACKGROUND:fly through the night-bg.png;
#MUSIC:fly through the night.ogg;
#SAMPLESTART:57.35;
#SAMPLELENGTH:15;
#BPMS:0=139.995,136=139.991;
#BGCHANGES:4.5=fly through the night.avi=1=1=0=0,268=fly through the night-bg.png=1=0=0=1;

//---------------dance-single - ----------------
#NOTES:
     dance-single:
     :
     Beginner:
     1:
     :
0000
0000
0000
0000
,
0000
0000
0000
0000
,
0000
0000
0000
0000
,
0000
0000
0000
0000
,
0000
0000
0000
0000
,
0000
0000
0000
0000
,
1000
0000
0000
0000
,
0010
0000
0001
0000
,
0020
0000
0000
0000
,
0030
0000
1000
0000
,
1001
0000
0000
0000
,
1000
0000
0001
0000
,
0200
0000
0000
0000
,
0000
0000
0300
0000
,
1001
0000
0010
0000
,
1000
0000
0100
0000
,
0002
0000
0000
0000
,
0000
0000
0000
0003
,
0001
0001
0000
0000
,
0010
0010
0000
0000
,
1000
0000
1000
0000
,
0100
0000
0100
0000
,
1000
1000
0000
0000
,
0010
0010
0000
0000
,
0100
0000
0100
0000
,
0001
0000
0100
0000
,
0001
0000
0000
0000
,
0100
0000
0000
0000
,
0020
0000
0000
0000
,
0030
0000
0001
0000
,
1000
0000
0000
0000
,
0001
0000
0010
0000
,
2000
0000
0000
0000
,
3000
0000
0100
0000
,
1001
0000
0000
0000
,
0100
0000
0000
0000
,
0002
0000
0000
0000
,
0003
0000
0000
0000
,
0010
0000
0000
0000
,
1000
0000
0001
0000
,
0200
0000
0000
0000
,
0300
0000
0001
0000
,
0001
0001
0001
0000
,
1000
1000
1000
0000
,
0010
0010
0010
0000
,
0100
0100
0100
0000
,
0010
0010
0010
0010
,
0010
0010
0010
0000
,
1000
1000
1000
1000
,
1000
1000
1000
0000
,
1001
0000
0100
0000
,
0010
0000
0100
0000
,
1000
0000
0001
0000
,
0001
0000
1000
0000
,
0110
0000
1000
0000
,
0001
0000
1000
0000
,
1000
0000
0010
0000
,
0100
0100
0100
0100
,
0100
0000
0100
0000
,
0001
0000
0001
0000
,
1000
0000
1000
0000
,
0010
0000
0010
0000
,
0001
0001
0001
0000
,
1000
1000
1000
0000
,
0001
0001
0001
0000
,
0010
0000
0100
0000
,
1001
0000
0000
0000
;

//---------------dance-single - ----------------
#NOTES:
     dance-single:
     :
     Easy:
     3:
     :
0000
0000
0000
0000
,
0000
0000
0000
0000
,
0000
0000
0000
0000
,
0000
0000
0000
0000
,
0000
0000
0000
0000
,
0000
0000
0000
0000
,
2002
0000
0000
3003
,
0220
0330
2002
3003
,
0220
0000
0000
0000
,
0000
0000
0000
0330
,
1001
0000
0001
0000
,
1000
0000
0001
0000
,
0200
0000
0000
0000
,
0000
0000
0000
0300
,
0110
0000
0010
0000
,
0100
0000
0010
0000
,
0002
0000
0000
0000
,
0000
0000
0000
0003
,
0010
0000
0010
0000
,
0010
0001
0010
0000
,
0010
1000
0010
0000
,
0010
1000
0001
0000
,
0100
0000
0100
0000
,
0100
0001
0100
0000
,
0100
1000
0100
0000
,
0001
1000
0001
0000
,
2002
0000
0000
3003
,
0020
0000
0000
0030
,
2000
0000
0000
0000
,
0000
0000
0001
3000
,
0002
0000
0000
0003
,
1000
0000
0001
0000
,
1000
0000
0001
0000
,
0010
1000
0100
0001
,
1001
0000
0001
0000
,
0100
0000
1000
0000
,
0100
0000
0001
0000
,
1000
0000
0010
0000
,
0001
0000
0000
0000
,
1000
0000
0000
0000
,
0001
0000
0000
0000
,
0001
1000
0001
0000
,
1001
0000
0001
0000
,
0010
0000
1000
0000
,
0001
0000
0100
0000
,
1000
0000
1001
0000
,
0010
1000
0001
0100
,
0001
1000
0010
0100
,
0010
1000
0001
0000
,
0100
0000
0001
0000
,
2002
0000
0000
0000
,
0000
0000
0000
3003
,
0010
0000
0100
0000
,
0000
0000
0000
0000
,
0100
0000
0001
0000
,
1000
0000
0010
0000
,
1001
0000
1001
0000
,
1100
0101
0010
0100
,
1001
0010
0100
1000
,
0001
1000
0001
0100
,
1000
0010
0100
0001
,
1000
0100
0001
0100
,
1001
0000
0010
0000
,
0100
0000
1000
0001
,
1000
0000
0001
0000
,
0010
0100
0010
0100
,
1001
0000
0000
0000
;

//---------------dance-single - ----------------
#NOTES:
     dance-single:
     :
     Medium:
     6:
     :
0000
0000
0000
0000
,
0000
0000
0000
0000
,
0000
0000
0000
0000
,
0000
0000
0000
0000
,
0000
0000
0000
0000
,
0000
0000
0000
0000
,
0010
2000
0000
0001
,
0000
0001
0000
3001
,
0110
0000
1001
0000
,
0110
1001
0110
0000
,
1001
0010
0100
0010
,
1000
0100
0001
0100
,
1000
0100
1000
0000
0001
0000
1100
0000
,
0001
0100
0001
0000
1000
0000
0101
0000
,
0010
0000
0000
0000
0200
0000
0000
2000
,
0300
0000
0000
0000
3002
0000
0000
0000
0000
0000
1003
0000
0000
0100
0000
0000
,
0010
0001
1000
0000
0001
0000
1010
0000
,
0010
1000
0001
0000
1000
0000
0011
0000
,
1000
0000
0001
0000
0000
0000
0001
0000
0100
0000
0000
0010
0000
0000
1000
0000
,
0000
0000
0001
0000
0000
0000
0100
0000
0001
0000
0000
1000
0000
0000
0100
0000
,
0000
0010
0100
0010
0000
0001
0100
0010
,
0000
0100
0010
1000
0000
0010
1000
0100
,
1000
0000
0001
0000
0000
0000
0001
0000
0100
0000
0000
0100
0000
0000
0001
0000
,
0000
0000
0001
0000
0000
0000
1000
0000
0100
0000
0000
0010
0000
0000
0001
0000
,
0000
0100
0010
0100
0000
0010
0100
0010
,
0000
0001
1000
0001
0000
0001
0010
0000
,
1001
0002
0000
1003
,
0200
0010
0000
0310
,
0002
1000
0000
1003
,
0000
0000
0010
0000
0100
0000
0000
0010
0000
0000
1000
0000
0001
0000
0000
0000
,
2001
0100
0000
3100
,
0002
1003
0200
0310
,
0110
0000
1001
0000
,
0110
1001
0110
0000
,
0001
0000
1000
0000
0000
0000
1000
0000
0100
0000
0000
0100
0000
0000
1000
0000
,
0000
0000
0100
0000
0000
0000
1000
0000
0001
0000
0000
0100
0000
0000
0010
0000
,
0001
0010
0000
1000
0100
0001
0000
0001
,
1000
0010
0000
0010
0100
0010
1000
0001
,
1000
0000
0100
0000
0000
0000
0001
0000
0100
0000
0000
0100
0000
0000
0001
0000
,
0000
0000
0010
0000
0000
0000
0010
0000
0001
0000
0000
0100
0000
0000
0010
0000
,
0001
0010
0000
1000
0100
1000
0000
0001
,
0020
0000
0000
0000
0000
0000
0000
0030
0200
0000
0000
0000
0000
0000
0300
0000
,
1000
0010
0000
0100
0010
0100
0000
0010
,
0100
0010
0000
0100
0010
0100
0000
0100
,
0001
1000
0000
0001
0010
1000
0000
0001
,
0100
1000
0000
1001
0000
0110
0000
0001
,
1000
0000
0000
0010
0000
0000
0100
0000
0001
0000
0000
1000
0000
0000
0100
0000
,
1000
0000
0000
0001
0000
0000
0100
0000
0010
0000
0000
1000
0000
0000
0001
0000
,
0010
0000
0000
1000
0000
0000
0001
0000
0100
0000
0000
1000
0000
0000
0001
0000
,
1000
0000
0000
0010
0000
0000
0100
0000
0001
0000
0000
0010
0000
0000
0100
0000
,
2000
0001
0000
0001
0000
0001
3000
0020
,
0000
0100
0000
0100
0000
0100
0030
1000
,
0200
0000
0000
0310
0002
0000
0000
1003
,
0000
0001
0000
1000
0000
0001
0000
0100
,
2000
0001
0000
0001
0000
0001
3000
0001
,
0200
0010
0000
0010
0000
0010
0300
0001
,
0020
0000
0000
0031
2000
0000
3000
0010
,
0200
0001
0300
1000
0000
0010
0000
0010
,
0001
0000
1000
0001
0010
0000
1000
0001
,
0100
0000
0001
1000
0100
0000
0010
1000
,
0001
0000
0000
1000
0010
0100
0000
0010
,
0000
1000
0000
0001
0000
0100
0001
1000
,
0100
0000
1000
0000
1100
0000
0010
0001
,
1000
0000
0001
0000
0101
0000
0010
1000
,
0001
0000
1000
0100
0010
0000
1000
0001
,
0020
0030
0200
0300
,
1001
0000
0000
0000
;

//---------------dance-single - ----------------
#NOTES:
     dance-single:
     :
     Hard:
     7:
     :
0000
0000
0000
0000
,
0000
0000
0000
0000
,
0000
0000
0000
0000
,
0000
0000
0000
0000
,
0000
0000
0000
0000
,
0000
0000
0000
0000
,
0000
0010
0001
0100
0000
0010
0100
1000
,
0000
0010
1000
0100
0000
0010
0001
1000
,
0220
0330
2002
3003
,
2000
3002
0023
0230
,
2300
0000
3000
0010
0100
0001
0100
0002
,
0000
2003
0000
3020
0000
2030
0000
3001
,
0100
0001
0100
1000
0000
1000
0100
0000
,
1000
0100
1000
0100
0000
0001
0100
0000
,
2002
0000
3003
0000
0020
0000
0000
2030
,
0000
0000
0000
0000
3002
0000
0000
0000
0000
0000
0103
0000
0000
0010
0000
0000
,
1000
0100
1000
0100
0000
0001
0010
0000
,
0001
1000
0001
1000
0000
0010
0100
0000
,
1000
0100
1000
0000
0000
0000
0010
0000
0001
0000
0000
0001
0000
0000
0100
0000
,
0000
0000
1000
0001
1000
0000
0000
0000
0100
0000
0000
0100
0000
0000
0010
0000
,
0001
1000
0001
1000
0000
0010
0001
0000
,
1000
0100
1000
0100
0000
0010
1000
0000
,
0010
0001
0010
0000
0000
0000
0100
0000
0010
0000
0000
0010
0000
0000
1000
0000
,
0000
0000
1000
0001
1000
0000
0000
0000
0100
0000
0000
0100
0000
0000
0010
0000
,
1000
0001
0100
0001
0000
0001
0100
0000
,
0100
1000
0100
1000
0000
1000
0100
0000
,
1001
0100
0000
0100
0000
0100
0000
1001
,
0001
1000
0000
1000
0000
1000
0000
1001
,
1000
0001
0000
0001
0000
0001
0000
0010
,
0100
1000
0000
1000
0100
0010
0000
0001
,
1000
0100
0000
0001
0000
0100
0000
0010
,
1000
0100
0000
0010
0001
0100
0000
0100
,
2002
3003
0220
0330
,
2000
0000
0000
0000
3200
0000
0000
0000
0320
0000
0000
0030
0002
0000
0000
0000
,
1003
0100
1000
0100
0000
0100
0001
0000
,
0001
0100
0001
0100
0000
0100
0010
0000
,
1000
0000
0000
0010
0100
1000
0100
0010
,
0000
1000
0000
0001
0000
1000
0001
1000
,
0010
0000
0000
0000
0100
0000
0010
0000
0100
0000
0000
0001
0000
0000
1000
0000
,
0000
0000
0100
1000
0100
0000
0000
0000
0010
0000
0000
0010
0000
0000
0001
0000
,
0000
1000
0000
0100
0000
0100
0000
0100
,
2002
0000
0000
3003
,
0010
0000
1000
0000
0000
1000
0000
0000
0100
0000
0010
0000
0000
0010
0000
0000
,
0001
0000
1000
0000
0000
1000
0000
0000
0010
0000
1000
0000
0000
1000
0000
0000
,
0001
0000
0100
0000
0000
0100
0000
0000
0010
0000
0001
0000
0000
0001
0000
0000
,
0010
0000
0100
0000
0000
0100
0000
0000
1000
0000
0100
0000
0000
0010
1000
0000
,
0001
0000
0000
1000
0000
0000
1000
0000
0100
0000
0000
0001
0000
0000
0001
0000
,
0100
0000
0000
0010
0000
0000
0010
0000
0001
0000
0000
1000
0000
0000
1000
0000
,
0100
0000
0000
0010
0000
0000
0010
0000
0100
0000
0000
0001
0000
0000
0001
0000
,
0100
0000
0000
1000
0000
0000
1000
0000
0001
0000
0000
0100
0000
0010
0000
0000
,
0000
0000
0000
1000
0100
1000
0100
0001
,
0000
0000
0100
0000
0000
0000
1000
0000
0000
0000
0000
0000
0000
0000
0010
0100
,
0010
0000
0000
0000
0000
0000
1000
0001
1000
0000
0000
0000
0000
0000
0010
0000
,
0000
0000
0001
0000
0000
0000
0100
0000
1000
0000
0100
0000
0001
0000
0100
0001
,
0100
0000
0000
0010
1000
0100
0001
0100
,
0000
0100
1000
0100
0000
0100
0001
0100
,
0100
0000
0000
0000
0000
0000
1000
0100
1000
0000
0000
0000
0000
0000
0100
0001
,
0100
0001
0000
0010
0000
0100
1000
0001
,
0100
0000
0010
0100
0001
0000
0100
0010
,
1000
0000
0010
1000
0001
0000
0010
0001
,
1000
0000
1000
0100
0010
0100
1000
0100
,
0010
0001
0100
1000
0100
0010
1000
0100
,
0001
0000
0001
0100
1000
0000
0100
0010
,
0001
0000
0010
0100
1000
0000
0010
1000
,
0100
1000
0100
0001
0000
0001
0000
0100
,
0000
0001
0000
0010
0000
0100
0000
0100
,
2002
0000
0000
3003
;

//---------------dance-double - ----------------
#NOTES:
     dance-double:
     :
     Beginner:
     2:
     :
00000000
00000000
00000000
00000000
,
00000000
00000000
00000000
00000000
,
00000000
00000000
00000000
00000000
,
00000000
00000000
00000000
00000000
,
00000000
00000000
00000000
00000000
,
00000000
00000000
00000000
00000000
,
10010000
00000000
00000000
00000000
,
01000000
00000000
00010000
00000000
,
00011000
00000000
00000110
00000000
,
00000001
00000000
00001000
00000000
,
00000110
00000000
00001000
00000000
,
01000000
00000000
00010000
00000000
,
00100000
00000000
00000000
01000000
,
00000000
10000000
00000000
10000000
,
00000000
00000000
00010000
00000000
,
00001000
00000000
00000001
00000000
,
00001000
00000000
00000000
00000001
,
00000000
00000010
00000000
00000010
,
00000000
00000000
00000100
00000000
,
00011000
00000000
00010000
00000000
,
10000000
00000000
00010000
00000000
,
01000000
00000000
00010000
00000000
,
10010000
00000000
01000000
00000000
,
00011000
00000000
00001000
00000000
,
00000001
00000000
00000100
00000000
,
00000000
00001000
00000000
00000100
,
00000000
00000000
00000000
00000000
,
01000000
00000000
00000000
00000000
,
10000000
00000000
00000000
00000000
,
00000000
00000000
01000000
00000000
,
00010000
00000000
00000000
00000000
,
00001000
00000000
00000010
00000000
,
00001001
00000000
00000110
00000000
,
00001000
00000000
00001000
00000000
,
00011000
00000000
00001000
00000000
,
00001001
00000000
00000100
00000000
,
00000001
00000000
00000100
00000000
,
00000001
00000000
00001000
00000000
,
00011000
00000000
00010000
00000000
,
10010000
00000000
01000000
00000000
,
10000000
00000000
01000000
00000000
,
00010000
00000000
10000000
00000000
,
00100000
00000000
00010000
00000000
,
00001000
00000000
00000010
00000000
,
00000001
00000000
00000100
00000000
,
00001000
00000000
00010000
00000000
,
00000010
00000000
00001000
00000000
,
00010000
00000000
00100000
00000000
,
10000000
00000000
01000000
00000000
,
00010000
00000000
00001000
00000000
,
00011000
00000000
00001000
00000000
,
00000001
00000000
00001000
00000000
,
00000010
00000000
00000100
00000000
,
00000001
00000000
00001000
00000000
,
00011000
00000000
00010000
00000000
,
10000000
00000000
00010000
00000000
,
00100000
00000000
01000000
00000000
,
10000000
00000000
00010000
00000000
,
00011000
00000000
00010000
00000000
,
01100000
00000000
10000000
00000000
,
00010000
00000000
10000000
00000000
,
00010000
00000000
10000000
00000000
,
00011000
00000000
00001000
00000000
,
00000110
00000000
00000001
00000000
,
00001000
00000000
00000001
00000000
,
00001000
00000000
00010000
00000000
,
00011000
00000000
00000000
00000000
;

//---------------dance-double - ----------------
#NOTES:
     dance-double:
     :
     Easy:
     3:
     :
00000000
00000000
00000000
00000000
,
00000000
00000000
00000000
00000000
,
00000000
00000000
00000000
00000000
,
00000000
00000000
00000000
00000000
,
00000000
00000000
00000000
00000000
,
00000000
00000000
00000000
00000000
,
20020000
00000000
00000000
30030000
,
01000000
00000000
00010000
00000000
,
00022000
00033000
00000220
00000330
,
00000001
00000100
00001000
00000100
,
00000110
00000000
00001000
00010000
,
01000000
10000000
00010000
01000000
,
00200000
01000000
00000000
01300000
,
00020000
10000000
00000000
10030000
,
01100000
00000000
00010000
00000000
,
00001000
00000100
00000001
00001000
,
00002000
00000001
00000000
00003001
,
00000200
00000010
00000000
00000310
,
00001001
00000000
00000100
00001000
,
00011000
00000000
00010000
01000000
,
10000000
00000000
00010000
00000000
,
01000000
00000000
00010000
00000000
,
10010000
00000000
01000000
00010000
,
00011000
00000000
00001000
00000100
,
00000001
00000000
00000100
00000000
,
00000000
00001000
00000000
00000100
,
00022000
00000000
00000000
00033000
,
02000000
00000000
00000000
03000000
,
20000000
00000000
00000000
00000000
,
00000000
30000000
02000000
03000000
,
00020000
00000000
00000000
00030000
,
00002000
00003000
00000020
00000030
,
00002002
00003003
00000220
00000330
,
00001000
00010000
00001000
00010000
,
00011000
00000000
00001000
00000100
,
00001001
00000000
00000100
00001000
,
00000001
00000000
00000100
00000000
,
00000001
00000000
00001000
00000000
,
00011000
00000000
00010000
01000000
,
10010000
00000000
01000000
00010000
,
10000000
00000000
01000000
00000000
,
00010000
00000000
10000000
00000000
,
00100000
00000000
00010000
00000000
,
00001000
00000000
00000010
00000000
,
00000001
00000000
00000100
00000000
,
00001000
00000000
00010000
00000000
,
00000010
00000000
00001000
00000000
,
00010000
00000000
00100000
00000000
,
10000000
00000000
01000000
00000000
,
00010000
00000000
00001000
00000000
,
00011000
00000000
00001000
00000100
,
00000001
00000100
00001000
00000000
,
00000010
00000000
00000100
00000000
,
00000001
00000100
00001000
00010000
,
00011000
00000000
00010000
01000000
,
10000000
01000000
00010000
00000000
,
00100000
00000000
01000000
00000000
,
10000000
01000000
00010000
00001000
,
00011000
00000000
00010000
01000000
,
01100000
00000000
10000000
00100000
,
00010000
01000000
10000000
00100000
,
00010000
01000000
10000000
01000000
,
00011000
00000000
00001000
00000100
,
00000110
00000000
00000001
00000010
,
00001000
00000100
00000001
00000010
,
00001000
00000000
00010000
00000000
,
00022000
00000000
00000000
00033000
;

//---------------dance-double - ----------------
#NOTES:
     dance-double:
     :
     Medium:
     6:
     :
00000000
00000000
00000000
00000000
,
00000000
00000000
00000000
00000000
,
00000000
00000000
00000000
00000000
,
00000000
00000000
00000000
00000000
,
00000000
00000000
00000000
00000000
,
00000000
00000000
00000000
00000000
,
00000220
00000000
00000000
00000330
,
00000002
00000103
00002000
00003010
,
00001001
00000100
00001001
00000010
,
00001010
00011000
01010000
00011000
,
00011000
00100000
00010000
00001000
,
00010000
01000000
10000000
01000000
,
00100000
00010000
10000000
01000000
,
00010000
00001000
00010000
00001000
,
00011000
00000010
00001000
00010000
,
00001000
00000100
00000001
00000100
,
00000010
00001000
00000001
00000100
,
00001000
00010000
00001000
00010000
,
00011000
00000000
00010000
00100000
,
10010000
00000000
10000000
01000000
,
00010000
01000000
10000000
01000000
,
00010000
00001000
00000100
00000001
,
00001001
00000000
00000001
00000100
,
00011000
00000000
00001000
00010000
,
00001000
00000010
00001000
00010000
,
01000000
00010000
00001000
00010000
,
00002000
00010000
00000000
00013000
,
00020000
00001000
00000000
00031000
,
00002000
00010000
00000000
00100000
,
00000000
00010000
00000000
01003000
,
00020000
00001000
00000000
00031000
,
00002000
00000010
00000010
00003010
,
00000110
00000000
00001001
00000000
,
00001001
00000110
00001001
00000100
,
00001001
00000000
00000100
00001000
,
00011000
00000000
00001000
00010000
,
01000000
10000000
00100000
00010000
,
01000000
10000000
00100000
00010000
,
10010000
00000000
01000000
00010000
,
00011000
00000000
00010000
00001000
,
00000100
00000001
00000010
00001000
,
00000100
00000001
00000010
00001000
,
00001000
00001100
00000100
00000101
,
00000001
00000011
00000010
00001010
,
00001000
00011000
00010000
00011000
,
00010000
01010000
01000000
11000000
,
20000000
30100000
00200000
00310000
,
00020000
00031000
00002000
00003100
,
00000200
00000301
00000002
00000013
,
00000020
00001030
00002000
00013000
,
00011000
00000000
00010000
00100000
,
10000000
01000000
00100000
01000000
,
01000000
10000000
01000000
00000000
01000000
00010000
01000000
00000000
,
00010000
00001000
00000100
00000010
,
00001001
00000000
00000001
00000100
,
00001000
00000100
00000010
00001000
,
00001001
00000000
00011000
00000000
,
10010000
01100000
00110000
11000000
,
10010000
00000000
01000000
00010000
,
00011000
00000000
00010000
00001000
,
00000100
00000001
00000010
00001000
,
00000100
00000001
00000010
00001000
,
00011000
00000000
00001000
00010000
,
10010000
00000000
01000000
00100000
,
10000000
01000000
00010000
00100000
,
10000000
00000000
00010000
00000000
,
10010000
00000000
00000000
00000000
;

//---------------dance-double - ----------------
#NOTES:
     dance-double:
     :
     Hard:
     8:
     :
00000000
00000000
00000000
00000000
,
00000000
00000000
00000000
00000000
,
00000000
00000000
00000000
00000000
,
00000000
00000000
00000000
00000000
,
00000000
00000000
00000000
00000000
,
00000000
00000000
00000000
00000000
,
20020000
00000000
00000000
30030000
,
20200000
30300000
02020000
03030000
,
10010000
00000000
00011000
00000000
,
00001001
00000110
00001100
00000101
,
00001001
00000000
00000000
00001000
00000001
00001000
00000001
00000010
,
00000000
00000100
00000000
00001000
00000000
00000100
00000000
00010000
,
00002000
00000000
00000000
00010000
00000000
00000000
00010000
00000000
00000000
00010000
00000000
00000000
00013000
00000000
01000000
00000000
,
20000000
00000000
00000000
00100000
00000000
00000000
00100000
00000000
00000000
00100000
00000000
00000000
30100000
00000000
01000000
00000000
,
00020000
00000000
00030000
00000000
11000000
00000000
00000000
10010000
,
00000000
00000000
00000000
00000000
01010000
00000000
00000000
00000000
00000000
00000000
00001000
00000000
00000000
00010000
00000000
00000000
,
00000200
00000000
00000000
00001000
00000000
00000000
00001000
00000000
00000000
00001000
00000000
00000000
00001300
00000000
00000001
00000000
,
00000020
00000000
00000000
00000001
00000000
00000000
00000001
00000000
00000000
00000001
00000000
00000000
00000031
00000000
00001000
00000000
,
00000100
00002000
00000000
00000000
00000000
00000000
00000000
00000000
00000010
00000000
00000000
00000010
00000000
00000000
00003010
00000000
,
00000000
00000000
00000100
00000002
00000000
00000000
00000000
00000000
00001000
00000000
00000000
00001000
00000000
00000000
00001000
00000000
,
00001003
00000000
00000000
00000100
00000000
00000000
00010000
00000000
00000000
01000000
00000000
00000000
10000000
00000000
00010000
00000000
,
10000000
00000000
00000000
00100000
00000000
00000000
01000000
00000000
00000000
00010000
00000000
00000000
10000000
00000000
00010000
00000000
,
10000000
02000000
00000000
00000000
00000000
00000000
00000000
00000000
00100000
00000000
00000000
00100000
00000000
00000000
03100000
00000000
,
00000000
00000000
00001000
00020000
00000000
00000000
00000000
00000000
00001000
00000000
00000000
00001000
00000000
00000000
00001000
00000000
,
00031000
00000000
00000000
00000100
00000000
00000000
00000001
00000000
00000000
00000010
00000000
00000000
00000100
00000000
00001000
00000000
,
00000001
00000010
00001000
00000010
00000001
00000100
00000010
00001000
,
00001200
00010000
00000000
00010300
,
00002000
01000000
00000000
01003000
,
00120000
10000000
00000000
01000000
,
00000000
10000000
00000000
01030000
,
20100000
00010000
00000000
30010000
,
10200000
01300000
00210000
01300000
,
10010000
00000000
00011000
00000000
,
00001001
00000110
00001100
00000101
,
00000010
00002000
00000000
00000000
00000000
00000000
00000000
00000000
00000100
00000000
00000000
00000100
00000000
00000000
00003100
00000000
,
00000000
00000000
00010000
00002000
00000000
00000000
00000000
00000000
00010000
00000000
00000000
00010000
00000000
00000000
00010000
00000000
,
00013000
00000000
00010000
01000000
10000000
00100000
00010000
00100000
,
10000000
01000000
00100000
00010000
10000000
01000000
00100000
00010000
,
01000000
00200000
00000000
00000000
00000000
00000000
00000000
00000000
10000000
00000000
00000000
10000000
00000000
00000000
10300000
00000000
,
00000000
00000000
01000000
00020000
00000000
00000000
00000000
00000000
00100000
00000000
00000000
00100000
00000000
00000000
00100000
00000000
,
00130000
00000000
01000000
00010000
00100000
00010000
10000000
00100000
,
00010000
00001000
00000100
00000001
00000010
00000100
00001000
00000010
,
00001000
00000000
00001000
00000000
00000000
00000001
00000000
00000000
00000010
00000000
00000010
00000000
00000000
00000001
00000000
00000000
,
00000100
00000000
00000100
00000000
00000000
00001000
00000000
00000000
00010000
00000000
00010000
00000000
00000000
00001000
00000000
00000000
,
00010000
00000000
00010000
00000000
00000000
01000000
00000000
00000000
00100000
00000000
00100000
00000000
00000000
00010000
00000000
00000000
,
10000000
00000000
10000000
00000000
00000000
00010000
00000000
00000000
10000000
00000000
10000000
00000000
00000000
00010000
10000000
00000000
,
00100000
00000000
00000000
01000000
00000000
00000000
00010000
00000000
00010000
00000000
00000000
00100000
00000000
00000000
00001000
00000000
,
00001000
00000000
00000000
00010000
00000000
00000000
00001000
00000000
00001000
00000000
00000000
00010000
00000000
00000000
00000010
00000000
,
00000010
00000000
00000000
00001000
00000000
00000000
00000001
00000000
00000001
00000000
00000000
00000100
00000000
00000000
00000010
00000000
,
00000010
00000000
00000000
00001000
00000000
00000000
00000100
00000000
00000100
00000000
00000000
00010000
00000000
00000000
00001000
00000000
,
00011000
00000000
00000000
00010000
00001000
00010000
01000000
10000000
,
00000000
00000000
00010000
00000000
00000000
00000000
10000000
00000000
00000000
00000000
00000000
00000000
00000000
00000000
00100000
10000000
,
00100000
00000000
00000000
00000000
00000000
00000000
01000000
00010000
01000000
00000000
00000000
00000000
00000000
00000000
00100000
00000000
,
00000000
00000000
10000000
00000000
00000000
00000000
00100000
00000000
01000000
00000000
00010000
00000000
10000000
00000000
00010000
01000000
,
00010000
00000000
00000000
10000000
00100000
00010000
00001000
00000100
,
00000000
00000010
00001000
00000100
00000000
00000001
00000100
00001000
,
00000001
00000000
00000000
00000000
00000000
00000000
00000010
00000100
00000010
00000000
00000000
00000000
00000000
00000000
00001000
00000001
,
00001000
00001100
00000101
00001001
,
00000010
00000002
00000000
00000000
00000000
00000000
00000000
00000000
00001000
00000000
00000000
00001000
00000000
00000000
00001003
00000000
,
00000000
00000000
00000010
00000200
00000000
00000000
00000000
00000000
00000001
00000000
00000000
00000001
00000000
00000000
00000001
00000000
,
00000301
00000000
00001000
00000001
00000100
00001000
00010000
01000000
,
00100000
00010000
01000000
00100000
10000000
01000000
00100000
00010000
,
10000000
00200000
00000000
00000000
00000000
00000000
00000000
00000000
01000000
00000000
00000000
01000000
00000000
00000000
01300000
00000000
,
00000000
00000000
10000000
00020000
00000000
00000000
00000000
00000000
00100000
00000000
00000000
00100000
00000000
00000000
00100000
00000000
,
00130000
00000000
00001000
00010000
01000000
00100000
00010000
10000000
,
00100000
01000000
00010000
10000000
01000000
00010000
00001000
00010000
,
00022000
00000000
00000000
00033000
;
