#TITLE:Wherever You Are;
#ARTIST:Laava;
#BANNER:Wherever You Are.png;
#BACKGROUND:Wherever You Are-bg.png;
#CDTITLE:./CDTITLES/DANCE DANCE REVOLUTION ULTRAMIX 2.PNG;
#MUSIC:Wherever You Are.ogg;
#SAMPLESTART:29.4;
#SAMPLELENGTH:15;
#BPMS:0=138;

//---------------dance-single - ----------------
#NOTES:
     dance-single:
     :
     Beginner:
     1:
     :
0000
0000
0000
0000
,
0000
0000
0000
0000
,
0000
0000
0000
0000
,
0000
0000
0000
0000
,
0000
0000
0000
0000
,
0010
0000
0000
0000
,
1000
0000
0000
0000
,
0010
0000
0000
0000
,
0001
0000
0000
0000
,
1000
0000
0100
0000
,
0001
0000
0100
0000
,
0010
0000
0100
0000
,
0010
0000
0100
0000
,
0100
0000
0001
0000
,
1000
0000
0001
0000
,
1000
0000
0010
0000
,
0010
0000
0000
0000
,
1000
0000
0000
0000
,
0001
0000
0000
0000
,
0100
0000
0000
0000
,
0010
0000
0010
0000
,
1000
0000
0000
0000
,
0001
0000
0000
0000
,
0100
0000
0000
0000
,
0001
0000
0000
0000
,
1000
0000
0000
0000
,
1000
0000
0000
0000
,
1000
0000
0000
0000
,
0100
0000
0100
0000
,
0010
0000
0000
0000
,
0001
0000
0000
0000
,
1000
0000
0000
0000
,
0100
0000
0000
0000
,
0010
0000
0000
0000
,
0001
0000
0001
0000
,
0010
0000
0010
0000
,
1000
0000
1000
0000
,
0100
0000
0100
0000
,
1000
0000
0001
0000
,
1000
0000
0001
0000
,
1000
0000
0010
0000
,
0100
0000
0000
0000
,
0001
0000
0001
0000
,
1000
0000
1000
0000
,
0001
0000
0010
0000
,
1000
0000
0000
0000
,
0001
0000
0100
0000
,
1000
0000
0100
0000
,
0001
0000
0001
0000
,
0100
0000
0000
0000
,
1000
0000
1000
0000
,
0001
0000
0010
0000
,
0100
0000
0100
0000
,
1000
0000
0001
0000
,
1000
0000
0010
0000
,
1000
0000
0000
0000
,
0001
0000
0000
0000
,
1000
0000
0000
0000
,
0100
0000
0000
0000
;

//---------------dance-single - ----------------
#NOTES:
     dance-single:
     :
     Easy:
     3:
     :
0000
0000
0000
0000
,
0000
0000
0000
0000
,
0000
0000
0000
0000
,
0000
0000
0000
0000
,
0000
0000
0000
0000
,
0020
0000
0000
0030
,
2000
0000
0000
3000
,
0020
0000
0000
0030
,
0002
0000
0000
0003
,
1000
0000
0100
0000
,
0001
0000
0100
0000
,
0010
0000
0100
0000
,
0010
0000
0100
0000
,
0100
0000
0001
0000
,
1000
0000
0001
0000
,
1000
0000
0010
0000
,
0020
0000
0000
0030
,
1000
1000
0000
0000
,
0001
0001
0000
0000
,
0100
0100
0000
0000
,
0010
0000
0010
0000
,
1000
1000
0000
0000
,
0001
0001
0000
0000
,
0100
0100
0000
0000
,
0002
0000
0000
0003
,
1000
1000
0000
0000
,
1000
0001
0000
0000
,
1000
1000
0000
0000
,
0100
0000
0100
0000
,
0010
0010
0000
0000
,
0001
0001
0000
0000
,
1000
1000
0000
0000
,
0200
0000
0000
0300
,
0020
0000
0000
0030
,
0001
1000
0001
1000
,
0010
0100
0010
0100
,
1000
0001
1000
0001
,
0100
0010
0100
0010
,
1000
0000
0001
0001
,
1000
0000
0001
0001
,
1000
0000
0010
0010
,
0200
0000
0000
0300
,
0001
0010
0001
0001
,
1000
0100
1000
1000
,
0001
0100
0010
0010
,
2000
0000
0000
3000
,
0001
0001
0100
0010
,
1000
1000
0100
0010
,
0001
1000
0001
1000
,
0200
0000
0000
0300
,
1000
0000
1000
0000
,
0001
0000
0010
0000
,
0100
0000
0100
0000
,
1000
0000
0001
0000
,
1000
0000
0010
0000
,
2000
0000
0000
3000
,
0002
0000
0000
0003
,
2000
0000
0000
3000
,
0200
0000
0000
0000
,
0000
0300
0000
0000
;

//---------------dance-single - ----------------
#NOTES:
     dance-single:
     :
     Medium:
     4:
     :
0000
0000
0000
0000
,
0000
0000
0000
0000
,
0000
0000
0000
0000
,
0000
0000
0000
0000
,
0000
0000
0000
0000
,
0100
0010
1000
0100
,
1000
0010
0100
0001
,
0010
0100
1000
0010
,
0100
0002
0000
0003
,
0100
0010
0100
0000
0001
0000
1000
0000
,
0010
1000
0010
0000
0100
0000
0001
0000
,
1000
0001
0100
0000
0010
0000
0100
0000
,
0001
1000
0100
0000
0010
0000
0100
0000
,
1000
0100
1000
0000
0001
0000
0100
0000
,
0010
0100
0010
0000
1000
0000
0001
0000
,
0010
0100
0010
0000
0001
0000
1000
0000
,
0100
0010
0100
0110
,
0001
1000
0010
0000
0200
0000
0000
0300
,
0010
1000
0100
0000
2000
0000
0000
3000
,
0100
1000
0001
0000
0200
0000
0000
0000
,
0000
0000
0300
0010
0100
0001
1000
0000
,
0001
1000
0001
0100
,
0001
1000
0001
0000
2000
0000
0000
3000
,
0001
0010
0100
0000
2000
0000
0000
3000
,
0010
0100
0010
0000
0200
0000
0300
0000
,
0002
0000
0010
1003
,
0020
0000
0100
1030
,
2000
0000
0001
3001
,
0000
0000
0000
0001
0100
0001
0100
0001
,
0000
0001
0100
0010
,
1000
0010
1000
0000
0200
0000
0000
0300
,
1000
0010
0100
0000
0001
0000
1000
0000
,
2002
0000
0000
3003
,
0000
0010
0100
0010
0000
0100
0000
0000
,
1000
0010
0001
0100
,
1000
0010
0001
0100
,
1000
0010
0001
0100
,
1000
0010
0001
0100
,
1000
0001
0010
0100
,
0110
0010
0001
1000
,
0100
0010
0100
0010
,
2000
0000
0000
3000
,
0001
0010
1000
0100
,
0001
0010
1000
0100
,
0001
0010
1000
0100
,
0001
0010
1000
0100
,
0010
0001
1000
0100
,
1000
0001
0100
0010
,
0100
0001
0100
0010
,
2000
0000
0000
3000
,
0010
0100
0001
0000
0001
0010
0100
0000
,
1000
0001
1000
0000
0010
0100
0010
0000
,
1000
0001
0100
0000
0001
1000
0002
0000
,
0000
0000
0003
0010
0100
1000
0010
0000
,
2000
3001
0002
1003
,
0010
0010
0010
0000
1000
1000
1000
0000
,
0001
0100
0001
0000
1000
0100
1000
0000
,
0001
1000
0100
0000
0010
0001
0100
0000
,
0001
1000
0001
1000
0000
0010
0000
0200
,
0000
0300
0000
0000
;

//---------------dance-single - ----------------
#NOTES:
     dance-single:
     :
     Hard:
     6:
     :
0000
0000
0000
0000
,
0000
0000
0000
0000
,
0000
0000
0000
0000
,
0000
0000
0000
0000
,
0000
0000
0000
0000
,
0000
0001
0000
1000
0000
0001
0000
0100
,
0000
0001
0000
1000
0000
0001
0000
0100
,
0000
0010
0000
1000
0000
0001
0000
0001
,
0000
0100
0000
0202
0000
0000
0000
0000
,
0303
0010
1000
0001
0000
1000
0000
0010
,
0000
0100
0001
0100
0000
0010
0000
0100
,
0000
0010
1000
0100
0000
1000
0000
0001
,
0000
1000
0000
0100
0010
0001
1000
0010
,
0000
0010
1000
0010
0000
0100
0000
0001
,
0000
1000
0100
1000
0000
0010
0000
0100
,
0000
0010
0100
0010
0000
1000
0000
0001
,
0000
0100
0000
0010
0000
0100
0000
1001
,
0000
0001
0100
0010
0000
0200
0000
0000
,
0310
1000
0001
0100
0000
0002
0000
0000
,
1003
0100
1000
0010
0000
0100
0000
0001
,
2000
0000
0000
3001
0010
0100
1000
0100
,
0000
0101
0000
1100
0000
0101
0000
0000
,
0010
1000
0001
1000
0000
0020
0000
0000
,
1030
0100
0010
0100
0000
2000
0000
0000
,
3001
1000
0001
1000
0000
0010
0000
0000
,
1000
0101
0010
1001
,
0100
0110
0010
1010
,
0001
1100
0010
0101
,
2000
0000
0000
3001
0010
0100
1000
0002
,
0000
0100
0000
0100
0000
0103
0000
0000
,
1000
0010
1000
0010
0000
0200
0000
0000
,
0301
0100
0010
1000
0000
0001
0000
0000
,
0202
0000
0000
0303
,
0000
0001
0100
1000
0000
0001
0000
0000
,
1001
0000
0000
0101
0000
0110
0000
0101
,
0000
0000
0000
1001
0000
0101
0000
1100
,
0000
0000
0000
0110
0000
1100
0000
0102
,
0000
0000
0000
1003
0010
0100
0001
1000
,
0000
0001
0000
1000
0000
0010
0000
0100
,
0000
0000
0000
0110
0000
1100
0000
0101
,
0000
0000
0000
0101
0000
1100
0000
2002
,
0000
0000
0000
3003
,
1000
0010
1000
0000
0010
0001
0010
0000
,
0001
0100
0001
0000
0100
1000
0100
0000
,
1000
0010
1000
0000
0001
0100
0020
0000
,
0000
0000
0000
1030
0010
0100
0001
0100
,
0000
0010
0000
0010
0000
0010
0000
0100
,
0001
0100
0001
0000
1000
0100
1000
0000
,
0010
1000
0100
0000
0010
0001
0100
0000
,
0001
0001
1000
1000
0001
0000
1000
0000
,
1001
0000
0000
0110
0000
1001
0000
0110
,
0000
0010
1000
1000
0000
0001
0100
0100
,
0000
0010
0100
0100
0000
0001
1000
1000
,
0000
0010
0000
1000
0001
0100
0010
1000
,
0000
0011
0000
1010
0000
0011
0000
1010
,
0000
1000
0010
0100
0000
0001
1000
0010
,
0000
1000
0001
1000
0000
0010
0100
0010
,
0000
1000
0001
0100
0000
0010
1000
0100
,
0000
1000
0100
0001
0000
1000
0000
0202
,
0000
0303
0000
0000
;

//---------------dance-double - ----------------
#NOTES:
     dance-double:
     :
     Beginner:
     2:
     :
00000000
00000000
00000000
00000000
,
00000000
00000000
00000000
00000000
,
00000000
00000000
00000000
00000000
,
00000000
00000000
00000000
00000000
,
00000000
00000000
00000000
00000000
,
10000000
00000000
10000000
00000000
,
00010000
00000000
00010000
00000000
,
01000000
00000000
00000000
00000000
,
00011000
00000000
00000000
00000000
,
00000000
00000100
00000000
00000001
,
00000000
00000100
00000000
00001000
,
00000000
00010000
00000000
01000000
,
00000000
10000000
00000000
00000000
,
00000000
00100000
00000000
00100000
,
00000000
01000000
00000000
01000000
,
00000000
00010000
00000000
00010000
,
00000000
00000000
00000000
00000000
,
00000010
00000000
00000000
00000000
,
00001000
00000000
00000000
00000000
,
00000001
00000000
00000000
00000000
,
00011000
00000000
00000000
00000000
,
00100000
00000000
10000000
00000000
,
00010000
00000000
10000000
00000000
,
10000000
00000000
01000000
00000000
,
00011000
00000000
00000000
00000000
,
00000010
00000000
00000001
00000000
,
00001000
00000000
00000100
00000000
,
00000001
00000000
00001000
00000000
,
00000010
00000000
00000100
00000000
,
00011000
00000000
00000000
00000000
,
00010000
00000000
00100000
00000000
,
10000000
00000000
01000000
00000000
,
00100000
00000000
00010000
00000000
,
00011000
00000000
00000000
00000000
,
00001000
00000000
00000100
00000000
,
00001001
00000000
00001000
00000000
,
00001001
00000000
00000001
00000000
,
00000110
00000000
00000010
00000000
,
00001001
00000000
00000000
00000000
,
00010000
00000000
00011000
00000000
,
00100000
00000000
01100000
00000000
,
10000000
00000000
10010000
00000000
,
10000000
00000000
01000000
00000000
,
00010000
00000000
00010000
00000000
,
00001000
00000000
00001000
00000000
,
00000010
00000000
00000001
00000000
,
00000100
00000000
00000010
00000000
,
00001000
00000000
00010000
00000000
,
00001000
00000000
00000100
00000000
,
00001000
00000000
00000000
00000000
,
00000001
00000000
00000000
00000010
,
00000000
00000110
00000000
00010000
,
00000000
00011000
00000000
00010000
,
00000000
01100000
00000000
10000000
,
00000000
01100000
00000000
00000000
,
01000000
00000000
00000000
00000000
,
00010000
00000000
00000000
00000000
,
00001000
00000000
00000000
00000000
,
00000010
00000000
00000000
00000000
;

//---------------dance-double - ----------------
#NOTES:
     dance-double:
     :
     Easy:
     3:
     :
00000000
00000000
00000000
00000000
,
00000000
00000000
00000000
00000000
,
00000000
00000000
00000000
00000000
,
00000000
00000000
00000000
00000000
,
00000000
00000000
00000000
00000000
,
10000000
00000000
10000000
00000000
,
00010000
00000000
00010000
00000000
,
01000000
00000000
00000000
00000000
,
00022000
00000000
00000000
00033000
,
00000000
00000100
00000000
00000001
,
00000000
00000100
00000000
00001000
,
00000000
00010000
00000000
01000000
,
00000000
10000000
00000000
00000000
,
00000000
00100000
00000000
00100000
,
00000000
01000000
00000000
01000000
,
00000000
00010000
00000000
00010000
,
00001000
00000000
00000000
00000000
,
00000010
00000001
00000000
00000000
,
00001000
00000001
00000000
00000000
,
00000001
00000100
00000000
00000000
,
00011000
00000000
00000000
00000000
,
00100000
00000000
10000000
00000000
,
00010000
00000000
10000000
00000000
,
10000000
00000000
01000000
00000000
,
00011000
00000000
00000000
00000000
,
00000010
00000000
00000001
00000000
,
00001000
00000000
00000100
00000000
,
00000001
00000000
00001000
00000000
,
00000010
00000000
00000100
00000000
,
00011000
00000000
00000000
00000000
,
00010000
00000000
00100000
00000000
,
10000000
00000000
01000000
00000000
,
00100000
00000000
00010000
00000000
,
00022000
00000000
00000000
00033000
,
00001000
00000000
00000100
00000001
,
00001001
00000000
00001000
00000001
,
00001001
00000000
00000001
00000100
,
00000101
00000000
00000010
00001000
,
00001010
00000000
00000000
00000000
,
00010000
00001000
00011000
00000000
,
00100000
01000000
01100000
00000000
,
10000000
00010000
10010000
00000000
,
10000000
10000000
01000000
01000000
,
00010000
00000000
00010000
00010000
,
00001000
00000000
00001000
00001000
,
00000010
00000000
00000001
00000001
,
00000100
00000000
00000010
00000010
,
00001000
00000000
00010000
00010000
,
00001000
00000000
00000100
00000100
,
00001000
00000000
00000000
00000000
,
00000001
00001001
00000000
00000010
,
00000100
00000110
00000000
00010000
,
00001000
00011000
00000000
00010000
,
01000000
01010000
00000000
10000000
,
01000000
11000000
00000000
00000000
,
02000000
00000000
00000000
00000000
00000000
03000000
00000000
00000000
,
00020000
00000000
00000000
00000000
00000000
00030000
00000000
00000000
,
00002000
00000000
00000000
00000000
00000000
00003000
00000000
00000000
,
00000020
00000000
00000000
00000000
,
00000000
00000030
00000000
00000000
;

//---------------dance-double - ----------------
#NOTES:
     dance-double:
     :
     Medium:
     5:
     :
00000000
00000000
00000000
00000000
,
00000000
00000000
00000000
00000000
,
00000000
00000000
00000000
00000000
,
00000000
00000000
00000000
00000000
,
00000000
00000000
00000000
00000000
,
00000000
10000000
00000000
10000000
00000000
00010000
00000000
00010000
,
00000000
10000000
00000000
10000000
00000000
00010000
00000000
00010000
,
00000000
01000000
00000000
00100000
00000000
01000000
00000000
00100000
,
00200000
00000000
00000000
00300000
,
10000000
00000000
10000000
01000000
,
00010000
00000000
00001000
00000100
,
00000001
00000000
00000010
00000100
,
00001000
00000000
00000000
00000001
00000010
00000100
00001000
00000001
,
00000000
00000000
00000100
00001000
,
00010000
00000000
01000000
10000000
,
00100000
00000000
10000000
00010000
,
00100000
01000000
00000000
01000000
00000000
01000000
00000000
00100000
,
10010000
00000000
00000000
01000000
00000000
01000000
00000000
11000000
,
00000000
00000000
00000000
00100000
00000000
00100000
00000000
00110000
,
00000000
00000000
00000000
10000000
00000000
00010000
00000000
10010000
,
00000000
00000000
00000000
00100000
10000000
01000000
00010000
00001000
,
00000000
00000000
00000000
00000100
00000000
00000100
00000000
00001100
,
00000000
00000000
00000000
00000010
00000000
00000010
00000000
00000011
,
00000000
00000000
00000000
00001000
00000000
00000001
00000000
00002002
,
00000000
00000000
00000000
00003003
,
00001001
00000000
00000000
00000010
00000000
00001000
00000000
00000101
,
00000000
00000000
00000000
00000010
00000000
00000001
00000000
00001100
,
00000000
00000000
00000000
00000001
00000000
00001000
00000000
00001001
,
00000000
00000000
00000000
00000010
00000001
00000100
00001000
00020000
,
00000000
00001000
00001000
00032000
,
00000000
01000000
01000000
02003000
,
00000000
00100000
00100000
03200000
,
00000000
01000000
01000000
01300000
,
00000000
00010000
10000000
00010000
00000000
00100000
00000000
00000000
,
00000000
01000000
00000000
10000000
00000000
01000000
00000000
10000000
,
00000000
00010000
00000000
01000000
00000000
00010000
00000000
01000000
,
00000000
00001000
00000000
00010000
00000000
00001000
00000000
00010000
,
00000000
00000100
00000000
00001000
00000010
00000100
00000001
00001000
,
00000000
00000001
00000000
00000100
00000000
00000001
00000000
00001000
,
00000000
00000100
00000000
00001000
00000000
00000100
00000000
00010000
,
00000000
00001000
00000000
00010000
00000000
00001000
00000000
01000000
,
00000000
00010000
00000000
10000000
00000000
01000000
00000000
00100000
,
10010000
00000000
00000000
10000000
00000000
01000000
00000000
11000000
,
00000000
00000000
00000000
00010000
00000000
01000000
00000000
01010000
,
00000000
00000000
00000000
10000000
00000000
00010000
00000000
01100000
,
00000000
00000000
00000000
00100000
10000000
01000000
00010000
00001000
,
00000000
00000000
00000000
00000100
00000000
00000001
00000000
00000101
,
00000000
00000000
00000000
00000100
00000000
00001000
00000000
00001100
,
00000000
00000000
00000000
00000001
00000000
00001000
00000000
00000220
,
00000000
00000000
00000000
00000330
,
00000001
00000100
00001000
00000100
,
00000001
00000010
00001000
00010000
,
00100000
10000000
01000000
00010000
,
01000000
00000000
00000000
10000000
00100000
01000000
00010000
10000000
,
00000000
00100000
00000000
01000000
00000000
00001000
00000000
00010000
,
00001000
00010000
00000000
00000100
00000000
00000010
00000000
00000001
,
00001000
00000001
00000000
00000100
00000000
00000010
00000000
00001000
,
00000001
00001000
00000000
00000100
00000000
00000010
00000000
00000001
,
00000100
00000010
00001000
00000100
00000000
00002000
00000000
00000002
,
00000000
00003003
00000000
00000000
;

//---------------dance-double - ----------------
#NOTES:
     dance-double:
     :
     Hard:
     6:
     :
00000000
00000000
00000000
00000000
,
00000000
00000000
00000000
00000000
,
00000000
00000000
00000000
00000000
,
00000000
00000000
00000000
00000000
,
00000000
00000000
00000000
00000000
,
00000000
10000000
00000000
01000000
00000000
10000000
00000000
01000000
,
00000000
00100000
00000000
00010000
00000000
00100000
00000000
00010000
,
00000000
01000000
00000000
00010000
00000000
01000000
00000000
00010000
,
20020000
00000000
00000000
30030000
,
10000000
01000000
00100000
00010000
00000000
01000000
00000000
00001000
,
00000000
00010000
00001000
00010000
00000000
00000100
00000000
00001000
,
00000000
00000100
00000010
00000001
00000000
00001000
00000000
00000001
,
00000000
00000000
00000000
00000001
00000010
00000100
00001000
00000001
,
00000000
00000100
00000010
00001000
00000000
00000100
00000000
00010000
,
00000000
00001000
00010000
00001000
00000000
01000000
00000000
00010000
,
00000000
01000000
00100000
10000000
00000000
00010000
00000000
10000000
,
00000000
00010000
00000000
01000000
00000000
01000000
00000000
00100000
,
10010000
00000000
00000000
01000000
00000000
00100000
00000000
10010000
,
00000000
00000000
01000000
01000000
00000000
00100000
00000000
10010000
,
00000000
00000000
00000000
01000000
00000000
00100000
00000000
10010000
,
00000000
00000000
00000000
00100000
00010000
00001000
00000010
00000001
,
00000000
00000000
00000000
00000100
00000000
00000010
00000000
00001001
,
00000000
00000000
00000000
00000100
00000000
00000010
00000000
00001001
,
00000000
00000000
00000100
00000100
00000000
00000010
00000000
00002002
,
00000000
00000000
00000000
00003003
,
00001001
00000000
00000100
00000010
00000000
00001000
00000001
00000000
,
00000110
00000000
00000001
00000100
00000000
00001000
00010000
00000000
,
00011000
00000000
00001000
00010000
00000000
01000000
10000000
00000000
,
10010000
00000000
00000000
00010000
00100000
01000000
10000000
00020000
,
00000000
10000000
10000000
20030000
,
00000000
00010000
00010000
30020000
,
00000000
01000000
01000000
20030000
,
00000000
01000000
01000000
30010000
,
00000000
01000000
00010000
10000000
00000000
00100000
00000000
00000000
,
00010000
01000000
10000000
00000000
10000000
01000000
00010000
00000000
,
00001000
00000100
00000001
00000000
00000001
00000100
00001000
00000000
,
00001000
00000010
00000001
00000000
00000001
00000010
00001000
00000000
,
00010000
00100000
10000000
00000000
10000000
00100000
00010000
00000000
,
00000000
10000000
00000000
00010000
00000000
10000000
00000000
00010000
,
00000000
01000000
00000000
00001000
00000000
01000000
00000000
00001000
,
00000000
00010000
00000000
00000100
00000000
00010000
00000000
00000100
,
00000000
00001000
00000000
00000001
00000000
00001000
00000000
00000001
,
00001001
00000000
00000000
00000001
00000000
00001000
00000000
00000110
,
00000000
00000000
00000000
00001000
00000000
00010000
00000000
00011000
,
00000000
00000000
00000000
00010000
00000000
10000000
00000000
01100000
,
00000000
00000000
00000000
00010000
00100000
01000000
10000000
00010000
,
00000000
00000000
00000000
10000000
00000000
00010000
00000000
01100000
,
00000000
00000000
00000000
00010000
00000000
00001000
00000000
00011000
,
00000000
00000000
00000000
00001000
00000000
00000001
00000000
00000110
,
00000000
00000000
00000000
00000100
00000000
00000100
00000000
00000100
,
00000001
00001000
00000001
00000000
00001000
00000100
00001000
00000000
,
00000001
00000010
00000001
00000000
00001000
00000001
00001000
00000000
,
00000010
00001000
00000001
00000000
00000100
00000001
00001000
00000000
,
00001001
00000000
00000000
00000001
00000010
00000100
00001000
00000001
,
00000000
00000010
00000000
00000100
00000000
00010000
00000000
00001000
,
00010000
00001000
00000000
01000000
00000000
00100000
00000000
10000000
,
00010000
10000000
00000000
01000000
00000000
00100000
00000000
00001000
,
00010000
00001000
00000000
01000000
00000000
00100000
00000000
10000000
,
01000000
00100000
00010000
01000000
00000000
00020000
00000000
20000000
,
00000000
30030000
00000000
00000000
;
