#TITLE:Tittle Tattle;
#ARTIST:ZONK;
#BANNER:Tittle Tattle.png;
#BACKGROUND:Tittle Tattle-bg.png;
#CDTITLE:./CDTITLES/DANCE DANCE REVOLUTION ULTRAMIX 2.PNG;
#MUSIC:Tittle Tattle.ogg;
#SAMPLESTART:48.258;
#SAMPLELENGTH:15;
#DISPLAYBPM:184;
#BPMS:0=184,228=183.29,268=185.56;

//---------------dance-single - ----------------
#NOTES:
     dance-single:
     :
     Beginner:
     1:
     :
0000
0000
0000
0000
,
0000
0000
0000
0000
,
0000
0000
0000
0000
,
0000
0000
0000
0000
,
0000
0000
0000
0000
,
0000
0000
0000
0000
,
0000
0000
0000
0000
,
0000
0000
0000
0000
,
0000
0000
0000
0000
,
1000
0000
0000
0000
,
0100
0000
0000
0000
,
0001
0000
0000
0000
,
0010
0000
0000
0000
,
1000
0000
0000
0000
,
0100
0000
0000
0000
,
0010
0000
0000
0000
,
0010
0000
0000
0000
,
0001
0000
0000
0000
,
0100
0000
0000
0000
,
0001
0000
0000
0000
,
0001
0000
0000
0000
,
0100
0000
0000
0000
,
1000
0000
0000
0000
,
0100
0000
0000
0000
,
1000
0000
0000
0000
,
0100
0000
0100
0000
,
0100
0000
0000
0000
,
0010
0000
0000
0000
,
1000
0000
0000
0000
,
1000
0000
0000
0000
,
1000
0000
0000
0000
,
1000
0000
0000
0000
,
1000
0000
0000
0000
,
0100
0000
0000
0000
,
0100
0000
0000
0000
,
1000
0000
0000
0000
,
1000
0000
0000
0000
,
0100
0000
0000
0010
,
0000
0000
0001
0000
,
0000
0000
0010
0000
,
0000
0000
0100
0000
,
0000
0000
0001
0000
,
0000
0000
0001
0000
,
0000
0000
1000
0000
,
0000
0000
0010
0000
,
0000
0001
0000
0000
,
0001
0000
0000
0000
,
0001
0000
0000
0000
,
0100
0000
0000
0000
,
1000
0000
0000
0000
,
1000
0000
0000
0000
,
1000
0000
0000
0000
,
0100
0000
0000
0000
,
0010
0000
0000
0000
,
1000
0000
0000
0000
,
0010
0000
0000
0000
,
1000
0000
0000
0000
,
1000
0000
0000
0000
,
0001
0000
0000
0000
,
0010
0000
0000
0000
,
1000
0000
0000
0000
,
1000
0000
0000
0000
,
0001
0000
0000
0000
,
0100
0000
0000
0000
,
0000
0000
0000
0000
,
0010
0000
0000
0000
,
0001
0000
0000
0000
,
0010
0000
0000
0000
,
0001
0000
0000
0000
,
0001
0000
0000
0000
,
0010
0000
0000
0000
,
0001
0000
0000
0000
,
0001
0000
0000
0000
,
0010
0000
0000
0000
,
0010
0000
0000
0000
,
0001
0000
0000
0000
,
0001
0000
0000
0000
;

//---------------dance-single - ----------------
#NOTES:
     dance-single:
     :
     Easy:
     3:
     :
0000
0000
0000
0000
,
0000
0000
0000
0000
,
0000
0000
0000
0000
,
0000
0000
0000
0000
,
0000
0000
0000
0000
,
0000
0000
0000
0000
,
0000
0000
0000
0000
,
0000
0000
0000
0000
,
0000
0000
0000
0000
,
1000
0000
0001
0000
,
0100
0000
0100
0000
,
0001
0000
1000
0000
,
0010
0000
0010
0000
,
1000
0000
0001
0000
,
0100
0000
0100
0000
,
0010
0000
1000
0000
,
0010
0000
1000
0000
,
0001
0000
1000
0000
,
0100
0000
0100
0000
,
0001
0000
1000
0000
,
0001
0000
0001
0000
,
0100
0000
0010
0000
,
1000
0000
0001
0000
,
0100
0000
0010
0000
,
1000
0000
1000
0000
,
0100
0100
0100
0000
,
0100
0000
0100
0000
,
0010
0010
0010
0000
,
1000
0000
0001
0000
,
1000
1000
0001
0000
,
1000
1000
0010
0000
,
1000
0000
0001
0000
,
1000
0001
1000
0000
,
0100
0000
0001
0000
,
0100
0000
0001
0000
,
1000
0000
0010
0000
,
1000
0000
0001
0000
,
0100
0000
0010
0010
,
1000
0000
0001
0000
,
1000
0000
0010
0000
,
1000
0000
0100
0000
,
1000
0000
0001
0000
,
0010
0000
0001
0000
,
0001
0000
1000
0000
,
0100
0000
0010
0000
,
0001
0001
1001
0000
,
0001
0001
0011
0000
,
0001
0001
0101
0000
,
0100
0100
0110
0000
,
1000
0000
0001
0000
,
1000
0000
0010
0000
,
1000
0000
0001
0000
,
0100
0000
0010
0000
,
0010
0000
0010
0000
,
1000
0000
0100
0000
,
0010
0000
0010
0000
,
1000
0000
0100
0000
,
1000
1000
1000
0000
,
0001
0000
0100
0000
,
0010
0010
0010
0000
,
1000
0000
0010
0000
,
1000
0000
0000
0000
,
0001
0000
0000
0000
,
0100
0000
0000
0000
,
0000
0000
0000
0000
,
0010
0000
1000
0000
,
0001
0000
1000
0000
,
0010
0000
1000
0000
,
0001
0000
0100
0000
,
0001
0000
1000
0000
,
0010
0000
1000
0000
,
0001
0000
0100
0000
,
0001
0000
1000
0000
,
0010
0010
1000
0000
,
0010
0010
0100
0000
,
0001
0000
1000
0000
,
0001
0000
1000
0000
;

//---------------dance-single - ----------------
#NOTES:
     dance-single:
     :
     Medium:
     5:
     :
0000
0000
0000
0000
,
0000
0000
0000
0000
,
0000
0000
0000
0000
,
0000
0000
0000
0000
,
0000
0000
0000
0000
,
0000
0000
0000
0000
,
0000
0000
0000
0000
,
0000
0000
0000
0000
,
0000
0000
0000
0000
,
0002
0000
1000
0003
,
0100
0000
0220
0330
,
0100
0010
1000
1000
,
2002
0000
0000
0000
,
3003
0100
0001
0001
,
1000
0020
0000
0030
,
0010
1000
0001
1000
,
0010
2000
0000
3000
,
0020
0000
0000
0030
,
1001
0000
0210
0000
,
0300
0010
0100
0001
,
1000
0100
0000
0100
,
1000
0001
1000
0100
,
1000
0001
0000
0001
,
0000
1000
0001
0010
,
0100
0200
0000
0300
,
0000
0000
0010
0010
,
0000
0001
1000
0010
,
0000
0001
1000
0002
,
0000
0000
0003
0010
,
0010
0000
1000
0000
,
0010
0000
0100
0000
,
0000
0010
0100
0100
,
0001
1000
0000
0000
,
0101
0100
1000
0100
,
1000
0100
0000
0000
,
0001
0100
0010
0100
,
0010
0100
0000
0000
,
0100
0100
0100
0110
,
2000
3000
0002
0000
,
0003
0010
1000
0010
,
0000
1000
0000
0100
,
0000
1000
0001
0000
,
0010
0100
0000
0000
,
0000
0010
0001
1000
,
0001
0010
0000
0000
,
0010
0100
0001
0001
,
1000
0010
0010
1000
,
0001
0100
0010
1000
,
0100
0100
0010
1000
,
0002
1003
0020
0130
,
0002
0013
0200
1300
,
2000
3001
0200
0310
,
0110
0110
1001
0110
,
0000
0010
0010
0000
,
0100
0000
0010
0000
0000
1000
0000
0100
,
0000
0010
0001
0000
,
0010
0000
0100
0000
0000
1000
0000
1000
,
0000
0000
0010
0100
,
0002
0000
0000
0003
,
0000
0010
0010
0002
,
1000
1000
0100
1003
,
0010
0000
0001
0000
,
0010
0000
1000
0000
,
0220
0000
0000
0000
,
0000
0000
0000
0330
,
0000
0010
0010
0000
,
1000
0100
0000
0000
,
0000
1000
1000
0000
,
0001
1000
0000
0000
,
0000
0100
0001
0000
,
0010
0100
0000
0000
,
0000
0001
0100
0000
,
0010
1000
0000
0000
,
0000
1000
0001
0000
,
0001
0100
0000
0000
,
0000
0001
0010
0100
1000
0010
0000
0000
,
1001
1001
0000
0000
;

//---------------dance-single - ----------------
#NOTES:
     dance-single:
     :
     Hard:
     8:
     :
0000
0000
0000
0000
,
0000
0000
0000
0000
,
0000
0000
0000
0000
,
0000
0000
0000
0000
,
0000
0000
0000
0000
,
0000
0000
0000
0000
,
0000
0000
0000
0000
,
0000
0000
0000
0000
,
0000
0000
0000
0000
,
0020
0000
0000
0130
,
0002
0000
0200
0000
,
0303
0010
0100
0001
,
2000
0000
0000
3000
,
0010
0100
0001
1000
,
0002
0000
0000
0003
,
1000
0010
1000
0001
,
0200
0000
0010
0310
,
0220
0300
1000
1030
,
2002
0003
0200
0000
,
3300
0000
0010
1000
0100
0000
1000
0000
,
0001
0000
0100
0020
0000
0000
0130
0000
,
0001
1000
0001
0100
,
0001
0000
1000
0200
0000
0000
1300
0000
,
0000
1001
1001
0101
,
0100
0210
0000
0300
,
2002
0000
0000
0000
3003
0000
0000
0000
0010
0000
0100
0000
0010
0000
0000
1000
,
0000
0000
0000
0100
0000
0000
1000
0000
0000
0002
0000
0000
0000
0000
0000
0000
,
0003
0000
1000
0000
0001
0000
1000
0200
,
0000
0000
0000
0300
,
0010
2000
0000
0000
3001
0000
0000
0000
,
0010
0000
0000
0002
0000
0000
0000
0000
0103
0000
0000
0000
0000
0000
0000
0000
,
0000
0000
0000
0000
0010
0000
0000
1000
0100
0000
0000
1000
0100
0000
0000
0000
,
1000
0000
0001
0200
0000
0000
0300
0000
,
1100
0000
0000
0001
0100
0000
0000
0100
0001
0000
0000
0001
0100
0000
0000
0100
,
0001
0000
0000
0001
0100
0000
0010
0000
0000
0000
1000
0000
0000
0000
0000
0000
,
1000
0000
0000
0010
0100
0000
0000
0100
0010
0000
0000
0010
0100
0000
0000
0100
,
0010
0000
0000
0010
0100
0000
0001
0000
0000
0000
1000
0000
0000
0000
0000
0000
,
0100
0100
0100
0110
,
0202
0303
2200
0000
,
3300
0000
0010
0000
0001
0000
0010
0100
,
0000
1000
0000
2000
0000
0000
3100
0000
,
0000
0011
1010
0000
,
0010
0000
0100
0002
0000
0000
0000
0000
,
0003
0100
0010
0000
1000
0000
0001
0000
,
1000
0000
0010
0200
0000
0000
0300
0000
,
1001
0000
0000
0000
0100
0000
0000
0010
1000
0000
0000
0000
1000
0000
0000
0000
,
1001
0000
0000
0100
0010
0000
0000
0100
0010
0000
0000
0000
0001
0000
0000
0000
,
1001
0000
0000
0010
0100
0000
0000
0100
0010
0000
0000
1000
0001
0000
0000
0001
,
0100
0100
0010
0100
,
1000
0101
0010
0101
,
1000
0110
0001
0110
,
1100
0000
0000
0001
0100
0000
0000
0100
0001
0000
0000
0001
0100
0000
0000
0000
,
0110
0110
1001
0110
,
0000
1000
0010
0100
0010
1000
0000
0001
,
0100
0010
0100
0000
0010
0000
0000
0200
0000
0000
0000
0000
0000
0300
0000
0000
,
0000
0001
0010
0100
1000
0010
0000
0100
,
0010
1000
0010
0000
0100
0000
0000
0002
0000
0000
0000
0000
0000
0000
0000
0000
,
0000
0000
0000
0000
0003
0000
0000
0000
0010
0000
1000
0000
0100
0000
0000
1000
,
0000
0000
0000
0001
0000
0000
0100
0000
0000
0002
0000
0000
0000
0000
0000
0000
,
0003
0000
0010
0000
0010
0000
1000
0200
,
0000
0000
0000
0300
,
0010
0001
0000
0000
1000
0000
0000
0000
,
0010
0000
0000
0100
0000
0000
0000
0000
0001
0000
0000
0000
0000
0000
0000
0000
,
0000
2002
0000
0000
,
0000
0000
0000
3003
,
0000
1000
0010
1000
0010
1000
0000
0100
,
0001
0100
0001
0000
0100
0000
0000
1100
0000
0000
0000
0000
0000
0000
0000
0000
,
0000
1000
0001
1000
0001
1000
0000
0001
,
1000
0100
1000
0000
0001
0000
0000
0200
0000
0000
0000
0000
0300
0000
0000
0000
,
0000
0001
0100
0001
0100
0001
0000
0010
,
1000
0010
1000
0000
0010
0000
0000
1010
0000
0000
0000
0000
0000
0000
1000
0000
,
0001
0001
1000
0001
1000
0001
0000
1000
,
0001
0010
0001
0000
1000
0000
0000
0020
0000
0000
0000
0000
0030
0000
0000
0010
,
0000
0001
0100
0001
1000
0100
0000
1000
,
0010
0100
0010
0000
0100
0000
0000
0101
0000
0000
0000
0000
0010
0000
0000
0000
,
0000
1000
0010
1000
0010
0100
0000
0001
,
1000
0100
1000
0000
0001
0000
0000
0220
0000
0000
0000
0000
0330
0000
0000
0000
;

//---------------dance-double - ----------------
#NOTES:
     dance-double:
     :
     Beginner:
     1:
     :
00000000
00000000
00000000
00000000
,
00000000
00000000
00000000
00000000
,
00000000
00000000
00000000
00000000
,
00000000
00000000
00000000
00000000
,
00000000
00000000
00000000
00000000
,
00000000
00000000
00000000
00000000
,
00000000
00000000
00000000
00000000
,
00000000
00000000
00000000
00000000
,
00000000
00000000
00000000
00000000
,
10000000
00000000
00000000
00000000
,
01000000
00000000
00000000
00000000
,
00010000
00000000
00000000
00000000
,
00000001
00000000
00000000
00000000
,
00000010
00000000
00000000
00000000
,
00000001
00000000
00000000
00000000
,
00000100
00000000
00000000
00000000
,
00000100
00000000
00000000
00000000
,
00000010
00000000
00000000
00000000
,
00001000
00000000
00000000
00000000
,
00001000
00000000
00000000
00000000
,
00010000
00000000
00000000
00000000
,
00100000
00000000
00000000
00000000
,
00100000
00000000
00000000
00000000
,
00010000
00000000
00000000
00000000
,
00000001
00000000
00000000
00000000
,
00000010
00000000
00000000
00000000
,
00001000
00000000
00000000
00000000
,
00000010
00000000
00000000
00000000
,
00000010
00000000
00000000
00000000
,
00000001
00000000
00000000
00000000
,
00001000
00000000
00000000
00000000
,
00001000
00000000
00000000
00000000
,
00000001
00000000
00000000
00000000
,
00000010
00000000
00000000
00000000
,
00000100
00000000
00000000
00000000
,
00000010
00000000
00000000
00000000
,
00000010
00000000
00000000
00000000
,
00000001
00000000
00000000
00000000
,
00010000
00000000
00000000
00000000
,
00100000
00000000
00000000
00000000
,
01000000
00000000
00000000
00000000
,
00010000
00000000
00000000
00000000
,
10000000
00000000
00000000
00000000
,
00010000
00000000
00000000
00000000
,
10000000
00000000
00000000
00000000
,
00010000
00000000
00000000
00000000
,
00000100
00000000
00000000
00000000
,
00010000
00000000
00000000
00000000
,
10000000
00000000
00000000
00000000
,
10000000
00000000
00000000
00000000
,
00010000
00000000
00000000
00000000
,
00000100
00000000
00000000
00000000
,
00000010
00000000
00000000
00000000
,
00010000
00000000
00000000
00000000
,
00001000
00000000
00000000
00000000
,
00010000
00000000
00000000
00000000
,
00001000
00000000
00000000
00000000
,
00011000
00000000
00000000
00000000
,
00011000
00000000
00000000
00000000
,
00010000
00000000
00000000
00000000
,
10000000
00000000
00000000
00000000
,
10000000
00000000
00000000
00000000
,
00010000
00000000
00000000
00000000
,
00010000
00000000
00000000
00000000
,
10000000
00000000
00000000
01000000
,
00000000
00000000
00000000
00100000
,
00000000
00000000
00000000
01000000
,
00000000
00000000
00000000
00000000
,
00000000
00100000
00000000
00000000
,
00000000
10000000
00000000
00000000
,
00000000
00001000
00000000
00000000
,
00000000
00001000
00000000
00000000
,
00000000
10000000
00000000
00000000
,
01000000
00000000
00000000
00000000
,
00000100
00000000
00000000
00000000
,
00010000
00000000
00000000
00000000
,
00001000
00000000
00000000
00000000
;

//---------------dance-double - ----------------
#NOTES:
     dance-double:
     :
     Easy:
     3:
     :
00000000
00000000
00000000
00000000
,
00000000
00000000
00000000
00000000
,
00000000
00000000
00000000
00000000
,
00000000
00000000
00000000
00000000
,
00000000
00000000
00000000
00000000
,
00000000
00000000
00000000
00000000
,
00000000
00000000
00000000
00000000
,
00000000
00000000
00000000
00000000
,
00000000
00000000
00000000
00000000
,
10000000
00000000
00010000
00000000
,
01000000
00000000
10000000
00000000
,
00010000
00000000
00001000
00000000
,
00000001
00000000
00001000
00000000
,
00000010
00000000
00000010
00000000
,
00000001
00000000
00001000
00000000
,
00000100
00000000
00000001
00000000
,
00000100
00000000
00001000
00000000
,
00000010
00000000
00010000
00000000
,
00001000
00000000
00010000
00000000
,
00001000
00000000
00100000
00000000
,
00010000
00000000
10000000
00000000
,
00100000
00000000
00010000
00000000
,
00100000
00000000
10000000
00000000
,
00010000
00000000
00001000
00000000
,
00000001
00000000
00001000
00000000
,
00000010
00000000
00000100
00000000
,
00001000
00000000
00000001
00000000
,
00000010
00000000
00000001
00000000
,
00000010
00000000
00001000
00000000
,
00000001
00000000
00000010
00000000
,
00001000
00000000
00000100
00000000
,
00001000
00000000
00000010
00000000
,
00000001
00000000
00000100
00000000
,
00000010
00000000
00000010
00000000
,
00000100
00000000
00000100
00000000
,
00000010
00000000
00000100
00000000
,
00000010
00000000
00000100
00000000
,
00000001
00000000
00001000
00000000
,
00010000
00000000
10000000
00000000
,
00100000
00000000
00010000
00000000
,
01000000
00000000
10000000
00000000
,
00010000
00000000
00010000
00000000
,
10000000
00000000
10000000
00000000
,
00010000
00000000
01000000
00000000
,
10000000
00000000
01000000
00000000
,
00010000
00000000
00001000
00000000
,
00000100
00000000
00001000
00000000
,
00010000
00000000
01000000
00000000
,
10000000
00000000
00100000
00000000
,
10000000
00000000
01000000
00000000
,
00010000
00000000
00001000
00000000
,
00000100
00000000
00000001
00000000
,
00000010
00000000
00001000
00000000
,
00010000
00000000
00000100
00000000
,
00001000
00000000
01000000
00000000
,
00010000
00000000
00000010
00000000
,
00001000
00000000
00100000
00000000
,
00011000
00000000
00010000
00000000
,
00011000
00000000
00001000
00000000
,
00010000
00000000
00100000
00000000
,
10000000
00000000
00010000
00000000
,
10000000
00000000
00100000
00000000
,
00010000
00000000
01000000
00000000
,
00010000
00000000
00100000
00000000
,
10000000
00000000
00000000
01000000
,
00000000
00100000
00000000
00100000
,
00000000
01000000
00000000
01000000
,
00000000
00100000
00000000
00000000
,
00000000
00100000
00000000
00000000
,
00000000
10000000
00000000
00010000
,
00000000
00001000
00000000
00000001
,
00000000
00001000
00000000
00010000
,
00000000
10000000
00000000
00000000
,
01000000
00000000
00000000
00000000
,
00000100
00000000
00000000
00000000
,
00010000
00000000
00000000
00000000
,
00001000
00000000
00011000
00000000
;

//---------------dance-double - ----------------
#NOTES:
     dance-double:
     :
     Medium:
     6:
     :
00000000
00000000
00000000
00000000
,
00000000
00000000
00000000
00000000
,
00000000
00000000
00000000
00000000
,
00000000
00000000
00000000
00000000
,
00000000
00000000
00000000
00000000
,
00000000
00000000
00000000
00000000
,
00000000
00000000
00000000
00000000
,
00000000
00000000
00000000
00000000
,
00000000
00000000
00000000
00000000
,
10000000
00000000
00000000
10000000
00010000
00000000
00000000
00010000
,
10000000
01000000
01000000
00000000
,
00100000
00000000
00000000
00100000
01000000
00000000
00000000
01000000
,
00100000
00010000
00010000
00000000
,
00001000
00000000
00000000
00010000
00001000
00000000
00000000
00001000
,
00010000
00001000
00010000
00000000
,
00001000
00000000
00000000
00010000
00001000
00000000
00000000
00001000
,
00010000
01000000
10000000
00000000
,
20020000
00030000
01000000
31000000
,
00100000
00000000
10010000
00000000
,
00000000
10000000
01000000
10000000
,
00100000
00000000
01000000
00020000
00000000
00000000
00030000
00000000
,
00000000
10000000
01000000
00010000
,
00001000
00000000
00000100
00000002
00000000
00000000
00000003
00000000
,
00000000
00001000
00000010
00000100
,
00000001
00000000
00001000
00000001
00000000
00000000
00000000
00000000
,
00000100
00000000
00000000
00000000
00000000
00000000
00000000
00000000
00000010
00000000
00001000
00000000
00000010
00000000
00000000
00001000
,
00000000
00000000
00000000
00000100
00000000
00000000
00001000
00000000
00000000
00000001
00000000
00000000
00000000
00000000
00000000
00000000
,
00000000
00000000
00000001
00000000
00000010
00000000
00001000
00020000
,
00000000
00000000
00000000
00030000
,
00100000
10000000
00000000
00000000
10010000
00000000
00000000
00000000
,
00100000
00010000
00000000
00000000
10000000
00010000
00000000
00000000
,
00000000
00000000
00000000
00000000
00100000
00000000
00000000
00010000
10000000
00000000
00000000
00010000
10000000
00000000
00000000
00000000
,
01000000
00000000
10000000
00020000
00000000
00000000
00030000
00000000
,
10000000
01000000
00100000
00010000
,
10000000
01000000
00100000
00010000
00000000
10000000
00000000
00000000
,
00010000
01000000
00100000
10000000
,
00010000
01000000
00100000
10000000
00000000
00010000
00000000
00000000
,
00100000
00100000
01000000
01000000
,
11000000
00000000
01010000
00000000
,
10000000
00010000
01000000
00001000
,
00010000
00000100
00001000
00000000
,
00000001
00001000
00000100
00010000
,
00001000
01000000
00010000
00000000
,
10000000
00010000
10000000
00010000
,
00100000
01000000
10000000
00000000
,
10010000
00000000
00100000
01000000
00100000
00000000
10010000
00000000
,
11000000
00000000
01000000
00100000
01000000
00000000
01010000
00000000
,
10000000
00100000
00010000
00001000
,
00000010
00000001
00001001
00000000
,
00001000
00001100
00000001
00000101
,
00001000
00001010
00000001
00000011
,
00000000
00000001
00000010
00001000
,
00010000
00100000
10000000
00000000
,
00000000
00100000
00000000
01000000
00000000
00010000
00000000
00100000
,
00000000
01000000
00000000
10000000
10010000
00000000
00000000
00000000
,
00000000
01000000
00000000
00100000
00000000
00010000
00000000
01000000
,
00000000
00100000
00000000
10000000
10010000
00000000
00000000
00000000
,
00100000
00000000
00000000
00000000
00000000
00000000
00000000
00000000
01000000
00000000
00010000
00000000
01000000
00000000
00000000
00010000
,
00000000
00000000
00000000
00100000
00000000
00000000
00010000
00000000
00000000
10000000
00000000
00000000
00000000
00000000
00000000
00000000
,
00000000
00000000
10000000
00000000
01000000
00000000
00010000
00002000
,
00000000
00000000
00000000
00003000
,
00000100
00000001
00000000
00000000
00001001
00000000
00000000
00000000
,
00000100
00001000
00000000
00000000
00000001
00001000
00000000
00000000
,
00000000
00000000
00000000
00000000
00000100
00000000
00000000
00001000
00000001
00000000
00000000
00001000
00000001
00000000
00000000
00000000
,
00000010
00000000
00000001
00002000
00000000
00000000
00003000
00000000
,
00000000
00000001
00000100
00000001
00000100
00000001
00000000
00001000
,
00000001
00000000
00001000
00000000
00000001
00000000
00000000
00002002
00000000
00000000
00000000
00000000
00003003
00000000
00000000
00000000
,
00000000
00001000
00000100
00001000
00000100
00001000
00000000
00000100
,
00010000
00000000
00001000
00000000
00010000
00000000
00000000
00022000
00000000
00000000
00000000
00000000
00033000
00000000
00000000
00000000
,
00000000
00010000
01000000
00010000
01000000
00010000
00000000
10000000
,
00010000
00000000
10000000
00000000
00010000
00000000
00000000
20020000
00000000
00000000
00000000
00000000
30030000
00000000
00000000
00000000
,
00000000
10000000
01000000
00010000
00001000
00010000
00000000
00001000
,
00010000
00000000
00001000
00000000
00010000
00000000
00000000
00022000
00000000
00000000
00000000
00000000
00033000
00000000
00000000
00000000
,
00000000
00010000
01000000
10000000
01000000
00010000
00000000
00001000
,
00010000
00000000
00001000
00000000
00010000
00000000
00000000
00022000
00000000
00000000
00000000
00000000
00033000
00000000
00000000
00000000
,
00000000
00001000
00000100
00000001
00000100
00001000
00000000
00010000
,
00001000
00000000
00010000
00000000
00001000
00000000
00000000
00022000
00000000
00000000
00000000
00000000
00033000
00000000
00000000
00000000
;

//---------------dance-double - ----------------
#NOTES:
     dance-double:
     :
     Hard:
     8:
     :
00000000
00000000
00000000
00000000
,
00000000
00000000
00000000
00000000
,
00000000
00000000
00000000
00000000
,
00000000
00000000
00000000
00000000
,
00000000
00000000
00000000
00000000
,
00000000
00000000
00000000
00000000
,
00000000
00000000
00000000
00000000
,
00000000
00000000
00000000
00000000
,
00000000
00000000
00000000
00000000
,
00001000
00000000
00000000
00010000
00001000
00000000
00000000
00010000
,
00001000
01000000
01010000
00000000
,
00100000
00000000
00000000
01000000
00100000
00000000
00000000
01000000
,
00100000
10000000
11000000
00000000
,
10000000
00000000
00000000
01000000
00010000
00000000
00000000
01000000
,
00010000
00001000
00011000
00000000
,
00010000
00000000
00000000
00001000
00000100
00000000
00000000
00001000
,
00000100
00000001
00001001
00000000
,
00002002
00003000
00000100
00000103
,
00002020
00000030
00000200
00003300
,
00000000
00010000
00001000
00010000
,
00000100
00000000
00001000
00000020
00000000
00000000
00000030
00000000
,
00000000
00010000
01000000
10000000
,
00100000
00000000
01000000
00020000
00000000
00000000
00030000
00000000
,
00000000
10100000
10010000
01010000
,
00110000
00000000
02000000
20000000
00000000
00000000
33000000
00000000
,
10010000
00000000
00000000
00000000
00000000
00000000
00000000
00000000
00100000
00000000
01000000
00000000
00010000
00000000
00000000
10000000
,
00000000
00000000
00000000
01000000
00000000
00000000
00010000
00000000
00000000
00002000
00000000
00000000
00000000
00000000
00000000
00000000
,
00003000
00000000
00000100
00000000
00000001
00000000
00001000
00000200
,
00000000
00000000
00000000
00000300
,
00000010
00002000
00000000
00000000
00000002
00000000
00003003
00000000
,
00000010
00000002
00000000
00000000
00002000
00000000
00003003
00000000
,
00000000
00000000
00000000
00000000
00000010
00000000
00000000
00000001
00001000
00000000
00000000
00000001
00001000
00000000
00000000
00000000
,
00000100
00000000
00010000
00002000
00000000
00000000
00003000
00000000
,
00100000
00010000
10000000
01000000
10000000
00010000
00100000
00010000
,
00100000
01000000
10000000
01000000
00100000
00110000
00000000
00000000
,
00100000
10000000
00010000
01000000
00010000
10000000
00100000
10000000
,
00100000
01000000
00010000
01000000
00100000
10100000
00000000
00000000
,
10000000
10000000
00010000
00010000
,
22000000
33000000
02020000
00000000
,
03030000
00000000
00100000
00000000
00001000
00000000
00010000
00001000
,
00000000
00000100
00000000
00000002
00000000
00000000
00000003
00000000
,
00000000
00000011
00001100
00000000
,
00000010
00000000
00000100
00020000
00000000
00000000
00000000
00000000
,
00030000
00001000
00000100
00000000
00000001
00000000
00001000
00000000
,
00000100
00000000
00000010
00000200
00000000
00000000
00000300
00000000
,
00001001
00000000
00000000
00000001
00000100
00000000
00000000
00000010
00001000
00000000
00000000
00000000
00001000
00000000
00000000
00000000
,
00000101
00000000
00000000
00001000
00000100
00000000
00000000
00000001
00000100
00000000
00000000
00000000
00001000
00000000
00000000
00000000
,
00011000
00000000
00000000
00010000
00001000
00000000
00000000
00001000
00010000
00000000
00000000
00010000
00001000
00000000
00000000
00001000
,
00010000
01000000
10000000
01000000
,
00100000
11000000
00100000
01010000
,
10000000
01100000
00010000
01100000
,
10010000
00000000
00000000
10000000
01000000
00000000
00000000
01000000
00100000
00000000
00000000
00100000
00010000
00000000
00000000
00000000
,
11000000
00110000
10100000
01010000
,
00000000
01000000
00010000
00001000
00000100
00000001
00000000
00001000
,
00001000
00000000
00000001
00000000
00000001
00000000
00000000
00000200
00000000
00000000
00000000
00000000
00000300
00000000
00000000
00000000
,
00000000
00000100
00001000
00010000
01000000
10000000
00000000
00010000
,
00010000
00000000
10000000
00000000
10000000
00000000
00000000
02000000
00000000
00000000
00000000
00000000
00000000
00000000
00000000
00000000
,
00000000
00000000
00000000
00000000
03000000
00000000
00000000
00000000
10000000
00000000
00010000
00000000
01000000
00000000
00000000
10000000
,
00000000
00000000
00000000
01000000
00000000
00000000
00001000
00000000
00000000
00020000
00000000
00000000
00000000
00000000
00000000
00000000
,
00030000
00000000
00001000
00000000
00001000
00000000
00010000
00002000
,
00000000
00000000
00000000
00003000
,
00000100
00000020
00000000
00000000
00000200
00000000
00000330
00000000
,
00000001
00000000
00000000
00002000
00000000
00000000
00000000
00000000
00000002
00000000
00000000
00000000
00003003
00000000
00000000
00000000
,
00000000
00002002
00000000
00000000
,
00000000
00000000
00000000
00003003
,
00000000
00000001
00000100
00000001
00001000
00000100
00000000
00020000
,
00000000
00001000
00000000
00000000
00001000
00000000
00000000
00031000
00000000
00000000
00000000
00000000
00000000
00000000
00000000
00000000
,
00000000
01000000
10000000
00010000
01000000
00100000
00000000
20000000
,
00000000
01000000
00000000
00000000
01000000
00000000
00000000
31000000
00000000
00000000
00000000
00000000
00000000
00000000
00000000
00000000
,
00000000
10000000
01000000
00010000
00001000
00001000
00000000
00020000
,
00000000
00001000
00000000
00000000
00001000
00000000
00000000
00031000
00000000
00000000
00000000
00000000
00000000
00000000
00000000
00000000
,
00000000
00000100
00001000
00000001
00000100
00000010
00000000
00002000
,
00000000
00000100
00000000
00000000
00000100
00000000
00000000
00003100
00000000
00000000
00000000
00000000
00000000
00000000
00000000
00000000
,
00000000
00100000
00001000
00010000
00001000
01000000
00000000
00200000
,
00000000
10000000
00000000
00000000
10000000
00000000
00000000
10300000
00000000
00000000
00000000
00000000
00000000
00000000
00000000
00000000
,
00000000
01000000
00010000
00001000
00010000
01000000
00000000
00010000
,
00001000
00010000
00001000
00000000
00010000
00000000
00000000
00022000
00000000
00000000
00000000
00000000
00033000
00000000
00000000
00000000
;
