#TITLE:Superstar (Nevarakka Mix);
#ARTIST:Daybehavior;
#BANNER:Superstar (Nevarakka Mix).png;
#BACKGROUND:Superstar (Nevarakka Mix)-bg.png;
#MUSIC:Superstar (Nevarakka Mix).ogg;
#SAMPLESTART:63.548;
#SAMPLELENGTH:15;
#DISPLAYBPM:138;
#BPMS:0=138.004;
#BGCHANGES:1=Superstar (Nevarakka Mix).avi=1=1=0=0,288=Superstar (Nevarakka)-bg.png=1=0=0=1;

//---------------dance-single - ----------------
#NOTES:
     dance-single:
     :
     Beginner:
     2:
     :
0000
0000
0000
0000
,
0000
0000
0000
0000
,
0000
0000
0000
0000
,
0000
0000
0000
0000
,
0000
0000
0000
0000
,
0010
0000
0001
0000
,
0010
0000
1000
0000
,
0010
0000
0001
0000
,
0100
0000
1000
0000
,
0100
0000
1000
0000
,
1001
0000
0001
0000
,
1001
0000
0010
0000
,
0110
0000
0100
0000
,
0110
0000
0001
0000
,
0110
0000
1000
0000
,
0110
0000
1000
0000
,
0110
0000
0001
0000
,
0110
0000
1000
0000
,
1000
0000
1000
0000
,
1000
0000
1000
0000
,
0100
0000
0000
0000
,
0010
0000
0010
0000
,
0100
0000
0100
0000
,
0001
0000
0001
0000
,
1000
0000
1000
0000
,
0001
0000
0001
0000
,
0001
0000
0001
0000
,
0010
0000
0010
0000
,
0100
0000
0100
0000
,
0001
0000
0001
0000
,
1000
0000
1000
0000
,
0001
0000
0001
0000
,
1000
0000
1000
0000
,
0001
0000
0001
0000
,
1000
0000
1000
0000
,
0010
0000
0010
0000
,
0100
0000
0100
0000
,
0010
0000
0010
0000
,
1000
0000
1000
0000
,
1000
0000
1000
0000
,
0100
0000
0100
0000
,
0010
0000
0010
0000
,
0010
0000
0010
0000
,
0100
0000
0100
0000
,
1000
0000
0001
0000
,
1000
0000
1000
0000
,
0010
0000
1000
0000
,
1000
0000
0100
0000
,
1000
0000
1000
0000
,
0001
0000
0001
0000
,
0010
0000
0001
0000
,
0001
0000
0100
0000
,
0001
0000
0001
0000
,
1001
0000
0000
0000
,
0000
0000
0010
0000
,
0100
0000
0100
0000
,
0001
0000
0001
0000
,
0001
0000
0001
0000
,
0010
0000
0010
0000
,
0100
0000
0100
0000
,
0100
0000
0100
0000
,
0010
0000
0010
0000
,
0001
0000
1000
0000
,
0010
0000
0010
0000
,
1000
0000
1000
0000
,
1000
0000
1000
0000
,
0100
0000
0100
0000
,
0010
0000
0010
0000
,
0010
0000
0010
0000
,
0100
0000
0100
0000
,
1000
0000
0001
0000
,
1001
0000
0000
0000
;

//---------------dance-single - ----------------
#NOTES:
     dance-single:
     :
     Easy:
     3:
     :
0000
0000
0000
0000
,
0000
0000
0000
0000
,
0000
0000
0000
0000
,
0000
0000
0000
0000
,
0000
0000
0000
0000
,
0010
0000
0001
1000
,
0010
0000
1000
0001
,
0010
0000
0001
1000
,
0100
0000
1000
0001
,
0100
0000
1000
0001
,
1001
0000
0001
1000
,
1001
0000
0010
0100
,
0110
0000
0100
0010
,
0110
0000
0001
1000
,
0110
0000
1000
0001
,
0110
0000
1000
0001
,
0101
0000
0001
1000
,
1100
0001
1000
0010
,
1000
0001
1000
0100
,
1000
0001
1000
0010
,
0200
0000
0000
0300
,
0010
0010
0010
0010
,
0100
0100
0100
0100
,
0001
0001
0001
0001
,
1000
1000
1000
1000
,
0001
0010
0001
0010
,
0001
0100
0001
0100
,
0010
1000
0010
1000
,
0100
1000
0100
1000
,
0001
0010
0002
0000
,
1003
0010
2000
0000
,
3001
0100
0002
0000
,
1003
0100
2000
0000
,
3001
0010
0002
0000
,
1003
0010
2000
0000
,
3010
0100
0020
0030
,
0100
0010
0200
0300
,
0010
0001
0010
0001
,
1000
0100
1000
0100
,
1000
0010
1000
0010
,
0100
0001
0100
0001
,
0010
1000
0010
0001
,
0010
1000
0010
0001
,
0100
1000
0100
0001
,
2000
0000
3002
0000
,
1003
0100
1000
0001
,
0010
0001
1000
0010
,
1000
0001
0100
0001
,
1000
0001
1000
0100
,
0001
0100
0001
1000
,
0010
1000
0001
0010
,
0001
1000
0100
1000
,
0001
1000
0001
0010
,
2002
0000
0000
0000
,
0000
3003
0010
0110
,
0100
1000
0100
1000
,
0001
0010
0001
0010
,
0001
0100
0001
0100
,
0010
1000
0010
1000
,
0100
0001
0100
1000
,
0100
0001
0100
1000
,
0010
0001
0010
1000
,
0002
0000
2003
0000
,
3010
0001
0010
0001
,
1000
0100
1000
0100
,
1000
0010
1000
0010
,
0100
0001
0100
0001
,
0010
1000
0010
0001
,
0010
1000
0010
0001
,
0100
1000
0100
0001
,
2000
0000
3002
0003
,
1001
0000
0000
0000
;

//---------------dance-single - ----------------
#NOTES:
     dance-single:
     :
     Medium:
     6:
     :
0000
0000
0000
0000
,
0000
0000
0000
0000
,
0000
0000
0000
0000
,
0000
0000
0000
0000
,
0000
0000
0000
0000
,
0001
0000
0010
0100
,
1000
0001
1000
1000
,
1000
0110
0001
0001
,
0001
0010
0010
0010
,
0001
0000
0100
0010
,
0100
1000
1000
0101
,
1001
0000
0100
1000
,
0100
0010
0100
0010
,
0100
1000
0001
1010
,
0110
0000
0100
0001
,
1001
0010
1000
1001
,
0100
1000
0100
0010
,
1000
0001
0010
0100
,
0001
1000
0010
1000
,
1000
0001
0010
0001
,
2000
0000
0000
3100
,
0002
0000
0000
0000
,
0023
0000
0000
0000
,
0230
0000
0000
2300
,
0000
3020
0000
0000
,
1030
0010
0100
0001
,
1000
0100
0100
0000
,
0010
0100
1000
0001
,
0200
0310
1001
1100
,
0001
0020
0032
1000
,
0023
0100
0130
0000
,
0001
1000
0110
1100
,
0020
0100
1030
0001
,
0021
0130
0101
1100
,
0010
0000
0001
1000
,
0200
0300
0002
0003
,
0020
0000
0031
1000
,
0010
0010
1001
0001
,
0010
0010
0000
0010
,
1000
1000
0020
1000
,
1030
0001
0010
0100
,
0001
0001
0000
0100
,
1000
0100
0000
0100
,
0001
1000
0020
1000
,
0130
1001
0110
1000
,
1001
0010
0001
0001
,
1000
0020
0130
0001
,
1000
1000
1000
0011
,
1000
0100
0100
0010
,
1001
0010
0001
1010
,
0100
0001
1000
0100
,
0010
0001
0001
1010
,
2000
0000
3002
0000
,
2003
0000
0000
0000
,
0000
3000
0001
0010
,
1100
0011
1001
0001
,
1010
1000
0001
0010
,
0010
0100
1000
1000
,
0110
0010
0001
2000
,
3010
0100
1001
0000
,
0100
0100
1001
0001
,
0100
0001
2000
0001
,
3002
0100
0103
0010
,
1000
0000
1001
1000
,
0010
0000
0100
0010
,
0001
0001
0010
1001
,
0100
0010
0001
0001
,
0010
0000
0100
1000
,
0001
0000
0001
0010
,
0100
1000
0001
0010
,
2000
0000
3020
0030
,
2002
0000
0000
3003
;

//---------------dance-single - ----------------
#NOTES:
     dance-single:
     :
     Hard:
     7:
     :
0000
0000
0000
0000
,
0000
0000
0000
0000
,
0000
0000
0000
0000
,
0000
0000
0000
0000
,
0000
0000
0000
0000
,
0010
0000
0000
1000
0001
0000
0000
0100
,
0010
0000
0000
1000
0010
0000
0000
0010
,
0100
0000
0000
0100
0001
0000
0000
1000
,
0010
0000
0000
1000
0001
0000
0000
0000
,
1000
0010
1000
0010
1000
0100
1000
0001
,
0100
0001
0100
0010
0100
1000
0100
0001
,
0010
0001
0010
0100
0010
0001
0010
0100
,
1000
0001
1000
0010
1000
0001
0100
0000
,
0200
0000
0000
0000
0000
0300
0001
0000
2000
0000
0000
0000
3000
0000
0100
0000
,
0020
0000
0030
0001
0200
0000
0300
0010
,
0202
0000
0000
0303
,
0010
0100
0001
1000
,
0010
1000
1000
0000
0001
1000
0100
0000
,
0100
0010
0001
0000
0001
0100
0100
0000
,
0001
0010
1000
1000
,
2002
0000
0000
3003
,
0000
0101
0000
1001
,
0000
0110
0000
1010
,
0000
1001
0000
0011
,
0000
0000
1100
0000
0000
1000
0001
1000
,
0100
0010
0110
1001
,
0100
0100
0101
1100
,
0001
0100
1000
0000
1000
0100
0001
0000
,
0201
0000
0300
1001
,
0010
0001
0000
0100
0010
0000
0100
0000
,
0010
1000
0000
0001
1000
0000
0100
0000
,
2100
0000
0000
0000
3000
0010
0100
0002
,
0000
0003
1000
0100
,
0010
0000
0000
0100
0020
0000
0000
0000
,
0000
0030
1000
0001
,
0110
0000
0000
1000
0020
0000
0000
0000
,
0030
0000
0100
0001
,
1000
0100
0000
0100
1000
0000
0010
1000
,
0200
0000
0000
0300
,
0010
0100
0000
0001
0100
0000
1000
0001
,
0200
0000
0000
0300
,
0100
0010
0000
0010
1000
0000
0001
0100
,
0002
0000
0000
0003
,
1000
1000
0000
0001
0010
0000
0000
1000
,
0002
0000
0000
0003
,
0100
0001
1000
0010
1000
0010
0100
0001
,
0100
0010
1000
0001
0100
0001
1000
0001
,
1000
0010
0100
0001
0010
0100
1000
0010
,
0100
0010
1000
0001
0100
0000
0110
0000
,
0100
0001
0100
0010
0100
0001
0100
0010
,
1000
0001
1000
0010
1000
0100
0010
0001
,
0010
0001
1000
0010
0100
0001
1000
0001
,
0001
1000
1000
0010
0010
0000
0000
0000
,
2020
0000
0000
0000
,
0000
3030
0100
0001
,
0001
0100
1000
0100
0001
0010
1000
0010
,
0001
0100
0010
0001
0010
1000
0100
1000
,
0010
1000
0010
0100
0001
0100
0001
1000
,
0010
1000
0010
0100
0010
1000
0001
0100
,
0001
1000
0000
0200
0000
0000
0000
0000
,
0000
0000
0000
0000
0000
0300
0000
0000
0010
0000
0000
0000
0001
0000
0000
0000
,
0100
0001
0000
0200
0000
0000
0000
0000
,
0000
0300
0101
1100
,
1000
0001
0010
0001
1000
0100
1000
0010
,
0100
0001
0010
0100
1000
0001
0100
0001
,
0100
0001
1000
0010
0100
0001
1000
0000
,
0002
0003
0100
0001
,
0010
0100
1000
0100
0010
0100
0010
0001
,
0100
0010
0100
0001
1000
0100
0010
0100
,
1000
0010
0001
0010
0100
0001
1000
0001
,
0010
0001
1000
0001
0100
0000
0000
1000
,
0001
0000
0000
0000
;

//---------------dance-double - ----------------
#NOTES:
     dance-double:
     :
     Beginner:
     2:
     :
00000000
00000000
00000000
00000000
,
00000000
00000000
00000000
00000000
,
00000000
00000000
00000000
00000000
,
00000000
00000000
00000000
00000000
,
00000000
00000000
00000000
00000000
,
00000001
00000000
00001000
00000000
,
00000010
00000000
00010000
00000000
,
00001000
00000000
01000000
00000000
,
00010000
00000000
10000000
00000000
,
01000000
00000000
00010000
00000000
,
00001000
00000000
00000100
00000000
,
00000010
00000000
00001000
00000000
,
00010000
00000000
00100000
00000000
,
01100000
00000000
00000000
00000000
,
00010000
00000000
00000000
00000000
,
00001000
00000000
00000000
00000000
,
00000010
00000000
00000000
00000000
,
00000110
00000000
00000000
00000000
,
00001000
00000000
00000000
00000000
,
00010000
00000000
00000000
00000000
,
00100000
00000000
00000000
00000000
,
10000000
00000000
01100000
00000000
,
00010000
00000000
01100000
00000000
,
00010000
00000000
00011000
00000000
,
00000010
00000000
00011000
00000000
,
01000000
00000000
00011000
00000000
,
00001000
00000000
00011000
00000000
,
00001000
00000000
00000110
00000000
,
00000001
00000000
00000110
00000000
,
00000001
00000000
00001000
00000000
,
00010000
00000000
10000000
00000000
,
10010000
00000000
00000000
00000000
,
01000000
00000000
00100000
00000000
,
00010000
00000000
00001000
00000000
,
00000010
00000000
00000100
00000000
,
00001000
00000000
00010000
00000000
,
00001000
00000000
00010000
00000000
,
00011000
00000000
00010000
00000000
,
00000000
01000000
00000000
00001000
,
00000000
00000000
00001000
00000000
,
00000000
00000100
00000000
00010000
,
00000000
00000000
00001000
00000000
,
00001000
00000000
00000000
00010000
,
00000000
00000000
00001000
00000000
,
00010000
00000000
00001000
00000000
,
00001000
00000000
00000000
00000100
,
00000000
00000001
00000000
00000001
,
00000000
00000100
00000000
00000100
,
00000000
00001000
00000000
00010000
,
00000000
00010000
00000000
00001000
,
00000000
00010000
00000000
00010000
,
00000000
00100000
00000000
00100000
,
00000000
00000000
00100000
00000000
,
01100000
00000000
00000000
00000000
,
00000000
00000000
00100000
00000000
,
00011000
00000000
00010000
00000000
,
00000000
01000000
00000000
00001000
,
00000000
00000000
00001000
00000000
,
00000000
00000100
00000000
00010000
,
00000000
00000000
00001000
00000000
,
00001000
00000000
00000000
00010000
,
00000000
00000000
00001000
00000000
,
00010000
00000000
00001000
00000000
,
00011000
00000000
00001000
00000000
,
00000000
00000010
00000000
00010000
,
00000000
00000000
00010000
00000000
,
00000000
00100000
00000000
00001000
,
00000000
00000000
00010000
00000000
,
00010000
00000000
00000000
00001000
,
00000000
00000000
00010000
00000000
,
00001000
00000000
00010000
00000000
,
00011000
00000000
00000000
00000000
;

//---------------dance-double - ----------------
#NOTES:
     dance-double:
     :
     Easy:
     3:
     :
00000000
00000000
00000000
00000000
,
00000000
00000000
00000000
00000000
,
00000000
00000000
00000000
00000000
,
00000000
00000000
00000000
00000000
,
00000000
00000000
00000000
00000000
,
00000002
00000003
00002000
00003000
,
00000020
00000030
00020000
00030000
,
00002000
00003000
02000000
03000000
,
00020000
00030000
20000000
30000000
,
01000000
01000000
00010000
00010000
,
00001000
00001000
00000100
00000100
,
00000010
00000010
00001000
00001000
,
00010000
00010000
00100000
00100000
,
02200000
00000000
00000000
03300000
,
00020000
00000000
00000000
00030000
,
00002000
00000000
00000000
00003000
,
00000020
00000000
00000000
00000030
,
00000220
00000000
00000000
00000330
,
00002000
00000000
00000000
00003000
,
00020000
00000000
00000000
00030000
,
00200000
00000000
00000000
00300000
,
20000000
30000000
11000000
00000000
,
00020000
00030000
01010000
00000000
,
00020000
00030000
00011000
00000000
,
00000020
00000030
00011000
00000000
,
02000000
03000000
00011000
00000000
,
00002000
00003000
00011000
00000000
,
00002000
00003000
00001100
00000000
,
00000002
00000003
00000101
00000000
,
00000001
00000010
00001000
00000000
,
00010000
01000000
10000000
00000000
,
20020000
00000000
00000000
30030000
,
02000000
03000000
00100000
01000000
,
00020000
00030000
00002000
00003000
,
00000020
00000030
00000100
00000010
,
00002000
00003000
00020000
00030000
,
00001000
00010000
00010000
00001000
,
00022000
00033000
00010000
00100000
,
00000000
01000000
00010000
00001000
,
00022000
00033000
00001000
00000010
,
00000000
00000100
00001000
00010000
,
00022000
00033000
00001000
00000000
,
00001000
00010000
00000000
00010000
,
00022000
00033000
00001000
00010000
,
00020000
00000000
00002000
00033000
,
00001000
00000100
00000000
00000100
,
00000010
00000001
00000000
00000001
,
00001000
00000100
00000000
00000100
,
00010000
00001000
00000000
00010000
,
00001000
00010000
00000000
00001000
,
01000000
00010000
00000000
00010000
,
10000000
00100000
00000000
00100000
,
02000000
03000000
00200000
00300000
,
02200000
00000000
00000000
00000000
,
00000000
03300000
00100000
01000000
,
00022000
00033000
00010000
00100000
,
00000000
01000000
00010000
00001000
,
00022000
00033000
00001000
00000010
,
00000000
00000100
00001000
00010000
,
00022000
00033000
00001000
00000000
,
00001000
00010000
00000000
00010000
,
00022000
00033000
00001000
00010000
,
00020000
00000000
00002000
00033000
,
00022000
00033000
00001000
00000100
,
00000000
00000010
00001000
00010000
,
00022000
00033000
00010000
01000000
,
00000000
00100000
00010000
00001000
,
00022000
00033000
00010000
00000000
,
00010000
00001000
00000000
00001000
,
00022000
00033000
00010000
00001000
,
00002000
00000000
00020000
00033000
,
00022000
00000000
00000000
00033000
;

//---------------dance-double - ----------------
#NOTES:
     dance-double:
     :
     Medium:
     5:
     :
00000000
00000000
00000000
00000000
,
00000000
00000000
00000000
00000000
,
00000000
00000000
00000000
00000000
,
00000000
00000000
00000000
00000000
,
00000000
00000000
00000000
00000000
,
00000010
00001001
00000000
00000110
,
00001000
00000110
00000000
00001001
,
00001000
00011000
00000000
00011000
,
00010000
01100000
00000000
10010000
,
00100000
10100000
00000000
01010000
,
01000000
01001000
00000000
00011000
,
00010000
00010100
00000000
00001100
,
00000010
00000011
00000000
00001100
,
00000001
00000000
00000100
00001000
,
00010000
00000000
01000000
10000000
,
00100000
00000000
00010000
00001000
,
00000010
00000000
00000001
00000100
,
00001000
00001000
00010000
00010000
,
01000000
10000000
00100000
00010000
,
00001000
00001000
00010000
00010000
,
00022000
00000000
00000000
00033000
,
00001000
00000010
00001000
00001010
,
00001000
00000100
00001000
00001100
,
00010000
01000000
00010000
01010000
,
00010000
00100000
00010000
00110000
,
00010000
10000000
01000000
00010000
,
01000000
10000000
00010000
00010000
,
00001000
00000001
00000100
00001000
,
00000100
00000001
00001000
00001000
,
00000010
00000001
00000100
00001000
,
00000010
00000001
00000100
00001000
,
00000020
00000100
00000100
00000130
,
00001001
00000000
00000100
00000100
,
00002000
00010000
00000000
00013000
,
00011000
00000000
01000000
01000000
,
00020000
00001000
00000000
00031000
,
01000000
01000000
10010000
01100000
,
10010000
00000000
10000000
01000000
,
11000000
00000000
01000000
00010000
,
01010000
00000000
00010000
00001000
,
00011000
00000000
00001000
00000100
,
00001100
00000000
00000100
00000001
,
00000101
00000000
00000001
00001000
,
00001001
00000000
00000001
00001000
,
00000002
00000000
00002000
00003003
,
00000001
00000100
00001000
00010000
,
00001000
00011000
00010000
00011000
,
00010000
01000000
10000000
00100000
,
10000000
10100000
00100000
10100000
,
00100000
00010000
00001000
00000010
,
00001000
00001010
00000010
00001010
,
00000010
00000001
00000100
00001000
,
00020000
00000000
00002000
00033000
,
00011000
00000000
00000000
00000000
,
00010000
10000000
00010000
10000000
,
10010000
00000000
10000000
01000000
,
11000000
00000000
01000000
00010000
,
01010000
00000000
00010000
00001000
,
00011000
00000000
00001000
00000100
,
00001100
00000000
00000100
00000001
,
00000101
00000000
00000001
00001000
,
00001001
00000000
00000001
00001000
,
00000110
00000000
00000010
00000100
,
00001001
00000000
00000001
00000010
,
00000011
00000000
00000010
00001000
,
00001010
00000000
00001000
00010000
,
00011000
00000000
00010000
00100000
,
00110000
00000000
00100000
10000000
,
10100000
00000000
10000000
00010000
,
10010000
00000000
10000000
00010000
,
00200000
00000000
02000000
03300000
,
20020000
00000000
00000000
30030000
;

//---------------dance-double - ----------------
#NOTES:
     dance-double:
     :
     Hard:
     7:
     :
00000000
00000000
00000000
00000000
,
00000000
00000000
00000000
00000000
,
00000000
00000000
00000000
00000000
,
00000000
00000000
00000000
00000000
,
00000000
00000000
00000000
00000000
,
00020000
00000000
00030000
00010000
00200000
00000000
00300000
00100000
,
20000000
00000000
30000000
10000000
02000000
00000000
03000000
01000000
,
00020000
00000000
00030000
00010000
00002000
00000000
00003000
00001000
,
00000200
00000000
00000300
00000100
00000002
00000000
00000003
00000001
,
00000010
00000000
00001000
00000000
00010000
01000000
00010000
00000000
,
00010000
00000000
00001000
00000000
00010000
00100000
00010000
00000000
,
00001000
00000000
00010000
00000000
00001000
00000010
00001000
00000000
,
00001000
00000000
00010000
00000000
00001000
00000100
00001000
00000000
,
00002000
00000000
00003000
00000010
00000020
00000000
00000030
00000001
,
00000002
00000000
00000003
00000100
00000200
00000000
00000300
00001000
,
00002000
00000000
00003000
00010000
00020000
00000000
00030000
01000000
,
02000000
00000000
03000000
10000000
20000000
00000000
30000000
00100000
,
00100000
00000000
00010000
00000000
00001000
00000100
00001000
00000000
,
00001000
00000000
00010000
00000000
00001000
00000010
00001000
00000000
,
00010000
00000000
00001000
00000000
00010000
00100000
00010000
00000000
,
00010000
00000000
00001000
00000000
00010000
01000000
00010000
00000000
,
00020000
00100000
00001000
00130000
,
00200000
10000000
01000000
10300000
,
20000000
01000000
00010000
31000000
,
02000000
00010000
00100000
03010000
,
00002000
00000010
00010000
00003010
,
00000020
00000001
00000100
00000031
,
00000002
00000100
00001000
00000103
,
00000200
00001000
00000010
00001300
,
00001000
00010000
00000000
00001000
00000000
00000010
00000000
00000001
,
00000000
00000100
00000000
00001000
00000000
00000010
00000000
00000000
,
00002002
00000000
00000000
00003003
00000000
00000001
00000100
00001000
,
00010000
01000000
10000000
01000000
,
00020000
00000000
00030000
00010000
00002000
00000000
00003000
00001000
,
00010000
00001000
00010000
00001000
,
00020000
00000000
00030000
00010000
00002000
00000000
00003000
00001000
,
00010000
00011000
00001000
00010000
,
00200000
20300000
32000000
03020000
,
00230000
20300000
32000000
03020000
,
00032000
00003200
00000302
00000023
,
00002030
00003200
00000302
00000013
,
00001000
00010000
00000000
00000000
00010000
00001000
00000000
00000000
,
00001000
00010000
00010000
00001000
,
00010000
00001000
00000000
00000000
00001000
00010000
00000000
00000000
,
00020000
00000000
00002000
00033000
,
00001000
00000010
00001000
00000000
00000010
00000001
00000010
00000000
,
00000001
00001000
00000001
00000000
00001000
00000001
00001000
00000000
,
00000001
00000100
00000001
00000000
00000100
00001000
00000100
00000000
,
00001000
00010000
00001000
00000000
00010000
00001000
00010000
00000000
,
00010000
00100000
00010000
00000000
00100000
10000000
00100000
00000000
,
10000000
00010000
10000000
00000000
00010000
10000000
00010000
00000000
,
10000000
01000000
10000000
00000000
01000000
00010000
01000000
00000000
,
00010000
00001000
00010000
00000000
00001000
00010000
00001000
00000000
,
00022000
00000000
00000000
00000000
,
00000000
00033000
00011000
00011000
,
00000200
00000302
00000023
00002030
,
00003200
00000302
00000023
00002030
,
00023000
00230000
20300000
32000000
,
03020000
00230000
20300000
31000000
,
00010000
00001000
00000000
00000010
00000000
00001000
00000000
00010000
,
00000000
00100000
00000000
00010000
00001000
00000000
00010000
00000000
,
00001000
00010000
00000000
01000000
00000000
00010000
00000000
00001000
,
00000000
00000100
00000000
00001000
00010000
00000000
00001000
00000000
,
00000200
00000302
00000023
00002030
,
00003200
00000302
00000023
00002030
,
00023000
00230000
20300000
32000000
,
03020000
00230000
20300000
31000000
,
00010000
00001000
00000000
00000010
00000000
00001000
00000000
00010000
,
00000000
00100000
00000000
00010000
00001000
00000000
00010000
00000000
,
00001000
00010000
00000000
01000000
00000000
00010000
00000000
00001000
,
00020000
00000000
00002000
00033000
,
00022000
00000000
00000000
00000000
00000000
00000000
00000000
00033000
;
