#TITLE:Starmine;
#ARTIST:Ryu;
#BANNER:Starmine.png;
#BACKGROUND:Starmine-bg.png;
#MUSIC:Starmine.ogg;
#SAMPLESTART:82.24;
#SAMPLELENGTH:15;
#DISPLAYBPM:182;
#BPMS:0=162.162,12=181.997;
#BGCHANGES:2=Starmine.avi=1=1=0=0,315.75=Starmine-bg.png=1=0=0=1;

//---------------dance-single - ----------------
#NOTES:
     dance-single:
     :
     Beginner:
     2:
     :
0000
0000
0000
0000
,
0000
0000
0000
0000
,
0000
0000
0000
0000
,
0000
0000
0000
0000
,
0000
0010
0000
0010
,
0010
0000
0000
0000
,
0001
0000
0001
0000
,
1000
0000
1000
0000
,
0001
0000
0001
0000
,
0100
0000
0000
0000
,
0001
0001
0000
0000
,
1000
1000
0000
0000
,
0010
0010
0000
0000
,
0100
0100
0000
0000
,
0001
0001
0000
0000
,
0010
0010
0000
0000
,
1000
1000
0000
0000
,
0100
0000
0100
0000
,
0001
0000
0001
0000
,
1000
0000
1000
0000
,
0010
0000
0100
0000
,
0010
0010
0010
0000
,
1000
0000
1000
0000
,
0001
0000
0001
0000
,
1001
0000
1001
0000
,
0100
0100
0100
0100
,
0100
0000
0100
0000
,
0001
0001
0001
0000
,
0010
0000
0010
0000
,
1000
1000
1000
0000
,
0001
0000
0001
0000
,
0100
0100
0100
0000
,
1000
0000
1000
0000
,
0010
0010
0010
0000
,
0001
0000
1000
0000
,
0100
0100
0100
0000
,
1000
0000
0001
0000
,
0100
0100
0100
0000
,
0001
0000
0010
0000
,
0100
0100
0100
0000
,
1000
0000
0010
0000
,
1001
0000
0000
0000
,
0100
0000
0000
0000
,
0001
0000
0000
0000
,
1000
0000
0000
0000
,
0010
0000
0010
0000
,
0001
0001
0000
0000
,
1000
1000
0000
0000
,
0010
0010
0000
0000
,
0100
0100
0100
0000
,
1000
1000
0000
0000
,
0001
0001
0000
0000
,
0010
0010
0000
0000
,
0100
0000
0100
0000
,
1001
0000
0000
0000
,
1001
0000
0000
0000
,
0010
0000
0000
0000
,
0010
0010
0010
0010
,
0010
0000
0000
0000
,
0000
0000
0000
0000
,
1001
0000
1001
0000
,
0100
0100
0100
0100
,
0100
0000
0100
0000
,
0001
0001
0001
0000
,
0010
0000
0010
0000
,
1000
1000
1000
0000
,
0001
0000
0001
0000
,
0100
0100
0100
0000
,
1000
0000
1000
0000
,
0010
0010
0010
0000
,
0001
0000
1000
0000
,
0100
0100
0100
0000
,
1000
0000
0001
0000
,
0100
0100
0100
0000
,
0001
0000
0010
0000
,
0100
0100
0100
0000
,
1000
0000
0010
0000
,
1001
0000
1001
0000
,
0110
0000
0000
0000
;

//---------------dance-single - ----------------
#NOTES:
     dance-single:
     :
     Easy:
     5:
     :
0000
0000
0000
0000
,
0000
0000
0000
0000
,
0000
0000
0000
0000
,
0000
0000
0000
0000
,
0000
1001
0000
1001
,
0020
0000
0000
0030
,
0010
0101
0010
1100
,
0010
0101
0010
1100
,
0000
0110
0000
1001
,
0120
0100
0100
0130
,
0002
0000
0000
0003
,
2000
0000
0000
3000
,
0020
0000
0000
0030
,
0200
0000
0000
0300
,
0002
0000
0000
0003
,
0020
0000
0000
0030
,
2000
0000
0000
3000
,
0200
0000
0000
0300
,
0001
1000
0100
0000
,
1000
0001
0100
0000
,
0010
0100
0010
0000
,
1000
0001
1000
0000
,
1000
0100
0001
0001
,
0010
0100
1000
1000
,
0101
0000
1100
0000
,
0101
1100
0101
1100
,
0001
0001
1000
1000
,
0001
1000
0001
0001
,
1000
1000
0001
0001
,
1000
0001
1001
1001
,
1000
0100
0001
0100
,
1000
0100
1100
1100
,
0001
0100
1000
0100
,
0001
0100
0101
0101
,
0010
0010
0100
0100
,
0010
0100
0010
0010
,
0100
0100
0010
0010
,
0100
0010
0110
0110
,
0010
1000
0100
0001
,
0010
1000
0010
1000
,
0110
1001
0101
1100
,
2002
0000
0000
3003
,
0010
0000
0010
0000
,
0001
0000
0001
0000
,
1000
0000
1000
0000
,
0100
0000
0100
0000
,
1000
1000
0100
0100
,
1000
1000
0001
0001
,
0010
0010
0001
0001
,
1100
0101
1010
0011
,
2000
0000
0000
3000
,
0002
0000
0000
0003
,
0020
0000
0000
0030
,
0011
1010
0011
1010
,
0001
0000
0100
0000
,
0001
0000
1000
0000
,
0100
0000
0010
0000
,
1001
1001
0110
0110
,
2002
0000
0000
3003
,
0000
0000
0000
0000
,
1001
0000
1001
0000
,
0010
0001
1000
0100
,
1000
1000
0001
0001
,
1000
0001
1000
1000
,
0001
0001
1000
1000
,
0001
1000
1001
1001
,
0001
0010
1000
0010
,
0001
0010
0011
0011
,
1000
0010
0001
0010
,
1000
0010
1010
1010
,
0100
0100
0010
0010
,
0100
0010
0100
0100
,
0010
0010
0100
0100
,
0010
0100
0110
0110
,
0100
0001
0010
1000
,
0100
0001
0100
0001
,
1000
0100
0001
1000
,
0101
1100
0101
1100
,
2002
0000
0000
3003
;

//---------------dance-single - ----------------
#NOTES:
     dance-single:
     :
     Medium:
     6:
     :
0000
0000
0000
0000
,
0000
0000
0000
0000
,
0000
0000
0000
0000
,
0000
0000
0000
0000
,
0000
0110
0000
1100
,
0000
0011
0000
0110
,
0010
0110
0100
0101
,
0001
1001
1000
1010
,
0010
1000
0010
1000
,
0001
0000
0100
0000
0001
0000
0100
0100
,
0020
0000
0000
0030
,
2000
0000
0000
3000
,
0002
0000
0000
0003
,
2000
0000
0001
3100
,
0100
0000
0000
1000
0000
0000
0002
0000
0000
1000
0000
0000
1003
0000
0000
0000
,
0010
0000
0000
0100
0000
0000
0200
0000
0000
0001
0000
0000
0301
0000
0000
0000
,
1000
0000
0000
0001
0000
0000
2000
0000
0000
0010
0000
0000
3010
0000
0000
0000
,
2002
0000
3003
0000
0001
0010
0100
1000
,
0010
0000
1000
0000
0002
0000
0103
0010
,
0000
1000
0000
0001
0100
0000
0001
0000
,
1000
0010
0100
0010
,
1000
0000
0001
0000
0100
0010
0100
0000
,
0001
0000
0001
0000
0200
0000
0310
1000
,
0000
1000
0000
0001
0100
0000
0010
0000
,
2002
3003
0220
0330
,
1001
0000
1001
0000
0001
0010
0100
1000
,
0001
0000
1000
0000
0010
0000
1000
0010
,
0000
1000
0000
0101
0101
0000
0100
0000
,
0010
0000
1000
0000
0001
0000
1000
0100
,
0000
0100
0000
0000
1000
0010
0100
0000
,
0010
0000
0100
0000
0001
0000
1000
0001
,
0000
0100
0000
1010
1010
0000
0100
0000
,
0002
0003
2000
3000
,
0110
0000
0110
0000
1000
0010
0100
0001
,
1000
0000
0001
0000
0010
0000
0100
1000
,
0000
0001
0000
0110
0110
0000
1000
0000
,
0001
0100
0001
0100
,
0010
0000
1000
0000
0001
0100
0001
0000
,
1000
0000
0010
0000
1000
0000
0100
0100
,
0000
1000
0000
0011
0011
0000
0010
0000
,
0001
0100
0010
0100
,
0001
1000
0001
0010
,
2001
0000
0000
0100
3000
0000
0000
0000
,
1002
0000
0000
0010
0003
0000
0011
0000
,
2010
0000
0000
0100
3000
0000
1100
0000
,
1000
0010
0100
0001
,
1000
1000
0010
0100
,
1000
1000
0010
0100
,
1000
1000
0010
0100
,
0110
1001
0110
1001
,
0001
0001
0010
0100
,
0001
0001
0010
0100
,
0001
0001
0010
0100
,
0020
0000
1030
0100
,
1100
0000
0000
0101
0000
0000
0000
0000
,
0011
0000
0000
1100
0000
0000
0010
0100
,
0000
0000
0000
0110
0000
0000
0000
0000
,
1000
0001
1000
0001
,
2002
0000
0000
3003
,
2200
0000
0000
3300
,
0001
0001
0100
0100
,
0101
0000
0101
0000
0001
0010
0100
1000
,
0010
0000
0100
0000
0001
0000
1000
0100
,
0000
1000
0000
0101
0101
0000
0010
0000
,
1000
0010
1000
0001
,
0100
0000
0010
0000
1000
0010
1000
0000
,
0001
0000
1000
0000
0001
0000
0100
0010
,
0000
0010
0000
0110
0110
0000
0001
0000
,
2000
0000
3002
0003
,
0110
0000
0110
0000
1000
0010
0100
0001
,
1000
1000
0001
0000
,
0020
0030
2000
3000
,
2020
0000
0000
3030
,
1000
0010
1000
0010
1000
0010
1000
0010
,
0100
0000
0100
0000
0001
0000
1000
0100
,
0000
1000
0000
1001
1001
0000
0010
0000
,
0220
0330
2002
3003
,
0001
0000
0001
0000
0001
0010
0100
1000
,
0002
0000
0000
0003
;

//---------------dance-single - ----------------
#NOTES:
     dance-single:
     :
     Hard:
     8:
     :
0000
0000
0000
0000
,
0000
0000
0000
0000
,
0000
0000
0000
0000
,
0000
0000
0000
0000
,
0001
0000
0000
1000
0100
0000
0000
0000
1000
0000
0000
0001
0100
0000
0000
0000
,
1001
0000
0000
1000
,
0001
0010
0100
1000
,
0001
0000
0100
0000
0010
0000
0001
1000
,
0100
0000
0000
0000
1000
0000
0000
0000
0001
0000
0000
0000
0010
0000
1000
0001
,
1000
0000
0000
0000
0001
0000
0100
0000
1000
0000
0001
0100
0001
0000
1000
0100
,
1000
0000
0010
0000
0000
0100
0000
0000
0001
0000
0000
0100
0000
0000
1000
0000
,
0000
0000
0100
0000
0000
0010
0000
0000
1000
0000
0000
0010
0000
0000
0100
0000
,
0000
0000
0001
0000
0000
1000
0000
0000
0100
0000
0000
0001
0000
0000
0010
0000
,
0000
0000
1000
0000
0000
0001
0000
0000
1000
0000
0000
0100
0000
0000
0010
0000
,
0000
0000
0100
0000
0000
0001
0000
0000
0100
0000
0000
1000
0000
0000
0001
0000
,
0000
0000
0010
0000
0000
1000
0000
0000
0010
0000
0000
0100
0000
0000
1000
0000
,
0000
0000
0010
0000
0000
1000
0000
0000
0100
0000
0000
0001
0000
0000
0100
0000
,
0000
1000
0000
0010
1000
0001
0010
0100
,
1000
0000
0001
0000
0101
0000
0100
0100
,
0000
0001
0000
0100
1000
0000
0100
0000
,
0001
0000
1000
0000
0100
0000
1000
0100
,
0000
1000
0000
0001
1000
0001
0010
0000
,
1001
0000
0100
0000
0001
0000
0100
0010
,
0000
1000
0000
0001
0001
0000
0100
0000
,
0010
0000
1010
0000
0101
0000
0000
0010
,
0000
1000
0000
0100
1000
0010
1000
0100
,
0001
0000
0100
0000
1000
0000
0100
1000
,
0000
0100
0000
0001
0100
0000
0010
0000
,
0001
0000
0100
0000
0010
0000
1000
0010
,
0000
0100
0000
0001
0100
0010
1000
0000
,
0001
0000
0010
0000
1000
0000
0001
0100
,
0000
0010
0000
1000
0100
0000
0010
0000
,
0001
0000
0100
0000
0001
0000
0000
0100
,
0000
0010
0000
0100
0001
1000
0100
0001
,
1000
0000
0100
0000
1000
0000
0010
1000
,
0000
0001
0000
1000
0001
0000
0100
0000
,
1000
0000
0100
0000
1000
0000
0100
0010
,
0000
0001
0000
1000
0010
1000
0001
0000
,
0110
0000
1001
0000
0100
0000
0001
1000
,
0000
0010
0000
0100
0010
0000
1000
0000
,
0101
0000
1100
0000
0020
0000
0000
0100
,
0000
0130
0000
0100
0001
0100
1000
0100
,
0010
0000
0010
0100
0000
0001
1000
0001
,
0100
0000
0010
0100
0000
0001
0010
0100
,
1000
0000
1000
0010
0000
0000
0100
0000
,
0001
0000
0000
0000
0010
0000
1000
0000
0001
0000
0000
0010
0000
0000
0001
0000
,
0010
0000
0001
0000
0100
0001
0100
0000
0001
0000
0000
0100
0000
0000
0001
0000
,
0100
0000
0001
0000
0100
0010
0100
0000
0010
0000
0000
1000
0000
0000
0010
0000
,
1000
0000
0010
0000
1000
0100
1000
0000
0100
0000
0000
0010
0000
0000
0100
0000
,
0002
0203
0320
1030
,
0010
0000
0001
0000
1000
0010
1000
0000
0001
0000
0000
0100
0000
0000
0001
0000
,
1000
0000
0010
0000
0100
0001
0100
0000
0010
0000
0000
1000
0000
0000
0100
0000
,
1000
0000
0001
0000
0100
0010
0100
0000
0010
0000
0000
1000
0000
0000
0001
0000
,
0101
0011
1100
1010
,
1001
0000
0200
0010
0000
0000
0310
0000
,
1100
0000
0200
1000
0000
0000
1300
0002
,
0000
0000
0013
0100
0000
0000
0002
0000
,
0010
1000
0010
1003
,
2002
0000
0000
0000
,
0000
0000
0000
3003
,
0001
0000
1100
0000
0101
0000
0000
0010
,
0000
1000
0000
0010
0100
0001
1000
0001
,
0100
0000
0101
0000
1100
0000
0001
1000
,
0000
0100
0000
0010
1000
0000
0001
0000
,
0100
0000
0010
0000
1001
0000
0001
0100
,
0000
0001
0000
0001
0100
1000
0100
0000
,
0100
0000
0101
0000
1100
0000
0100
0001
,
0000
0001
0000
1000
0100
0000
0100
0000
,
0010
0000
1001
0000
1010
0000
0000
0100
,
0000
1000
0000
0100
0010
0100
0010
0100
,
0110
0100
1001
0010
,
1010
0100
1100
0010
,
0022
0000
0000
0033
,
0001
0100
0000
0010
0000
0100
1000
0100
,
0110
0100
0101
1000
,
1100
0001
1001
0000
,
0110
0000
1001
0000
0110
0000
0000
0002
,
0000
2003
0000
3100
0001
0010
1000
0100
,
0001
0000
0000
0000
;

//---------------dance-double - ----------------
#NOTES:
     dance-double:
     :
     Beginner:
     2:
     :
00000000
00000000
00000000
00000000
,
00000000
00000000
00000000
00000000
,
00000000
00000000
00000000
00000000
,
00000000
00000000
00000000
00000000
,
00000000
00011000
00000000
00000000
,
00100000
00000000
00000000
00000000
,
00000000
01100000
00000000
00000000
,
00000000
00000110
00000000
00000000
,
01100000
00000000
00000000
00011000
,
00000000
00000000
00000000
00000000
,
00001000
00000000
00000000
00000000
,
00000010
00000000
00000000
00000000
,
00000100
00000000
00000000
00000000
,
00001000
00000000
00000000
00000000
,
00011000
00000000
00000000
00000000
,
01000000
00000000
00000000
00000000
,
00100000
00000000
00000000
00000000
,
00010000
00000000
00000000
00000000
,
00000000
00001001
00000000
00000000
,
00000000
00000110
00000000
00000000
,
00000000
01100000
00000000
00000000
,
00000000
10010000
00000000
00000000
,
00001000
00000000
00000000
00000100
,
00000000
00000000
00100000
00000000
,
00000000
00000000
01100000
00000000
,
00000000
00011000
00000000
00000000
,
00001000
00000000
00000000
00000100
,
00000000
00000000
00100000
00000000
,
00000000
00010000
00000000
00000000
,
00000001
00000000
00000000
00010000
,
00000000
00000000
01000000
00000000
,
00000000
00000010
00000000
00000000
,
00001000
00000000
00000000
10000000
,
00000000
00000000
00001000
00000000
,
00000000
00000010
00000000
00000000
,
00010000
00000000
00000000
10000000
,
00000000
00000000
01000000
00000000
,
00000000
00000010
00000000
00000000
,
00000001
00000000
00000000
00010000
,
00000000
00000000
01000000
00000000
,
00000000
00010010
00000000
00000000
,
00011000
00000000
00000000
00000000
,
00000010
00000000
00000000
00000000
,
00001000
00000000
00000000
00000000
,
01000000
00000000
00000000
00000000
,
10010000
00000000
00000000
00011000
,
00000000
00000000
00000100
00000000
,
00000000
00000000
00010000
00000000
,
00000000
00000000
01000000
00000000
,
00000000
00000000
00001000
00000000
,
00000000
00010000
00000000
00000000
,
00001000
00000000
00000000
01000000
,
00000000
00000000
00100000
00000000
,
00000000
10010000
00000000
00000000
,
10000000
00000000
00000000
00000000
,
00001000
00000000
00000000
00000000
,
00000000
00000000
00000110
00000000
,
00000000
00001001
00000000
00000000
,
00001001
00000000
00000000
00000000
,
00000000
00000000
00000000
00000000
,
00000110
00000000
00000000
01100000
,
00000000
00000000
00001000
00000000
,
00000000
00000010
00000000
00000000
,
00001000
00000000
00000000
10000000
,
00000000
00000000
00001000
00000000
,
00000000
00000100
00000000
00000000
,
00100000
00000000
00000000
00010000
,
00000000
00000000
00000001
00000000
,
00000000
00010000
00000000
00000000
,
01000000
00000000
00000000
00000010
,
00000000
00000000
00000100
00000000
,
00000000
00000000
00010000
00000000
,
00000000
00000000
00000000
00000000
,
00010000
00000000
00000000
01000000
,
00000000
00000000
00100000
00000000
,
00000000
00000000
00001000
00000000
,
00000000
00001001
00000000
00000000
,
00011000
00000000
00000000
01100000
;

//---------------dance-double - ----------------
#NOTES:
     dance-double:
     :
     Easy:
     5:
     :
00000000
00000000
00000000
00000000
,
00000000
00000000
00000000
00000000
,
00000000
00000000
00000000
00000000
,
00000000
00000000
00000000
00000000
,
00000000
00011000
00000000
00011000
,
00200000
00000000
00000000
00300000
,
00000000
01100000
00000000
00011000
,
00000000
00000110
00000000
00011000
,
01010000
00011000
00001100
00011000
,
00022000
00000000
00000000
00033000
,
00002000
00000000
00000000
00003000
,
00000020
00000000
00000000
00000030
,
00000200
00000000
00000000
00000300
,
00002000
00000000
00000000
00003000
,
00022000
00000000
00000000
00033000
,
02000000
00000000
00000000
03000000
,
00200000
00000000
00000000
00300000
,
00020000
00000000
00000000
00030000
,
00000000
00001001
00000000
00000110
,
00000000
00001100
00000000
00011000
,
00000000
01010000
00000000
01100000
,
00000000
10010000
00000000
00011000
,
00001000
00000010
00000001
00000100
,
00001000
00010000
00100000
10000000
,
10010000
00000000
01100000
00000000
,
00011000
00011000
00011000
00011000
,
00001000
00000010
00000001
00000100
,
00001000
00010000
00100000
10000000
,
01000000
00010000
00001000
00000010
,
00000001
00000100
00001000
00010000
,
00100000
10000000
01000000
00010000
,
00001000
00000010
00000001
00000100
,
00001000
00010000
00100000
10000000
,
01000000
00010000
00001000
00000010
,
00000001
00000010
00000100
00001000
,
00010000
00100000
01000000
10000000
,
10000000
00100000
01000000
00010000
,
00001000
00000010
00000100
00000001
,
00000001
00000100
00001000
00010000
,
01000000
10000000
01000000
00010000
,
00011000
00010010
00011000
00101000
,
00022000
00000000
00000000
00033000
,
00000010
00000000
00000100
00000000
,
00001000
00000000
00010000
00000000
,
01000000
00000000
00100000
00000000
,
00110000
00011000
00001010
00011000
,
00002020
00003030
00000100
00000100
,
00022000
00033000
00010000
00001000
,
00220000
00330000
01000000
01000000
,
00022000
00033000
00001000
00010000
,
00001000
00010000
00000010
00010000
,
00001000
00010000
00001000
01000000
,
00001000
00010000
00100000
10000000
,
10100000
00110000
01010000
11000000
,
10000000
00000000
00010000
00000000
,
00001000
00000000
00000001
00000000
,
00000000
00000000
00000110
00000000
,
00000011
00001010
00001100
00000101
,
00002002
00000000
00000000
00003003
,
00000000
00000000
00000000
00000000
,
00000110
00001000
00010000
01100000
,
01100000
00010000
00001000
00000110
,
00001000
00000010
00000001
00000100
,
00001000
00010000
00100000
10000000
,
01000000
00010000
00001000
00000010
,
00000001
00000100
00001000
00010000
,
00100000
10000000
01000000
00010000
,
00001000
00000010
00000001
00000100
,
00001000
00010000
00100000
10000000
,
01000000
00010000
00001000
00000010
,
00000002
00000003
00000200
00000300
,
00002000
00003000
00020000
00030000
,
00022000
00000000
00000000
00033000
,
00010000
00100000
10000000
01000000
,
20000000
30000000
00200000
00300000
,
00020000
00030000
00002000
00003000
,
00011000
00001010
00011000
00110000
,
00011000
00001100
00011000
01010000
,
00022000
00000000
00000000
00033000
;

//---------------dance-double - ----------------
#NOTES:
     dance-double:
     :
     Medium:
     7:
     :
00000000
00000000
00000000
00000000
,
00000000
00000000
00000000
00000000
,
00000000
00000000
00000000
00000000
,
00000000
00000000
00000000
00000000
,
00000000
00000011
00000000
00001001
,
00000000
00001100
00000000
00011000
,
00000000
00101000
00000000
00011000
,
00000000
00010100
00000000
00011000
,
00000000
01001000
00000000
00011000
,
00000000
00010010
00000000
00011000
,
00000000
00000000
00001000
00000000
00000000
00010000
00000000
00000000
00001000
00000000
00000000
00010000
00000000
00000000
00001000
00000000
,
00000000
00000000
00000010
00000000
00000000
00001000
00000000
00000000
00000010
00000000
00000000
00001000
00000000
00000000
00000010
00000000
,
00000000
00000000
00000100
00000000
00000000
00000010
00000000
00000000
00000100
00000000
00000000
00000010
00000000
00000000
00000100
00000000
,
00000000
00000000
00001000
00000000
00000000
00000100
00000000
00000000
00001000
00000000
00000000
00000100
00000000
00000000
00001000
00000000
,
00000000
00000000
00010000
00000000
00000000
00001000
00000000
00000000
00010000
00000000
00000000
00001000
00000000
00000000
00010000
00000000
,
00000000
00000000
00100000
00000000
00000000
00010000
00000000
00000000
00100000
00000000
00000000
00010000
00000000
00000000
00100000
00000000
,
00000000
00000000
01000000
00000000
00000000
00100000
00000000
00000000
01000000
00000000
00000000
00100000
00000000
00000000
01000000
00000000
,
00000000
00000000
00010000
00000000
00000000
00100000
00000000
00000000
00010000
00000000
00000000
00100000
00000000
00000000
00010000
00000000
,
00001000
00000000
00000010
00000000
00000001
00000000
00000001
00000010
,
00000000
00001000
00000000
00001000
00000010
00000000
00000001
00000000
,
00000100
00000000
00001000
00000000
00000100
00000000
00000100
00000001
,
00000000
00000001
00000000
00000001
00000100
00001000
00010000
00000000
,
00010000
00000000
00100000
00000000
10000000
00000000
10000000
00100000
,
00000000
00010000
00000000
00010000
00100000
00000000
10000000
00000000
,
10010000
00000000
00100000
00000000
01100000
00000000
00000000
00100000
,
00000000
01000000
00000000
00100000
10000000
01000000
10000000
00100000
,
10000000
00000000
01000000
00000000
10000000
00000000
10000000
01000000
,
00000000
00010000
00000000
00010000
01000000
00000000
10000000
00000000
,
00100000
00000000
00010000
00000000
00100000
00000000
00100000
10000000
,
00000000
10000000
00000000
10000000
00100000
00010000
00001000
00000000
,
00001000
00000000
00000010
00000000
00000001
00000000
00000001
00000010
,
00000000
00001000
00000000
00001000
00000010
00000000
00000001
00000000
,
00001001
00000000
00000010
00000000
00000110
00000000
00000000
00000010
,
00000000
00000100
00000000
00000010
00000001
00000100
00000001
00000010
,
00000001
00000000
00000010
00000000
00000001
00000000
00000001
00000010
,
00000000
00001000
00000000
00001000
00000010
00000000
00000001
00000000
,
00000100
00000000
00001000
00000000
00000100
00000000
00000100
00000001
,
00000000
00000001
00000000
00000001
00000100
00001000
00010000
00000000
,
00010000
00000000
01000000
00000000
10000000
00000000
10000000
01000000
,
00000000
00010000
00000000
00010000
01000000
00000000
10000000
00000000
,
10010000
00000000
01000000
00000000
01100000
00000000
00000000
01000000
,
00000000
00100000
00000000
01000000
10000000
00100000
10000000
01000000
,
10000000
00000000
00000000
01000000
00000000
00000000
01000000
00000000
,
01000000
00000000
00000000
00010000
00000000
00000000
00010000
00000000
,
00010000
00000000
00000000
00001000
00000000
00000000
00010000
00000000
,
00010000
00011000
00001000
00011000
,
00010000
00000000
00001000
00000000
00010000
00001000
00010000
00000000
,
00001000
00000000
00000010
00000000
00001000
00000010
00001000
00000000
,
00000010
00000000
00000100
00000000
00000010
00000100
00000010
00000000
,
00001000
00000000
00000100
00000000
00001000
00000100
00001000
00000000
,
00001000
00000000
00010000
00000000
00001000
00010000
00001000
00000000
,
00010000
00000000
00100000
00000000
00010000
00100000
00010000
00000000
,
00100000
00000000
01000000
00000000
00100000
01000000
00100000
00000000
,
00010000
00100000
10000000
00000000
10010000
00000000
01100000
00000000
,
10010000
00000000
00000000
01000000
00000000
00000000
00000000
00000000
,
00011000
00000000
00000000
00011000
00000000
00000000
00000000
00000000
,
00001001
00000000
00000000
00000100
00000000
00000000
00000000
00000000
,
00011000
00010000
00001000
00011000
,
00022000
00000000
00000000
00000000
,
00000000
00000000
00000000
00033000
,
10010000
00000000
00100000
00000000
01100000
00000000
00000000
00100000
,
00000000
01000000
00000000
00100000
10000000
01000000
10000000
00100000
,
10000000
00000000
01000000
00000000
10000000
00000000
10000000
01000000
,
00000000
00010000
00000000
00010000
01000000
00000000
10000000
00000000
,
00100000
00000000
00010000
00000000
00100000
00000000
00100000
10000000
,
00000000
10000000
00000000
10000000
00100000
00010000
00001000
00000000
,
00001000
00000000
00000010
00000000
00000001
00000000
00000001
00000010
,
00000000
00001000
00000000
00001000
00000010
00000000
00000001
00000000
,
00001001
00000000
00000010
00000000
00000110
00000000
00000000
00000010
,
00000000
00000100
00000000
00000010
00000001
00000100
00000001
00000010
,
00001001
00000000
00000110
00000000
,
00011000
00000000
01100000
00000000
,
10010000
00000000
00000000
00000000
,
00100000
10000000
00000000
00010000
00000000
10000000
00010000
10000000
,
10010000
00000000
01100000
00000000
,
00011000
00000000
00000110
00000000
,
00001001
00000000
00000010
00000000
00000110
00000000
00000000
00000010
,
00000000
00000100
00000000
00000010
00000001
00000100
00000001
00000010
,
00002002
00000000
00000000
00003003
;

//---------------dance-double - ----------------
#NOTES:
     dance-double:
     :
     Hard:
     9:
     :
00000000
00000000
00000000
00000000
,
00000000
00000000
00000000
00000000
,
00000000
00000000
00000000
00000000
,
00000000
00000000
00000000
00000000
,
00010000
00000000
00000000
00001000
00010000
00000000
00000000
00000000
01000000
00000000
00000000
00010000
01000000
00000000
00000000
00000000
,
10000000
00000000
00000000
10000000
,
01000000
10000000
01000000
00010000
,
00001000
00000000
00010000
00000000
01000000
00000000
01000000
00010000
,
00001000
00000000
00000000
00000000
00000100
00000000
00000000
00000000
00000001
00000000
00000000
00000000
00001000
00000000
00000010
00001000
,
00000010
00000000
00000000
00000000
00000000
00000000
00000100
00000000
00000001
00000000
00001000
00000001
00001000
00000000
00000001
00001000
,
00000001
00000000
00001000
00000000
00000000
00000001
00000000
00000000
00000100
00000000
00000000
00001000
00000000
00000000
00010000
00000000
,
00000000
00000000
00010000
00000000
00000000
01000000
00000000
00000000
10000000
00000000
00000000
00100000
00000000
00000000
00010000
00000000
,
00000000
00000000
00001000
00000000
00000000
00000010
00000000
00000000
00001000
00000000
00000000
00010000
00000000
00000000
00100000
00000000
,
00000000
00000000
10000000
00000000
00000000
01000000
00000000
00000000
10000000
00000000
00000000
01000000
00000000
00000000
00100000
00000000
,
00000000
00000000
01000000
00000000
00000000
00010000
00000000
00000000
00001000
00000000
00000000
00000100
00000000
00000000
00000001
00000000
,
00000000
00000000
00000010
00000000
00000000
00000100
00000000
00000000
00001000
00000000
00000000
00000001
00000000
00000000
00000100
00000000
,
00000000
00000000
00001000
00000000
00000000
00010000
00000000
00000000
00001000
00000000
00000000
00010000
00000000
00000000
01000000
00000000
,
00000000
10000000
00000000
01000000
00010000
00001000
00000100
00000010
,
00000100
00000000
00001000
00000000
00011000
00000000
01000000
01000000
,
00000000
00010000
00000000
01000000
10000000
00000000
01000000
00000000
,
00010000
00000000
10000000
00000000
01000000
00000000
10000000
01000000
,
00000000
10000000
00000000
10000000
01000000
00010000
00001000
00000000
,
00010000
00000000
00001000
00000000
00010000
00000000
00001000
00001000
,
00000000
00000100
00000000
00001000
00001000
00000000
00000100
00000000
,
00000010
00000000
00001001
00000000
00001100
00000000
00000000
00001000
,
00000000
00010000
00000000
01000000
10000000
00100000
10000000
01000000
,
00010000
00000000
01000000
00000000
10000000
00000000
01000000
10000000
,
00000000
01000000
00000000
00010000
00001000
00000000
00010000
00000000
,
00001000
00000000
00000100
00000000
00000001
00000000
00000100
00000001
,
00000000
00000001
00000000
00000010
00000001
00000100
00001000
00000000
,
00001000
00000000
00010000
00000000
00100000
00000000
10000000
00100000
,
00000000
00100000
00000000
00010000
00001000
00000000
00001000
00000000
,
00010000
00000000
01000000
00000000
00010000
00000000
00000000
01000000
,
00000000
00100000
00000000
01000000
00010000
00001000
00000100
00001000
,
00000100
00000000
00000001
00000000
00000100
00000000
00000010
00001000
,
00000000
00000100
00000000
00010000
00010000
00000000
01000000
00000000
,
10000000
00000000
01000000
00000000
10000000
00000000
01000000
00010000
,
00000000
00010000
00000000
00001000
00000100
00001000
00000100
00000000
,
00000010
00000000
00001000
00000000
00000100
00000000
00000100
00001000
,
00000000
00001000
00000000
00001000
00000100
00000000
00000010
00000000
,
00000001
00000000
00000001
00000000
00000100
00000000
00000000
00001000
,
00000000
00001000
00000000
00001000
00010000
01000000
10000000
01000000
,
10000000
00000000
00100000
01000000
00000000
00000000
00010000
00010000
,
01000000
00000000
00010000
01000000
00000000
00000000
00100000
10000000
,
01000000
00000000
00010000
00001000
00000000
00000000
00001000
00000000
,
00010000
00000000
00000000
00000000
00000000
00000000
00001000
00000000
00001000
00000000
00000000
00100000
00000000
00000000
00010000
00000000
,
00100000
00000000
00010000
00000000
01000000
00010000
01000000
00000000
00010000
00000000
00000000
01000000
00000000
00000000
00010000
00000000
,
01000000
00000000
00010000
00000000
01000000
00100000
01000000
00000000
00100000
00000000
00000000
00010000
00000000
00000000
00001000
00000000
,
00010000
00000000
00001000
00000000
00010000
00001000
00010000
00000000
00001000
00000000
00000000
00010000
00000000
00000000
00001000
00000000
,
00001000
00000100
00000001
00000010
,
00001000
00000000
00000010
00000000
00000001
00000010
00000001
00000000
00000010
00000000
00000000
00000001
00000000
00000000
00001000
00000000
,
00000001
00000000
00001000
00000000
00000001
00001000
00000001
00000000
00001000
00000000
00000000
00000001
00000000
00000000
00001000
00000000
,
00000100
00000000
00000010
00000000
00000001
00000010
00000001
00000000
00000010
00000000
00000000
00000001
00000000
00000000
00000010
00000000
,
00001000
00000010
00000001
00001000
,
00000000
00000000
00000001
00001000
00000000
00000000
00001001
00000000
,
00001100
00000000
00000100
00001000
00000000
00000000
00010000
00001000
,
00000000
00000000
00010000
00001000
00000000
00000000
00020000
00000000
,
00001000
00000100
00001000
00031000
,
00022000
00000000
00000000
00000000
,
00000000
00000000
00000000
00033000
,
00010000
00000000
00011000
00000000
00001100
00000000
00000000
00000010
,
00000000
00000010
00000000
00001000
00000001
00000100
00001000
00010000
,
00001000
00000000
00010000
00000000
00001000
00000000
00010000
00001000
,
00000000
00001000
00000000
00001000
00000100
00000000
00000001
00000000
,
00000100
00000000
00001100
00000000
00011000
00000000
00010000
01000000
,
00000000
00010000
00000000
00010000
01000000
10000000
01000000
00000000
,
01000000
00000000
01010000
00000000
11000000
00000000
01000000
00010000
,
00000000
00010000
00000000
00001000
00000100
00000000
00000001
00000000
,
00000010
00000000
00001001
00000000
00001010
00000000
00000000
00000100
,
00000000
00001000
00000000
00010000
00001000
00010000
00001000
00010000
,
00011000
00000000
10010000
00000000
,
00011000
00000000
00001001
00000000
,
00022000
00000000
00000000
00033000
,
00010000
01000000
00000000
00010000
00000000
00010000
00001000
00010000
,
00011000
00000000
00000110
00000000
,
00011000
00000000
01100000
00000000
,
00100000
00000000
10010000
00000000
01010000
00000000
00000000
00100000
,
00000000
10000000
00000000
01000000
00010000
00001000
00000100
00000001
,
00000010
00000000
00000000
00000000
;
