#TITLE:Sleepwalker;
#ARTIST:Perfect Ending;
#BANNER:Sleepwalker.png;
#BACKGROUND:Sleepwalker-bg.png;
#CDTITLE:./CDTITLES/DANCE DANCE REVOLUTION ULTRAMIX 2.PNG;
#MUSIC:Sleepwalker.ogg;
#SAMPLESTART:46.722;
#SAMPLELENGTH:15;
#DISPLAYBPM:90:180;
#BPMS:0=90,40=180,104=90,120=180,184=90;

//---------------dance-single - ----------------
#NOTES:
     dance-single:
     :
     Beginner:
     2:
     :
0000
0000
0000
0000
,
0000
0000
0000
0000
,
0000
0000
0000
0000
,
0000
0000
0000
0000
,
0001
0000
1000
0000
,
0100
0000
1000
0000
,
0010
0000
0100
0000
,
0001
0000
0100
0000
,
1000
0000
0001
0000
,
1000
0000
1000
0000
,
1000
0000
1000
0000
,
0001
0000
0001
0000
,
0001
0000
0001
0000
,
1000
0000
0001
0000
,
1000
0000
0010
0000
,
1000
0000
0010
0000
,
0100
0000
0100
0000
,
0110
0000
0000
0000
,
0001
0000
0000
0001
,
0000
0100
0000
0010
,
0000
1000
0000
0100
,
0000
0001
0000
1000
,
0000
0100
0000
0010
,
0000
0100
0000
0010
,
0000
0100
0000
1000
,
0000
0000
0000
0000
,
1000
0001
1000
0000
,
0010
0100
0010
0000
,
1000
0001
1000
0000
,
0100
0010
0100
0000
,
0100
0000
0001
0000
,
0100
0000
1000
0000
,
0010
0000
0001
0000
,
0010
0000
1000
0000
,
0001
0000
1000
0000
,
1000
0000
0001
0000
,
0100
0000
0010
0000
,
0010
0000
0100
0000
,
1000
0000
0010
0000
,
0001
0000
0010
0000
,
0100
0000
0100
0000
,
1001
0000
0010
0000
,
0100
0000
1000
0000
,
0010
0000
0100
0000
,
0010
0000
0100
0000
,
0001
0000
1000
0000
,
1000
0100
0001
0000
,
0100
0010
1000
0000
,
0100
0010
0001
0000
,
0001
1000
0001
0000
,
1000
0001
1000
0000
,
0001
0001
0110
1000
,
1000
0000
0010
0010
,
1001
0100
0100
0000
,
1001
1000
0001
0000
,
0001
1000
0000
0000
;

//---------------dance-single - ----------------
#NOTES:
     dance-single:
     :
     Easy:
     3:
     :
0000
0000
0000
0000
,
0000
0000
0000
0000
,
0000
0000
0000
0000
,
0000
0000
0000
0000
,
0001
0000
1000
0000
,
0100
0000
1000
0000
,
0010
0000
0100
0000
,
0001
0000
0100
0000
,
1000
0000
0001
0000
,
1000
0000
1000
0000
,
1000
0000
1000
0000
,
0001
0000
0001
0000
,
0001
0000
0001
0000
,
1000
0000
0001
0000
,
1000
0000
0010
0000
,
1000
0000
0010
0000
,
0100
0010
0100
0010
,
0220
0000
0000
0330
,
0001
1000
0000
0001
,
0010
0100
0000
0010
,
0100
1000
0000
0100
,
1000
0001
0000
1000
,
0001
0100
0000
0010
,
1000
0100
0000
0010
,
0001
0100
0010
1000
,
2002
0000
0000
3003
,
1000
0001
1000
0000
,
0010
0100
0010
0000
,
1000
0001
1000
0000
,
0100
0010
0100
0000
,
0100
0010
0001
0000
,
0100
0010
1000
0000
,
0010
0100
0001
0000
,
0010
0100
1000
0000
,
0001
0001
1000
0000
,
1000
1000
0001
0000
,
0100
0100
0010
0000
,
0010
0010
0100
0000
,
1000
0001
0010
0000
,
0001
1000
0010
0000
,
0100
0010
0100
0010
,
2002
3003
0010
0001
,
0100
0001
1000
0000
,
0010
1000
0100
0000
,
0010
0001
0100
0000
,
0001
0100
1000
0000
,
1000
0100
0001
0000
,
0100
0010
1000
0000
,
0100
0010
0001
0000
,
0001
1000
0001
0000
,
1000
0001
1000
0000
,
0001
0001
0110
1000
,
1000
0000
0010
0010
,
1001
0100
0100
0000
,
1001
1000
0001
0000
,
0002
2000
0000
0000
,
3003
0000
0000
0000
;

//---------------dance-single - ----------------
#NOTES:
     dance-single:
     :
     Medium:
     5:
     :
0000
0000
0000
0000
,
0000
0000
0000
0000
,
0000
0000
0000
0000
,
0000
0000
0000
0000
,
2001
0000
0000
3001
,
0010
0100
0001
1000
,
1002
0000
0000
0103
,
0001
1000
0001
0010
,
0120
0000
0000
0031
,
1000
0010
1000
0010
,
0100
0100
0001
0100
,
0010
1000
0001
0001
,
1000
0001
0100
0010
,
1000
1000
0001
1001
,
0010
0110
0100
0001
,
1000
0100
1000
0001
,
0010
0100
1000
0010
,
0100
0001
0010
0100
,
0100
0110
0001
1000
,
1000
0001
0010
0100
,
1000
0010
0100
0001
,
0001
0010
0100
1000
,
0001
1001
0100
0010
,
0100
0010
1000
0010
,
1000
0010
0100
0001
,
0100
0010
1001
0110
,
1001
0010
0010
0001
0001
1000
0100
0000
,
0000
1000
1000
0001
0001
0010
0100
0000
,
0000
1000
1000
0010
0010
0100
0001
0000
,
0101
1100
2002
3003
,
0010
0100
0001
1000
,
0010
1000
0010
1000
,
0101
0000
1100
0000
,
0001
0010
0100
1100
,
1100
0000
0010
0001
,
1000
0001
0010
0001
,
1000
0100
0010
0010
,
0100
0100
1000
0001
,
1001
0010
0010
0100
,
0100
0001
0001
1000
,
1000
0001
1000
0001
,
1000
0010
0100
0001
,
0101
1000
0010
0100
,
0010
1000
0001
0100
,
0001
0001
1000
1000
,
0001
0001
1000
1000
,
0210
0000
0010
0310
,
1000
0100
0010
0000
1000
0100
0010
0000
,
0012
0000
1000
1003
,
0010
0100
0010
1000
,
0101
0110
0101
0110
,
1000
0000
0010
0100
0010
0000
0100
0000
,
1002
0000
0010
0013
,
0001
0010
0100
1000
,
0010
0100
0001
1000
,
2200
0000
0000
0000
,
3300
0000
0000
0000
;

//---------------dance-single - ----------------
#NOTES:
     dance-single:
     :
     Hard:
     8:
     :
0000
0000
0000
0000
,
0000
0000
0000
0000
,
0000
0000
0000
0000
,
0000
0000
0000
0000
,
2002
3003
0010
0100
,
0001
0000
0000
1000
0000
0000
0100
0000
1000
0000
0000
0001
0000
0000
0100
0000
,
0220
0330
0110
0110
,
0010
1000
0000
1000
0010
0000
0000
0000
0100
0000
0000
0100
0000
0000
0010
0000
,
2002
3003
1001
1001
,
1000
0001
0000
0001
0100
0000
0000
0000
0001
0000
0010
0000
0100
0000
0000
0000
,
1000
0010
0100
0001
0010
0100
1000
0010
,
0100
0001
0100
1000
0100
0001
0010
1000
,
0010
0001
0100
1000
0100
0001
0010
0100
,
1000
0010
0100
0000
1001
0000
0110
0000
,
0001
0001
0100
0100
0010
0010
1000
1000
,
0100
0010
0001
0100
0010
1000
0100
0010
,
0100
0100
1000
1000
0001
0001
0100
0100
,
0010
1000
0100
0000
1100
0000
0101
0000
,
1010
1001
0101
1100
,
1000
0010
0001
0100
0000
0000
0000
0000
,
0001
0010
1000
0100
0000
0000
0000
0000
,
1000
0100
0010
0001
0100
0000
0110
0000
,
0000
0000
0000
0000
1000
0100
0000
0010
,
0000
0001
0000
0100
0000
0001
0000
0200
,
0000
0000
0000
0001
0000
0001
0300
0002
,
0000
0000
0103
0110
,
0000
0000
0010
1000
0100
0000
0010
0001
0100
0000
0000
0000
0100
0000
0000
0000
,
0000
0000
1000
1000
0100
0000
0001
0001
0100
0000
1001
0000
1001
0000
0000
0000
,
0000
0000
0001
0100
1000
0000
1000
0100
0001
0000
0100
0000
0010
1000
0000
0100
,
0000
0000
0000
0000
1100
0000
0000
0000
1100
0000
0000
0000
0100
1000
0001
0000
,
0000
0000
0100
0001
0100
0001
0100
0001
,
0100
0010
1000
0010
1000
0010
1000
0010
,
1000
0001
0100
0001
0100
0001
0100
0001
,
0100
1010
1001
0101
,
0001
0100
0001
0000
1000
0100
1000
0000
,
0001
0010
0001
0000
1000
0010
1000
0000
,
0001
0100
0200
0000
0000
0000
0300
0000
,
1010
0000
0110
0000
0000
0100
0010
1000
,
0001
0100
0010
1000
0001
0100
0001
0100
,
0001
0100
0001
0100
0010
0100
0010
0000
,
0110
0000
1010
0000
0010
1000
0100
0000
,
1100
1010
1001
0101
,
0202
0000
0303
0000
0000
0000
0100
0010
,
0100
0010
0100
0001
0010
0100
1000
0000
,
0001
0001
0001
0000
1000
1000
1000
0000
,
1001
0110
1001
0000
,
0220
0330
0010
0010
,
1000
0000
0001
0100
0000
0000
0010
0000
,
2002
3003
0010
0010
,
0100
0000
0010
1000
0000
0000
0100
1001
,
0101
0000
0000
1001
1100
0000
0000
0000
,
0200
0000
0300
0000
1000
0010
0100
0001
,
1000
0000
0000
1001
0000
0101
0000
0220
0000
0000
0000
0000
0330
0000
0000
0000
,
0200
0300
1001
1001
,
0001
0000
0000
0100
0000
0000
0010
0000
0000
0000
0110
0000
0110
0000
0100
0000
,
0001
0000
0000
1000
0000
0000
0200
0000
0000
0000
0000
0000
0000
0000
0000
0000
,
0300
0000
0000
0000
;

//---------------dance-double - ----------------
#NOTES:
     dance-double:
     :
     Beginner:
     2:
     :
00000000
00000000
00000000
00000000
,
00000000
00000000
00000000
00000000
,
00000000
00000000
00000000
00000000
,
00000000
00000000
00000000
00000000
,
00010000
00000000
00001000
00000000
,
00000100
00000000
00000001
00000000
,
00000010
00000000
00001000
00000000
,
00010000
00000000
01000000
00000000
,
10000000
00000000
00010000
00000000
,
00001000
00000000
00000001
00000000
,
00000000
00000010
00000000
00010000
,
00000000
00001000
00000000
00100000
,
00000000
00010000
00000000
10000000
,
00000000
01000000
00000000
00010000
,
00000000
00011000
00000000
00000000
,
00000000
00000010
00000000
00000100
,
00000000
00000001
00000000
00001000
,
00000000
00000010
00000000
00000100
,
00000000
00000110
00000000
00000010
,
00000000
00001000
00000000
00010000
,
00000000
00100000
00000000
10000000
,
00000000
01000000
00000000
00010000
,
00000000
01000000
00000000
10000000
,
00000000
00010000
00000000
00001000
,
00000000
00000100
00000000
00000001
,
00000000
00001000
00000000
00000001
,
00000000
00000001
00000000
00001001
,
00010000
00001000
00000000
00011000
,
00100000
10000000
00000000
10010000
,
01000000
00010000
00000000
01100000
,
00010000
00000000
00000000
00000000
,
00001000
00000000
00000000
00000000
,
00000100
00000000
00000000
00000000
,
00000010
00000000
00000000
00000000
,
00000001
00000000
00001000
00000000
,
00001000
00000000
01000000
00000000
,
10000000
00000000
00010000
00000000
,
00010000
00000000
00000010
00000000
,
00000010
00000000
00000100
00000000
,
00000010
00000000
00001000
00000000
,
00010000
00000000
10000000
00000000
,
00100000
00000000
01000000
00000000
,
00100000
00000000
01000000
00000000
,
10000000
00000000
00010000
00000000
,
00010000
00000000
00001000
00000000
,
00000001
00000000
00000001
00000000
,
00001000
00000000
00000010
00000000
,
00000001
00000000
00000100
00000000
,
00001000
00000000
00010000
00000000
,
00100000
00000000
10000000
00000000
,
00010000
00000000
01000000
00000000
,
10000000
00000000
01000000
00000000
,
00100000
00000000
00001000
00000000
,
00010000
00000000
00001000
00000000
,
00010000
00000000
00000000
00100000
,
00100000
01000000
00000000
00000000
;

//---------------dance-double - ----------------
#NOTES:
     dance-double:
     :
     Easy:
     3:
     :
00000000
00000000
00000000
00000000
,
00000000
00000000
00000000
00000000
,
00000000
00000000
00000000
00000000
,
00000000
00000000
00000000
00000000
,
00010000
00000000
00001000
00000000
,
00000100
00000000
00000001
00000000
,
00000010
00000000
00001000
00000000
,
00010000
00000000
01000000
00000000
,
10000000
00000000
00010000
00000000
,
00001000
00000000
00000001
00000000
,
00000000
00000010
00000000
00010000
,
00000000
00001000
00000000
00100000
,
00000000
00010000
00000000
10000000
,
00000000
01000000
00000000
00010000
,
00000000
00011000
00000000
00000000
,
00000000
00000010
00000000
00000100
,
00000000
00000001
00000000
00001000
,
00000000
00000010
00000000
00000100
,
00000000
00000110
00000000
00000010
,
00000000
00001000
00000000
00010000
,
00000000
00100000
00000000
10000000
,
00000000
01000000
00000000
00010000
,
00000000
01000000
00000000
10000000
,
00000000
00010000
00000000
00001000
,
00000000
00000100
00000000
00000001
,
00000000
00001000
00000001
00000001
,
00000100
00000001
00000000
00001010
,
00010000
00001000
00000000
00011000
,
00100000
10000000
00000000
10100000
,
01000000
00010000
00000000
01010000
,
00010000
00010000
00000000
00000000
,
00001000
00001000
00000000
00000000
,
00000100
00000100
00000000
00000000
,
00000010
00000010
00000000
00000000
,
00000001
00000100
00001000
00000000
,
00001000
00010000
01000000
00000000
,
10000000
00100000
00010000
00000000
,
00010000
00001000
00000010
00000000
,
00000010
00000001
00000100
00000000
,
00000010
00010000
00001000
00000000
,
00010000
01000000
10000000
00000000
,
00100000
10000000
01000000
00000000
,
00100000
00010000
01000000
00000000
,
10000000
01000000
00010000
00000000
,
00010000
00000100
00001000
00000000
,
00000001
00000000
00000001
00000001
,
00001000
00000000
00000010
00000000
,
00000001
00000000
00000100
00000000
,
00001000
00000000
00010000
00000000
,
00100000
00000000
10000000
00000000
,
00010000
00000000
01000000
00000000
,
10000000
00000000
01000000
00000000
,
00100000
00000000
00001000
00000000
,
00010000
00000000
00001000
00000000
,
00010000
00000000
00000000
00100000
,
00200000
02000000
00000000
00000000
,
03300000
00000000
00000000
00000000
;

//---------------dance-double - ----------------
#NOTES:
     dance-double:
     :
     Medium:
     6:
     :
00000000
00000000
00000000
00000000
,
00000000
00000000
00000000
00000000
,
00000000
00000000
00000000
00000000
,
00000000
00000000
00000000
00000000
,
00010000
00000010
00000100
00000000
00001000
01000000
00100000
00000000
,
10000000
00010000
00100000
00000000
00001000
00000010
00000001
00000000
,
00000010
00000100
00001000
00000000
00100000
00010000
01000000
00000000
,
10000000
01000000
00010000
00000000
00000100
00000010
00000001
00000000
,
00000001
00001000
00000100
00000000
00010000
01000000
10000000
00000000
,
10000000
01000000
00010000
00000000
00001000
00000100
00000001
00000000
,
00000010
00001000
00010000
00100000
,
00010000
00001000
00000100
00000001
,
00000100
00001000
00010000
01000000
,
00010000
00001000
00000010
00000001
,
00000010
00000110
00001000
00001000
,
00000100
00001000
00001000
00010000
,
01000000
10000000
00100000
00010000
,
00010000
10000000
11000000
01010000
,
00000000
01100000
00010000
00010000
,
00001000
00000010
00000001
00000100
,
00001000
00010000
00100000
10000000
,
01000000
00010000
00001000
00010000
,
00000000
00011000
00001000
00000100
,
00000001
00000010
00000100
00000100
,
00001000
00010000
00100000
00100000
,
01000000
10000000
11000000
11000000
,
01000000
01000000
01010000
00000000
00100000
00100000
00101000
00000000
,
00010000
00010000
00011000
00000000
00000010
00000010
00000110
00000000
,
00000001
00000001
00000011
00000000
00001000
00001000
00001001
00000000
,
00000100
00000100
00010100
00000000
00001000
00001000
00011000
00000000
,
00010000
01000000
10000000
11000000
,
01000000
00010000
00001000
00011000
,
00001000
00000010
00000001
00000011
,
00000001
00000100
00001000
00001100
,
00010000
00100000
10000000
10100000
,
01000000
00010000
00100000
01100000
,
00010000
00001000
00000100
00000110
,
00000010
00001000
00000001
00001001
,
00000101
00001100
00000001
00000100
,
00001000
00010000
00011000
00011000
,
01000000
10000000
11000000
10100000
,
00110000
00101000
00010000
00001000
,
00000010
00000001
00000011
00000101
,
00000001
00001000
00001100
00010100
,
00011000
00000100
00001100
00010000
,
00011000
01000000
01010000
00100000
,
00010000
01000000
00100000
00000000
10000000
00010000
01000000
00000000
,
00001000
00010000
00000100
00000000
00001000
00010000
01000000
00000000
,
10000000
01000000
00100000
00000000
00010000
00001000
00000100
00000000
,
00001000
00010000
01000000
00000000
01000000
00010000
00001000
00000000
,
00010000
00001000
01000000
00000000
00001000
00010000
00000100
00000000
,
00010000
00001000
00000010
00000000
00000010
00001000
00010000
00000000
,
00001000
00010000
00100000
00000000
00100000
00010000
00001000
00000000
,
00000010
00000001
00000100
00000000
00000010
00001000
00000100
00000000
,
00000010
00000000
00000000
00001000
00000000
00000000
00001000
00000000
00000000
00000000
00000001
00000000
00000100
00000000
00001000
00000000
,
00100000
00000000
00000000
01000000
00000000
00000000
20000000
00000000
00000000
00000000
00000000
00000000
00000000
00000000
00000000
00000000
,
30000000
00000000
00000000
00000000
;

//---------------dance-double - ----------------
#NOTES:
     dance-double:
     :
     Hard:
     8:
     :
00000000
00000000
00000000
00000000
,
00000000
00000000
00000000
00000000
,
00000000
00000000
00000000
00000000
,
00000000
00000000
00000000
00000000
,
00002002
00003003
00000100
00000010
,
00001000
00000000
00000000
00000001
00000000
00000000
00000010
00000000
00000001
00000000
00000000
00001000
00000000
00000000
00000000
00000000
,
00001002
00000000
00000100
00000103
00000000
00000010
00001000
00000100
,
00020000
00000000
00001000
00031000
00000000
01000000
00010000
10000000
,
02000000
00000000
00100000
03100000
00000000
00010000
10000000
01000000
,
20000000
00000000
00010000
30010000
00000000
00100000
00010000
01000000
,
00100000
10000000
00100000
01000000
00100000
10000000
01000000
10000000
,
00100000
10000000
01000000
10000000
00100000
01000000
00010000
01000000
,
00100000
01000000
00010000
01000000
00100000
01000000
10000000
01000000
,
00100000
01000000
00001000
00020000
00001000
00032000
00010000
00013000
,
00000000
00000000
00011000
00000000
00010000
00001000
00010000
00000100
,
00010000
00001000
00010000
00000100
00001000
00000100
00000010
00000100
,
00001000
00000100
00000010
00000001
00000010
00000100
00000010
00000001
,
00000100
00001000
00000100
00000002
00001000
00002003
00000001
00003001
,
00000000
00000000
00001001
00000000
00000010
00000100
00000001
00000100
,
00000010
00000100
00001000
00000100
00000010
00001000
00000100
00001000
,
00000001
00001000
00000100
00001000
00000010
00001000
00000100
00010000
,
00001000
00010000
00000100
00020000
00001000
00032000
00010000
00013000
,
00000000
00000000
00011000
00000000
00001000
00010000
00001000
01000000
,
00001000
00010000
00001000
00100000
00010000
00100000
01000000
00100000
,
10000000
00100000
00010000
01000000
10000000
01000000
00010000
01000000
,
00100000
10000000
00100000
01000000
10010000
00000000
10010000
00000000
,
00000000
00000000
10000000
01000000
00100000
00000000
00010000
01000000
00100000
00000000
01000000
00000000
00010000
10000000
00000000
01000000
,
00000000
00000000
10000000
00100000
01000000
00000000
00010000
00100000
01000000
00000000
00100000
00000000
00010000
10000000
00000000
00100000
,
00000000
00000000
10000000
01000000
00010000
00000000
00001000
00000100
00000001
00000000
00000100
00000000
00000001
00001000
00000000
00000010
,
00000000
00000200
00000000
00000000
00000000
00000000
00000000
00000000
00000300
00000000
00000000
00000000
00000000
00000010
00001000
00000001
,
00000100
00000010
00001000
00000100
00000010
00000001
00000100
00000010
,
00001000
00000100
00000010
00000001
00000100
00001000
00010000
01000000
,
10000000
00100000
01000000
00010000
00100000
01000000
10000000
00100000
,
01000000
00010000
00100000
01000000
10000000
01000000
10010000
00000000
,
10010000
00000000
00100000
00010000
10000000
01000000
00100000
00010000
,
01000000
00100000
10000000
01000000
00100000
00010000
01000000
00100000
,
10000000
01000000
00010000
00001000
00000100
00000001
00000010
00000100
,
00001000
00000010
00000100
00000001
00000010
00000100
00000110
00000000
,
00000110
00000000
00000010
00000001
00000100
00001000
00010000
01000000
,
00010000
00001000
00000100
00001000
00010000
00100000
00010000
00001000
,
00000010
00001000
00010000
01000000
10000000
00100000
10000000
01000000
,
00010000
00001000
00010000
01000000
10000000
00100000
10010000
00000000
,
10010000
00000000
00000000
00000000
00000000
00000000
00100000
10000000
,
01000000
00010000
00000000
00002000
00000000
00003200
00000000
00000302
,
00000000
00000023
00000000
00000030
00000000
00000000
00000000
00000000
,
00000100
00010000
00001000
01000000
,
20010000
00000000
00100000
30100000
00000000
01000000
00010000
00100000
,
00002000
00000000
00010000
00013000
00000000
00000010
00001000
00000001
,
00000020
00000000
00000100
00000130
00000000
00001000
00000001
00000010
,
00000002
00000000
00001000
00001003
00000000
00000100
00001000
00000010
,
00000100
00000000
00000000
00000001
00001000
00000000
00000000
00000000
,
00000000
00000000
00000000
00000000
00000000
00000000
00000001
00000100
00000010
00001000
00000000
00000001
00000000
00000100
00000000
00001000
,
00010000
00001000
00000000
00010000
00000000
01000000
00000000
10000000
00000000
00100000
00000000
00000000
00000000
00000000
00000000
00000000
,
20010000
00000000
00000000
01000000
00000000
00000000
31000000
00000000
00000000
00000000
00010000
00000000
00001000
00000000
00000100
00000000
,
00001002
00000000
00000000
00000100
00000000
00000000
00000103
00000000
00000000
00000000
00001000
00000000
00010000
00000000
00001000
00000000
,
00021000
00000000
00000000
00001000
00000000
00000000
00002000
00000000
00000000
00000000
00000000
00000000
00000000
00000000
00000000
00000000
,
00033000
00000000
00000000
00000000
;
