#TITLE:Skulk;
#ARTIST:echo !mage;
#BANNER:Skulk.png;
#BACKGROUND:Skulk-bg.png;
#CDTITLE:./CDTITLES/DANCE DANCE REVOLUTION ULTRAMIX 2.PNG;
#MUSIC:Skulk.ogg;
#SAMPLESTART:77.389;
#SAMPLELENGTH:15;
#DISPLAYBPM:135;
#BPMS:0=135.29;

//---------------dance-single - ----------------
#NOTES:
     dance-single:
     :
     Beginner:
     1:
     :
0000
0000
0000
0000
,
0000
0000
0000
0000
,
0000
0000
0000
0000
,
0000
0000
0000
0000
,
0000
0000
0000
0000
,
0010
0000
0000
1000
,
0000
0000
0000
0010
,
0000
0000
0000
1000
,
0000
1000
0000
1000
,
0000
0010
0000
1000
,
0000
1000
0000
0010
,
0000
1000
0000
0010
,
0000
0100
0000
1000
,
0000
1000
0000
0100
,
0000
0010
0000
0010
,
0000
1000
0000
0010
,
0000
0010
0000
1000
,
0000
0000
1000
0000
,
0001
0000
0100
0000
,
1001
0000
0000
0000
,
0010
0000
0001
0000
,
0010
0000
1000
0000
,
0010
0000
0010
0000
,
0100
0000
1000
0000
,
1000
0000
0000
0000
,
0010
0000
0000
0000
,
1000
0000
0010
0000
,
1000
0000
1000
0000
,
0010
0000
0010
0000
,
0100
0000
1000
0000
,
0010
0000
0000
0100
,
0000
0000
0000
0001
,
0000
0100
0000
0001
,
0000
0010
0000
0001
,
0000
0010
0000
0100
,
0000
0000
0000
0000
,
0001
0000
1000
0000
,
1000
0000
0001
0000
,
0010
0000
0100
0000
,
0110
0000
0110
0000
,
0100
0000
0001
0000
,
0001
0000
0001
0000
,
0001
0000
0001
0000
,
1001
0000
0000
0000
,
1000
0000
0001
0000
,
1000
0000
0001
0000
,
1000
0000
0100
0000
,
0010
0000
0001
0000
,
0001
0000
1000
0000
,
1000
0000
1000
0000
,
0010
0000
0010
0000
,
0000
0000
0000
0000
,
0001
0000
0000
0010
,
0000
1000
0000
1000
,
0000
0100
0000
0100
,
0000
1000
0000
1000
,
0000
0001
0000
0010
,
0000
0000
0000
0100
,
0000
0010
0000
0000
,
0000
0000
0000
0000
,
0001
0000
0000
1000
,
0000
0000
0000
0000
,
0100
0000
0000
0000
;

//---------------dance-single - ----------------
#NOTES:
     dance-single:
     :
     Easy:
     4:
     :
0000
0000
0000
0000
,
0000
0000
0000
0000
,
0000
0000
0000
0000
,
0000
0000
0000
0000
,
0000
0000
0000
0000
,
0020
0000
0000
1030
,
0200
0000
0000
0310
,
0002
0000
0000
1003
,
0001
1000
0100
1000
,
0002
0010
0010
1003
,
0200
1000
1000
0310
,
0001
1000
1000
0010
,
0001
0100
0010
1000
,
0001
1000
0010
0100
,
0100
0010
0100
0010
,
0010
1000
0100
0010
,
0001
0010
0100
1000
,
0002
0003
2000
3000
,
0002
0003
0200
0300
,
2002
0000
0000
3003
,
0010
0100
0001
0001
,
0010
0100
1000
1000
,
0010
0100
0010
0010
,
0100
0001
1000
1000
,
2000
0000
0000
3000
,
0020
0000
0000
0030
,
1000
0001
0010
0001
,
1000
0010
1000
0100
,
0010
1000
0010
0100
,
0100
0001
1000
0010
,
0020
0000
0000
0130
,
0200
0000
0000
0301
,
1100
0100
1000
0001
,
0110
0010
0100
0001
,
1010
0010
1000
0100
,
2002
0000
0000
3003
,
0001
0001
2000
3000
,
1000
1000
0002
0003
,
0010
1000
0200
0300
,
0110
1001
0110
1001
,
0100
1000
0001
0001
,
0001
1000
0001
0001
,
0001
0010
0001
0001
,
2002
0000
0000
3003
,
1000
0100
0001
0100
,
1000
1000
0001
0001
,
1000
0100
0100
1000
,
0010
0100
0001
0101
,
0001
0100
1000
0100
,
1000
0001
1000
1000
,
0010
0100
0020
0000
,
0000
0000
0000
0030
,
0001
0010
0000
0010
,
0100
1000
0000
1000
,
0010
0100
0000
0100
,
0001
1000
0000
2000
,
3000
0001
0001
0020
,
0000
0000
0030
0100
,
0001
0000
0010
0000
0100
0000
0000
1000
,
0000
0010
0000
0100
0000
0001
0000
0000
,
0001
1000
0000
1000
,
0200
0000
0300
0000
,
0100
0000
0100
0000
0000
0000
0000
0110
,
0000
1001
0000
0220
0000
0000
0000
0000
,
0000
0000
0000
0330
;

//---------------dance-single - ----------------
#NOTES:
     dance-single:
     :
     Medium:
     5:
     :
0000
0000
0000
0000
,
0000
0000
0000
0000
,
0000
0000
0000
0000
,
0000
0000
0000
0000
,
0000
0000
0000
0000
,
0001
1000
0010
1000
,
0001
0100
0010
0100
,
0010
1000
0100
1000
,
1001
0110
1001
0110
,
1000
0000
0001
0000
1000
0100
1000
0000
,
0010
0000
1000
0000
0001
0100
0001
0000
,
0001
0000
1000
0000
0100
0010
0100
0000
,
1000
0001
0010
0001
,
0011
1010
0110
0110
,
1000
0010
0100
0000
1000
0010
0001
0000
,
0010
0100
0001
0000
0001
0100
1000
0000
,
0001
0001
1000
0000
0001
0001
1000
0000
,
0002
0010
1000
0103
,
0020
1000
0001
1030
,
2002
0000
0000
3003
,
1000
0000
0001
0000
0010
0010
0100
0000
,
1000
0000
0010
0000
0100
0100
0001
0000
,
1000
0000
0100
0000
0010
0010
0100
0000
,
0010
0000
0001
0000
1000
1000
0100
0000
,
2000
3100
0002
0103
,
0020
1030
0002
0103
,
0010
0000
1000
0000
0001
1000
1000
0000
,
0001
0000
0100
0000
0010
0100
0100
0000
,
0002
0010
0010
1003
,
0020
0001
1000
1030
,
2000
0010
0100
3100
,
1100
0101
0110
1001
,
0002
0000
0000
0000
0013
0100
1000
0000
,
2000
0000
0000
0000
3010
0100
0001
0000
,
0200
0000
0000
0000
0310
0100
0001
0000
,
0020
0000
0000
0000
0031
0100
1000
0000
,
0100
0001
2000
0000
,
3001
0100
0020
0000
,
1030
0001
2000
3000
,
0010
1000
0010
1000
0010
1000
0010
0000
,
1010
0000
1001
0000
0100
0001
0100
0000
,
1001
0000
0110
0000
1000
0010
1000
0000
,
0101
0000
1100
0000
0010
0100
0010
0000
,
0202
0000
0000
0303
,
1000
0000
0010
0100
0000
0100
0010
0000
,
2002
0000
0000
3003
0000
0100
0100
0000
,
0001
0000
1000
0001
0000
0100
0000
0010
,
0000
1000
0000
0001
0000
1001
0000
0000
,
0110
0000
1000
0000
0001
0000
0001
2000
,
0000
0000
0000
0000
3000
0010
0010
0000
,
1000
0000
0010
0000
0100
0010
0000
0202
,
0000
0000
0000
0303
,
1000
0000
0010
0100
0000
0100
0010
0000
,
1000
0000
0001
1000
0000
1000
0001
0000
,
0100
0000
0010
1000
0000
0001
0000
0100
,
0000
0100
0000
0010
0000
0010
0100
0000
,
0001
0000
1001
0000
0010
0000
0100
0002
,
0000
0000
0000
0000
0000
1003
1000
0000
,
0010
0000
1000
0000
0001
0100
0000
0020
,
0000
1000
0000
0001
0000
0130
0000
0000
,
0010
0000
1000
0001
0000
0001
0100
0000
,
0202
0000
0000
0000
0000
0000
0303
0010
,
1000
0000
1000
0001
0000
0100
0000
0001
,
0000
1000
0000
0001
0000
0020
0000
0000
,
0000
0000
0000
0030
;

//---------------dance-single - ----------------
#NOTES:
     dance-single:
     :
     Hard:
     8:
     :
0000
0000
0000
0000
,
0000
0000
0000
0000
,
0000
0000
0000
0000
,
0000
0000
0000
0000
,
0000
0000
0000
0000
,
0010
0000
0000
1000
0000
0000
0001
0000
0000
0100
0000
0000
0001
0000
1000
0000
,
0100
0000
0000
0010
0000
0000
0001
0000
0000
0100
0000
0000
0010
0000
1000
0000
,
0100
0000
0000
1000
0000
0000
0100
0000
0000
1000
0000
0000
0001
0000
0100
0000
,
1001
1100
1001
0101
,
1000
0000
0000
0010
0000
0000
0100
0000
0000
0001
0000
0000
1000
0000
0100
0000
,
1000
0000
0000
0001
0000
0000
0100
0000
0000
0001
0000
0000
1000
0000
0100
0000
,
1000
0000
0000
0010
0000
0000
0100
0000
0000
0001
0000
0000
1000
0000
0100
0000
,
1000
0000
0000
0010
0000
0000
0100
0000
0000
0010
0000
0000
1000
0000
0100
0000
,
1000
0000
0000
0100
0000
0000
0010
0000
0000
0001
0000
0000
0100
0000
0100
0000
,
0100
0000
0000
0010
0000
0000
1000
0000
0000
0100
0000
0000
0010
0000
0010
0000
,
0010
0000
0000
0001
0000
0000
0100
0000
0000
0010
0000
0000
1000
0000
1000
0000
,
1000
0000
0000
0100
0000
0000
0010
0000
0000
0001
0000
0000
0001
0000
0000
0000
,
0000
0000
0000
0010
0000
0000
1000
0000
0001
0000
0000
0100
0000
0000
0010
0000
,
1000
0000
0000
0100
0000
0000
0010
0000
0001
0000
0000
1000
0000
0000
0000
0000
,
0220
0000
0000
0330
,
0010
0000
0000
0010
0000
0000
1000
0000
0000
0001
0000
0100
0001
0000
0100
0000
,
0010
0000
0000
1000
0000
0000
0100
0000
0000
1000
0000
0100
1000
0000
0100
0000
,
0010
0000
0000
0010
0000
0000
0001
0000
0000
0100
0000
0010
0100
0000
0010
0000
,
0100
0000
0000
0001
0000
0000
1000
0000
0000
0001
0000
1000
0001
0000
0100
0000
,
0020
0000
2030
0000
,
3200
0000
0320
0030
,
0001
0000
0000
1000
0000
0000
0100
0000
0000
0010
0000
0000
0001
0000
0001
0000
,
0001
0000
0000
0100
0000
0000
0010
0000
0000
1000
0000
0000
0100
0000
0100
0000
,
0100
0000
0000
0010
0000
0000
0001
0000
0000
0001
0000
0000
1000
0000
1000
0000
,
1000
0000
0000
0001
0000
0000
0100
0000
0000
0100
0000
0000
0010
0000
0010
0000
,
0010
0000
0000
1000
0000
0000
0100
0000
0000
1000
0000
0000
0100
0000
0010
0000
,
0100
0000
0000
0010
0000
0000
0001
0000
0000
1000
0000
0001
0100
0000
0001
0000
,
2000
0010
0001
3100
,
0000
1000
0010
0100
0001
1000
0100
0010
,
0000
0001
0010
0100
1000
0001
0100
0010
,
2002
0000
0000
3003
,
1000
0100
0000
0100
1000
0000
0000
0000
0002
0000
0000
0000
0003
0000
0000
0000
,
0001
0100
0000
0100
0001
0000
0000
0000
2000
0000
0000
0000
3000
0000
0000
0000
,
0010
1000
0000
1000
0001
0000
0000
0000
0200
0000
0000
0000
0300
0000
0000
0000
,
0110
1001
0110
1001
,
0100
0000
0001
0000
1000
0010
1000
0010
,
1000
0000
0001
0000
1000
0100
1000
0100
,
1000
0000
0010
0000
1000
0010
1000
0010
,
2002
0000
0000
3003
,
0001
1000
0010
0100
0010
1000
0001
0010
,
0100
1000
0010
0100
0001
1000
0010
0100
,
0001
0000
0100
0010
0000
0100
0000
1001
,
0000
0101
0000
1001
0000
1100
0000
0000
,
0100
0010
0001
1000
0010
1000
0001
0100
,
0001
0010
0100
1000
0010
0100
0001
0100
,
0010
0000
0100
0000
0010
0010
0000
0200
,
0000
0001
0000
0010
0000
0001
0300
0000
,
1000
0000
0010
0100
0000
0100
0010
0000
,
0100
0000
0001
1000
0000
1000
0001
0000
,
0010
0000
0100
1000
0000
1000
0100
0000
,
1000
0000
0001
0100
0000
0100
0002
0000
,
0003
0000
1000
0000
1000
0000
0010
0020
,
0000
0000
0000
0030
0000
1000
0100
0000
,
1000
0000
0010
0000
0100
0001
0000
0200
,
0000
0320
0000
2030
0000
3002
0000
0003
,
1000
0000
0001
1000
0000
1000
0001
0000
,
0200
0000
0000
0000
0300
0000
0000
0010
,
0100
0000
0100
0001
0000
1000
0000
0110
,
0000
1001
0000
0110
0000
2002
0000
0000
,
0000
0000
0000
3003
;

//---------------dance-single - ----------------
#NOTES:
     dance-single:
     :
     Challenge:
     9:
     :
0000
0000
0000
0000
,
0000
0000
0000
0000
,
0000
0000
0000
0000
,
0010
0100
0000
1000
1000
0001
0100
0010
,
0010
0000
0001
0000
0010
0001
1001
0000
,
1200
1000
0010
0000
0011
0011
1000
0000
,
0020
0000
0300
0030
,
0001
1000
2100
3100
0010
0012
0013
0000
,
1001
0000
0110
0110
0101
0001
1010
1000
,
0020
1000
1000
1000
0001
0001
0200
0330
,
0001
0101
0010
0000
1000
0110
0001
0000
,
0200
0000
0000
0000
0020
0000
0000
0000
0300
0000
0200
0000
0330
0000
0001
1000
,
0001
1000
0000
0000
0000
0000
0000
0000
0000
0000
0000
0000
0000
0000
0000
0000
,
1000
0100
0011
0000
1001
1001
0110
0000
,
1200
2000
0000
0000
3000
0001
0001
0000
,
1000
1300
0110
0000
1000
0010
0100
0101
,
0101
0000
1010
1010
0000
1100
1100
0000
,
2002
0000
0000
0000
,
3003
0000
1000
0010
0001
0001
0001
0010
,
0100
1000
1000
1010
0100
0001
0101
0000
,
0020
1000
1000
1000
0001
0001
0200
0330
,
0001
0101
0010
0000
1000
0110
0001
0000
,
0200
0000
0020
0000
0300
0200
0330
0000
,
0000
2000
3000
0200
0300
0000
0020
0030
,
1000
0100
0011
0000
1001
1001
0110
0000
,
1200
2000
0000
0000
3000
0001
0001
0000
,
1000
1300
0110
0000
1000
0010
0010
0101
,
0101
0000
1010
1010
0000
1100
1100
0000
,
0100
2000
0000
3000
0020
0100
0030
0000
,
2000
0200
0000
3300
,
0120
0100
0230
0000
0310
0010
0200
0002
,
0000
0000
0000
0303
,
2002
0000
3003
0100
,
0011
0010
0001
1000
0200
0000
0020
0000
,
0000
0000
0300
0030
1001
0100
0010
0001
,
1001
0001
0100
0110
0100
0201
0000
0000
,
0000
0300
1001
0000
1001
0110
1001
0000
,
0110
0000
0110
2002
0000
3003
0100
0010
,
0001
0020
0000
0000
1030
1000
1000
0000
,
0010
0001
0001
0010
0100
1001
0110
0110
,
0110
0000
2000
0020
0000
0000
3030
0000
,
0000
0001
0000
0010
0000
1002
0000
0000
,
0003
0000
0000
0000
,
2000
3020
0032
0000
0000
0000
0000
0000
0000
0000
0003
0000
0000
0000
0000
0000
,
1002
0000
0000
0000
0003
0000
0100
0100
0100
0000
0002
0000
0000
0000
2003
0000
,
0000
0000
0000
3000
0200
0000
0002
0000
0300
0000
0003
0000
0000
0000
0000
0000
,
1001
0000
0000
0000
1001
1001
0000
0000
0100
0000
0010
0000
0001
0000
1010
0000
,
1000
0200
0000
0002
0300
0000
0003
0000
,
1002
0000
0000
0000
0003
0000
0100
0100
0100
0000
0002
0000
0000
0000
2003
0000
,
0000
0000
0000
3000
0200
0000
0002
0000
0300
0000
0003
0000
0000
0000
0000
0000
,
1001
0000
0000
0000
1001
1001
0000
0000
0100
0000
0010
0000
0001
0000
1010
0000
,
1000
0200
0000
0000
0300
0000
0000
0000
,
1000
1000
1000
1000
0010
0000
0002
0000
1000
0000
0000
0000
0003
0000
0000
0000
,
0001
0001
0001
0001
0100
0000
2000
0000
0001
0000
0000
0000
3000
0000
0000
0200
,
0000
0000
0000
0000
0300
0000
0010
0010
0001
0000
2000
0000
3002
0000
0000
0000
,
0003
1001
0220
0000
0000
0000
0330
0000
,
0000
2000
0020
0000
3000
0000
0030
0000
,
1000
1000
1000
0000
0002
0000
0000
0000
0000
0000
0000
0000
0003
0000
0000
0000
,
0000
0002
0200
0000
0003
0000
0300
0000
,
0001
0001
0001
0000
2000
0000
0000
0000
0000
0000
0000
0000
3000
0000
0020
0000
,
0100
0000
0030
0002
0000
0000
0003
1000
,
2000
0000
0000
0000
0000
0000
0000
0000
0000
0000
0000
0000
3000
0000
0100
0010
,
0010
0020
0000
0000
0000
0000
0000
0000
0000
0000
0000
0000
0000
0000
2000
0000
,
0030
0002
3000
0000
0003
2000
0000
0000
,
3000
0000
0000
0000
;

//---------------dance-double - ----------------
#NOTES:
     dance-double:
     :
     Beginner:
     1:
     :
00000000
00000000
00000000
00000000
,
00000000
00000000
00000000
00000000
,
00000000
00000000
00000000
00000000
,
00000000
00000000
00000000
00000000
,
00000000
00000000
00000000
00000000
,
10000000
00000000
00000000
00000000
,
00010000
00000000
00000000
00000000
,
10000000
00000000
00000000
00000000
,
00010000
00000000
00000000
00000000
,
10000000
00000000
01000000
00000000
,
00001000
00000000
00000100
00000000
,
00000010
00000000
00000000
00000001
,
00000000
00001000
00000000
00010000
,
00000000
10000000
00000000
00100000
,
00000000
00001000
00000000
00000010
,
00000000
00000100
00000000
00000001
,
00000000
00001000
00000000
00010000
,
00000000
00000000
00000000
00000000
,
00011000
00000000
00000000
00000000
,
00011000
00000000
00000000
00000000
,
00001000
00000000
00000000
00000000
,
00001000
00000000
00000000
00000000
,
00000001
00000000
00000000
00000000
,
00001000
00000000
00000000
00000000
,
00010000
00000000
00000000
00000000
,
00010000
00000000
00000000
00000000
,
10000000
00000000
00000000
00000000
,
10000000
00000000
00000000
00000000
,
00100000
00000000
00000000
00000000
,
00100000
00000000
00000000
00000000
,
00010000
00000000
00000000
00000000
,
00010000
00000000
00000000
00000000
,
00000000
00001000
00000000
00000100
,
00000000
00000001
00000000
00000100
,
00000000
00000000
00000000
00000000
,
00000100
00000000
00000000
00000000
,
00000001
00000000
00000100
00000000
,
00001000
00000000
00010000
00000000
,
01000000
00000000
10000000
00000000
,
00100000
00000000
00010000
00000000
,
00001000
00000000
00000010
00000000
,
00000001
00000000
00000100
00000000
,
00001000
00000000
00010000
00000000
,
01000000
00000000
10000000
00000000
,
01000000
00000000
00010000
00000000
,
00100000
00000000
00000000
00000000
,
01000000
00000000
10000000
00000000
,
00100000
00000000
00000000
00000000
,
00100000
00000000
10000000
00000000
,
01000000
00000000
00000000
00000000
,
00100000
00000000
00010000
00000000
,
01000000
00000000
00000000
00000000
,
00000000
10000000
00000000
00010000
,
00000000
10000000
00000000
00010000
,
00000000
00001000
00000000
00000001
,
00000000
00001000
00000000
00000001
,
00000000
00000001
00000000
00001000
,
00000000
00000001
00000000
00001000
,
00000000
00010000
00000000
10000000
,
00000000
00010000
00000000
10000000
,
00000000
00000000
00000000
00000000
,
01000000
00000000
00000000
00000000
,
10000000
00000000
00000000
00000000
,
00010000
00000000
00000000
00000000
;

//---------------dance-double - ----------------
#NOTES:
     dance-double:
     :
     Easy:
     2:
     :
00000000
00000000
00000000
00000000
,
00000000
00000000
00000000
00000000
,
00000000
00000000
00000000
00000000
,
00000000
00000000
00000000
00000000
,
00000000
00000000
00000000
00000000
,
20000000
00000000
00000000
30000000
,
00020000
00000000
00000000
00030000
,
20000000
00000000
00000000
30000000
,
00020000
00000000
00000000
00030000
,
10000000
00000000
01000000
00010000
,
00001000
00000000
00000100
00000001
,
00000010
00000000
00000000
00000001
,
00000100
00001000
00000000
00010000
,
01000000
10000000
00000000
00100000
,
00010000
00001000
00000000
00000010
,
00000001
00000100
00000000
00000001
,
00000010
00001000
00000000
00010000
,
00022000
00033000
00000000
00000000
,
00022000
00033000
00000000
00000000
,
00022000
00033000
00000000
00000000
,
00001000
00000100
00000000
00000000
,
00001000
00000100
00000000
00000000
,
00000001
00000100
00000000
00000000
,
00001000
00010000
00000000
00000000
,
00010000
01000000
00000000
00000000
,
00010000
01000000
00000000
00000000
,
10000000
01000000
00000000
00000000
,
10000000
01000000
00000000
00000000
,
00100000
00001000
00000000
00000000
,
00100000
00001000
00000000
00000000
,
00010000
00000010
00000000
00000000
,
00010000
00000010
00000000
00000000
,
00000000
00001000
00000000
00000100
,
00000000
00000001
00000000
00000100
,
00000020
00000000
00000000
00000030
,
00000200
00000000
00000000
00000300
,
00000001
00000000
00000100
00000000
,
00001000
00000000
00010000
00000000
,
01000000
00000000
10000000
00000000
,
00100000
00000000
00010000
00000000
,
00001000
00000000
00000010
00000000
,
00000001
00000000
00000100
00000000
,
00001000
00000000
00010000
00000000
,
01000000
00000000
10000000
00000000
,
01000000
10000000
00010000
01000000
,
00200000
00000000
00000000
00300000
,
01000000
00010000
10000000
01000000
,
00200000
00000000
00000000
00300000
,
00100000
00010000
10000000
00100000
,
02000000
00000000
00000000
03000000
,
00100000
10000000
00010000
00100000
,
02000000
00000000
00000000
03000000
,
00000000
10000000
00000000
00010000
,
00000000
10000000
00000000
00010000
,
00000000
00001000
00000000
00000001
,
00000000
00001000
00000100
00000001
,
00000000
00000001
00000000
00001000
,
00000000
00000001
00000000
00001000
,
00000000
00010000
00000000
10000000
,
00000000
00010000
01000000
10000000
,
00200000
00000000
00000000
00300000
,
02000000
00000000
00000000
03000000
,
20000000
00000000
00000000
30000000
,
00020000
00000000
00000000
00000000
,
00000000
00000000
00000000
00030000
;

//---------------dance-double - ----------------
#NOTES:
     dance-double:
     :
     Medium:
     6:
     :
00000000
00000000
00000000
00000000
,
00000000
00000000
00000000
00000000
,
00000000
00000000
00000000
00000000
,
00000000
00000000
00000000
00000000
,
00000000
00000000
00000000
00000000
,
00100000
00000000
00000000
10000000
00000000
00000000
00010000
00000000
00000000
00000000
00000000
00000000
00100000
00000000
01000000
00000000
,
00100000
00000000
00000000
01000000
00000000
00000000
00010000
00000000
00000000
00000000
00000000
00000000
00001000
00000000
00010000
00000000
,
00001000
00000000
00000000
00000100
00000000
00000000
00000001
00000000
00000000
00000000
00000000
00000000
00000010
00000000
00000001
00000000
,
00000010
00000110
00001001
00000110
,
00000010
00000000
00000000
00001000
00000000
00000000
00010000
00000000
00000000
00000000
00000000
00000000
01000000
00000000
00100000
00000000
,
01000000
00000000
00000000
10000000
00000000
00000000
00100000
00000000
00000000
00000000
00000000
00000000
10000000
00000000
00010000
00000000
,
01000000
00000000
00000000
00010000
00000000
00000000
01000000
00000000
00000000
00000000
00000000
00000000
00100000
00000000
10000000
00000000
,
01000000
00000000
00000000
10000000
00000000
00000000
01000000
00000000
00000000
00000000
00000000
00000000
00010000
00000000
00001000
00000000
,
00000100
00000000
00000000
00000001
00000000
00000000
00000100
00000000
00000000
00000000
00000000
00000000
00001000
00000000
00000100
00000000
,
00000010
00000000
00000000
00000001
00000000
00000000
00000100
00000000
00000000
00000000
00000000
00000000
00001000
00000000
00000100
00000000
,
00001000
00000000
00000000
00010000
00000000
00000000
00011000
00000000
00000000
00000000
00000000
00000000
00010000
00000000
00001000
00000000
,
00010000
00000000
00000000
00001000
00000000
00000000
00011000
00000000
00000000
00000000
00000000
00000000
00000000
00000000
00000000
00000000
,
00100000
00000000
00000000
10000000
00000000
00000000
01000000
00000000
00000000
00100000
00000000
00000000
01000000
00000000
10000000
00000000
,
01000000
00000000
00000000
00010000
00000000
00000000
00001000
00000000
00000000
00000100
00000000
00000000
00001000
00000000
00000100
00000000
,
00002200
00000000
00000000
00003300
,
00000100
00000000
00000000
00000010
00000000
00000000
00000100
00000000
00000000
00000000
00000000
00000000
00000001
00000000
00001000
00000000
,
00000001
00000000
00000000
00001000
00000000
00000000
00010000
00000000
00000000
00000000
00000000
00000000
00000100
00000000
00001000
00000000
,
00010000
00000000
00000000
00001000
00000000
00000000
00010000
00000000
00000000
00000000
00000000
00000000
00001000
00000000
00010000
00000000
,
01000000
00000000
00000000
10000000
00000000
00000000
01000000
00000000
00000000
00000000
00000000
00000000
00010000
00000000
01000000
00000000
,
10000000
00000000
00000000
00010000
00000000
00000000
01000000
00000000
00000000
00000000
00000000
00000000
00100000
00000000
01000000
00000000
,
00100000
00000000
00000000
00010000
00000000
00000000
00001000
00000000
00000000
00000000
00000000
00000000
00010000
00000000
00001000
00000000
,
00010000
00000000
00000000
00001000
00000000
00000000
00010000
00000000
00000000
00000000
00000000
00000000
00010000
00000000
00001000
00000000
,
00010000
00000000
00000000
00001000
00000000
00000000
00000100
00000000
00000000
00000000
00000000
00000000
00001001
00000000
00000000
00000000
,
00000010
00000001
00000010
00000000
00001000
00000100
00001000
00000000
,
00010000
00001000
00010000
00000000
01000000
00010000
01000000
00000000
,
10000000
01000000
10000000
00000000
00010000
01000000
00010000
00000000
,
00001000
00010000
00001000
00000000
00000100
00001000
00000100
00000000
,
00000001
00000010
00001000
00010000
,
00100000
10000000
01000000
00010000
,
00002000
00003000
00020000
00030000
,
00002000
00003000
00020000
00030000
,
00001000
00000100
00000001
00000000
00000110
00000000
00001001
00000000
,
00001000
00010000
01000000
00000000
10010000
00000000
01100000
00000000
,
00100000
10000000
01000000
00000000
11000000
00000000
01010000
00000000
,
00010000
01000000
00010000
00000000
00011000
00000000
00011000
00000000
,
00001000
00000100
00001000
00000000
00001000
00000100
00000001
00000000
,
00000001
00000100
00001000
00000000
00011000
00000000
00011000
00000000
,
00010000
00001000
00010000
00000000
00010000
01000000
10000000
00000000
,
20020000
00000000
00000000
30030000
,
10000000
00010000
01000000
00100000
10000000
01000000
00010000
00000000
,
00001000
00000100
00000001
00000100
00000010
00000100
00001000
00000000
,
00000100
00000000
00000001
00000020
00000000
00000001
00000000
00000032
,
00000000
00001000
00000000
00002003
00000000
00000001
00003000
00000000
,
00000010
00000100
00001000
00000100
00000010
00000100
00001000
00000000
,
00010000
00001000
00010000
00001000
00010000
01000000
10000000
00001000
,
00100000
00000000
01000000
00000000
10000000
00010000
00000000
00200000
,
00000000
10000000
00000000
10000000
00000000
00310000
00000000
00000000
,
00010000
00000000
00001000
00001000
00000000
00000100
00000000
00000000
,
00002000
00000000
00000000
00000000
00000000
00010000
00013000
00000000
,
00011000
00000000
00001000
00001000
00000000
00002000
00000000
00003200
,
00000000
00000320
00000000
00000032
00000000
00000023
00000000
00000030
,
00000000
00000000
00001001
00000000
00000110
00000000
00001000
00020000
,
00000000
00000000
00000000
00000000
00030000
01000000
00100000
00000000
,
20000000
00000000
00100000
00000000
30100000
01000000
00000000
00200000
,
00000000
00320000
00000000
00032000
00000000
00023000
00000000
00030000
,
00001000
00000000
00010000
00001000
00000000
00000000
00000100
00000000
,
00002000
00000000
00000000
00000000
00003000
00000000
00000000
00000001
,
00000010
00000000
00001000
00000100
00000000
00000001
00000000
00001000
,
00000000
00000001
00000000
00001000
00000000
00000220
00000000
00000000
,
00000000
00000000
00000000
00000330
;

//---------------dance-double - ----------------
#NOTES:
     dance-double:
     :
     Hard:
     8:
     :
00000000
00000000
00000000
00000000
,
00000000
00000000
00000000
00000000
,
00000000
00000000
00000000
00000000
,
00000000
00000000
00000000
00000000
,
00000000
00000000
00000000
00000000
,
00010000
00000000
00000000
00001000
00000000
00000000
00010000
00000000
00000000
00001000
00000000
00000000
00010000
00000000
01000000
00000000
,
10000000
00000000
00000000
01000000
00000000
00000000
10000000
00000000
00000000
01000000
00000000
00000000
10000000
00000000
00010000
00000000
,
00100000
00000000
00000000
00010000
00000000
00000000
00100000
00000000
00000000
00010000
00000000
00000000
00100000
00000000
00001000
00000000
,
00012000
00013000
00021000
00031000
,
00010000
00000000
00000000
00000100
00000000
00000000
00010000
00000000
00000000
00000100
00000000
00000000
00010000
00000000
00001000
00000000
,
00000100
00000000
00000000
00000010
00000000
00000000
00000100
00000000
00000000
00000010
00000000
00000000
00000100
00000000
00000001
00000000
,
00001000
00000000
00000000
00000001
00000000
00000000
00001000
00000000
00000000
00000001
00000000
00000000
00001000
00000000
00000010
00000000
,
00010000
00000000
00000000
00001000
00000000
00000000
00010000
00000000
00000000
00001000
00000000
00000000
00010000
00000000
01000000
00000000
,
00100000
00000000
00000000
00010000
00000000
00000000
00100000
00000000
00000000
00010000
00000000
00000000
10000000
00000000
00100000
00000000
,
01000000
00000000
00000000
00001000
00000000
00000000
01000000
00000000
00000000
00001000
00000000
00000000
00010000
00000000
00001000
00000000
,
01000000
00000000
00000000
00100000
00000000
00000000
01000000
00000000
00000000
00100000
00000000
00000000
01000000
00000000
00001000
00000000
,
00010000
00000000
00000000
00001000
00000000
00000000
00010000
00000000
00000000
00001000
00000000
00000000
00010000
00000000
00001000
00000000
,
00022000
00033000
00000000
00000000
,
00002002
00003003
00000000
00000000
,
00000220
00000330
00000000
00000000
,
00000012
00000000
00000000
00000010
00000000
00000000
00000010
00000000
00000000
00000013
00000000
00000000
00000100
00000000
00001000
00000000
,
00002100
00000000
00000000
00000010
00000000
00000000
00000010
00000000
00000000
00003010
00000000
00000000
00000100
00000000
00010000
00000000
,
00012000
00000000
00000000
00010000
00000000
00000000
00010000
00000000
00000000
00013000
00000000
00000000
01000000
00000000
00010000
00000000
,
02010000
00000000
00000000
00100000
00000000
00000000
00100000
00000000
00000000
03100000
00000000
00000000
10000000
00000000
01000000
00000000
,
21000000
00000000
00000000
00010000
00000000
00000000
00010000
00000000
00000000
30010000
00000000
00000000
01000000
00000000
00100000
00000000
,
02100000
00000000
00000000
00001000
00000000
00000000
00001000
00000000
00000000
03001000
00000000
00000000
00100000
00000000
00001000
00000000
,
00021000
00000000
00000000
00000100
00000000
00000000
00000100
00000000
00000000
00030100
00000000
00000000
00001000
00000000
00000010
00000000
,
00001020
00000000
00000000
00000100
00000000
00000000
00000100
00000000
00000000
00000130
00000000
00000000
00000001
00000000
00001000
00000000
,
00000001
00000000
00001000
00000100
00000000
00000000
00000010
00000000
00000000
00000100
00000000
00000000
00000010
00000000
00001000
00000000
,
00000010
00000000
00000001
00000100
00000000
00000000
00000001
00000000
00000000
00000100
00000000
00000000
00000010
00000000
00010000
00000000
,
00001000
00000000
01000000
00010000
00000000
00000000
01000000
00000000
00000000
00010000
00000000
00000000
10000000
00000000
00100000
00000000
,
10000000
00000000
00100000
01000000
00000000
00000000
00010000
00000000
00000000
01000000
00000000
00000000
01000000
00000000
00001000
00000000
,
00010000
01000000
10000000
00100000
,
00010000
00001000
00000100
00000001
,
00000010
00000020
00000000
00000000
00000000
00000000
00000000
00000000
,
00000100
00000200
00000000
00000000
00000000
00000000
00000330
00000000
,
00000010
00000001
00000000
00000000
00000001
00000100
00000000
00000000
00000100
00000010
00000000
00000000
00000010
00001000
00000000
00000000
,
00001000
00000100
00000000
00000000
00000100
00010000
00000000
00000000
00010000
00001000
00000000
00000000
00001000
00100000
00000000
00000000
,
00100000
01000000
00000000
00000000
01000000
00010000
00000000
00000000
00010000
01000000
00000000
00000000
01000000
10000000
00000000
00000000
,
10000000
00010000
00000000
00000000
00010000
01000000
00000000
00000000
01000000
00001000
00000000
00000000
00001000
00010000
00000000
00000000
,
00010000
00001000
00000000
00000000
00011000
00000000
00000000
00000000
00001000
00000000
00000100
00000000
00000001
00000000
00000010
00000000
,
00001000
00010000
00000000
00000000
00011000
00000000
00000000
00000000
00010000
00000000
01000000
00000000
10000000
00000000
00100000
00000000
,
00010000
00001000
00000000
00000000
00011000
00000000
00000000
00000000
00010000
00000000
00001000
00000000
00010000
00000000
00001000
00000000
,
00022000
00000000
00000000
00033000
,
00010000
00001000
00010000
00000000
00001000
00000000
01000000
00000000
00100000
00000000
10000000
00000000
01000000
00000000
00010000
00000000
,
00001000
00010000
00001000
00000000
00010000
00000000
00000100
00000000
00000010
00000000
00000001
00000000
00000100
00000000
00000000
00000000
,
00000001
00000000
00001000
00001000
00000000
00000010
00000000
00000010
,
00000000
00000100
00000000
00000100
00000000
00000001
00001000
00000000
,
00000010
00001000
00000010
00000000
00010000
00000000
00001000
00000000
00010000
00000000
01000000
00000000
00100000
00000000
10000000
00000000
,
00100000
00010000
00100000
00000000
00001000
00000000
00010000
00000000
00001000
00000000
00000100
00000000
00000010
00000000
00001000
00000000
,
00000001
00000000
00001000
00000000
00000001
00001000
00000000
00000010
,
00000000
00000010
00000000
00000100
00000000
00000100
00000000
00000000
,
00000020
00000000
00001000
00002030
00000000
00000001
00003002
00000000
,
00000203
00000000
00000010
00000320
00000000
00001000
00002030
00000000
,
00003200
00000000
00010000
00020300
00000000
00001000
00032000
00000000
,
00023000
00000000
01000000
02030000
00000000
10000000
13000000
00000000
,
10010000
00000000
01100000
00000000
10000000
00000000
00010000
00200000
,
00000000
00000000
00000000
00300000
00000000
01000000
01000000
00000000
,
10000000
00000000
00010000
00000000
00100000
00100000
00000000
02000000
,
00000000
03200000
00000000
00302000
00000000
00023000
00000000
00030000
,
00001000
00000000
00000100
00000001
00000000
00000100
00000001
00000000
,
00002000
00000000
00000000
00000000
00003000
00000000
00000000
00000010
,
00001000
00000000
00000001
00000100
00000000
00000010
00000000
00000010
,
00000000
00000100
00000000
00000100
00000000
00002002
00000000
00000000
,
00000000
00000000
00000000
00003003
;
