
//----- song ID: rubb -----//
#TITLE:Rubberneckin' (Paul Oakenfold Remix Radio Edit);
#ARTIST:ELVIS;
#MUSIC:Rubberneckin' (Paul Oakenfold Remix Radio Edit).ogg;
#BANNER:Rubberneckin' (Paul Oakenfold Remix Radio Edit).png;
#BACKGROUND:Rubberneckin' (Paul Oakenfold Remix Radio Edit)-bg.png;
#CDTITLE:./CDTITLES/DANCE DANCE REVOLUTION ULTRAMIX 2.PNG;
#SAMPLESTART:15.045;
#SAMPLELENGTH:15;
#BPMS:0=142;
#NOTES:
     dance-single:
     :
     Beginner:
     1:
     :
0000
0000
0000
0000
,
0000
0000
0000
0000
,
0000
0000
0000
0000
,
0000
0000
0000
0000
,
0001
0000
0000
1000
,
0000
0000
0010
0000
,
0100
0000
0100
0000
,
0001
0000
1000
0000
,
0010
0000
0100
0000
,
1001
0000
1000
0000
,
0001
0000
0001
0000
,
0001
0000
0100
0000
,
0100
0000
0000
0000
,
0010
0000
0100
0000
,
1000
0000
1000
0000
,
0001
0000
0100
0000
,
0100
0000
0100
0000
,
1000
0000
0001
0000
,
0001
0000
1000
0000
,
0010
0000
0010
0000
,
0001
0000
0001
0000
,
1000
0000
1000
0000
,
0010
0000
0001
0000
,
0010
0000
0010
0000
,
1000
0000
0001
0000
,
1000
0000
0001
0000
,
0010
0000
0001
0000
,
0100
0000
1000
0000
,
0100
0000
0000
0000
,
0001
0000
0001
0000
,
0100
0000
0100
0000
,
0010
0000
0001
0000
,
0010
0000
0110
0000
,
0110
0000
0001
0000
,
0100
0000
0010
0000
,
0001
0000
0001
0000
,
0010
0000
0100
0000
,
0001
0000
1000
0000
,
0010
0000
0001
0000
,
0010
0000
0010
0000
,
0001
0000
0000
0000
,
0010
0000
0100
0000
,
0010
0000
0001
0000
,
0010
0000
0100
0000
,
1000
0000
0000
0000
,
0001
0000
1000
0000
,
0010
0000
0001
0000
,
0010
0000
0001
0000
,
0010
0000
0001
0000
,
1001
0000
0100
0000
,
0100
0000
1000
0000
,
0001
0000
0001
0000
,
1000
0000
1000
0000
,
0010
0000
0010
0000
,
0100
0000
0100
0000
,
0001
0000
0001
0000
,
1000
0000
0010
0000
,
0100
0000
0000
0000
,
0000
0000
0000
0000
,
0000
0000
0000
0000
,
0000
0000
0000
0000
,
0110
0000
0000
0000
;
#NOTES:
     dance-single:
     :
     Easy:
     3:
     :
0000
0000
0000
0000
,
0000
0000
0000
0000
,
0000
0000
0000
0000
,
0000
0000
0000
0000
,
0001
0001
0000
1000
,
0000
0000
0010
0000
,
0100
0000
0100
0000
,
0001
0000
1000
0000
,
0010
0000
0100
0000
,
1001
1000
1000
0001
,
0001
1000
0001
0100
,
0001
1000
0100
0010
,
0200
0000
0000
0300
,
0010
0010
0100
0100
,
1000
0001
1000
0010
,
0001
0010
0100
1000
,
0100
0100
0100
0100
,
1000
0000
0001
0000
,
0001
0000
1000
0000
,
0010
0010
0010
0100
,
0001
0000
0001
0000
,
1000
0000
1000
0000
,
0010
1000
0001
0100
,
0010
1000
0010
0010
,
1000
0000
0001
0000
,
1000
1000
0001
1000
,
0010
0100
0001
1000
,
0100
0100
1000
0010
,
0200
0000
0000
0300
,
0001
0000
0001
0000
,
0100
0000
0100
0000
,
0010
1000
0001
0100
,
0010
0000
0110
0000
,
0101
0100
0001
1000
,
0100
1000
0010
0100
,
0001
1000
0001
1000
,
0010
0100
0100
0100
,
0001
0001
1000
1000
,
0010
0100
0001
1000
,
0010
1000
0010
1000
,
0002
0000
0000
0003
,
0010
0010
0100
1000
,
0010
0100
0001
1000
,
0010
0010
0100
0001
,
2000
0000
0000
3000
,
0001
0100
1000
0100
,
0010
0010
0001
1000
,
0010
0100
0001
0100
,
0010
1000
0001
0100
,
1001
0000
0100
0000
,
0100
0000
1000
0000
,
0001
0000
0001
0000
,
1000
0000
1000
0000
,
0010
0000
0010
0000
,
0100
0000
0100
0000
,
0001
0000
0001
0000
,
1000
0001
0010
0110
,
0200
0000
0000
0000
,
0000
0000
0000
0000
,
0000
0000
0000
0000
,
0000
0000
0000
0300
,
0110
0000
0000
0000
;
#NOTES:
     dance-single:
     :
     Medium:
     5:
     :
0000
0000
0000
0000
,
0000
0000
0000
0000
,
0000
0000
0000
0000
,
0000
0000
0000
0000
,
0001
1000
0001
1000
,
0010
0100
0000
1000
0000
0001
0000
0100
,
0000
0010
0000
0100
0000
0001
0000
2000
,
0000
3200
0000
0320
0000
0032
0000
2003
,
0000
3020
0000
0230
0000
0301
0000
0000
,
1001
0000
0000
0000
0010
0000
0000
0100
,
0000
1000
0000
0100
0000
0010
0000
0000
,
0002
0000
0003
0010
0100
1000
0000
0001
,
0000
1000
0000
0010
0000
0101
0000
0000
,
0010
0001
0001
2000
,
0000
3100
0000
0010
0000
0101
0000
0000
,
0001
1000
0001
1001
,
0000
0100
0000
0010
0000
0100
0000
0000
,
1000
0001
1000
0000
0001
1000
0001
0000
,
1000
0010
0100
0000
0001
0010
0100
0000
,
0001
0010
0100
1000
,
0010
0100
1000
0100
,
0001
0100
0001
0000
1000
0100
1000
0000
,
0010
0000
0010
0100
0000
0010
0100
0000
,
0001
0010
0100
1000
,
2100
0001
0001
3001
,
0200
0310
0002
1003
,
0020
0130
0002
0103
,
1000
0100
0001
1000
,
0001
0010
0000
1000
0000
0010
0001
0000
,
0002
1003
0020
0130
,
0002
1003
0002
1003
,
0001
0010
0000
0010
0100
0000
0100
1000
,
0000
1000
0010
0000
0010
0100
0000
0100
,
0002
0003
0010
0100
,
0001
0000
1000
0000
0001
1000
0100
0000
,
1000
0100
1000
0000
0001
0100
0001
0000
,
1000
0001
0000
0100
0000
0101
0000
0000
,
0010
0100
0010
0100
,
0001
1000
0001
1000
,
0010
0000
1000
0100
0001
0000
0001
0000
,
0010
0100
1000
0001
,
0220
0000
0000
0000
0000
0000
0000
0330
,
0000
0002
0000
1000
0000
1000
0003
1000
,
0001
0100
0010
1000
,
0000
0011
0000
0110
0000
1100
0000
0000
,
1001
0000
0000
0010
0000
0010
0000
2100
,
0000
3000
0010
1000
,
0002
0000
0003
1000
0000
0010
0000
0100
,
0001
0000
0010
0000
0001
1000
0001
0000
,
1000
0001
1000
0000
0000
0010
0000
0010
,
0001
0000
0001
0000
0001
0000
0001
0010
,
0000
0001
0100
0000
0100
0001
0000
0000
,
0100
0010
0000
0010
0000
0010
0000
0010
,
1000
0010
1100
1100
,
0010
0010
0011
0011
,
1000
1000
1001
1001
,
1000
0100
0001
0000
1000
0010
0001
0000
,
0100
1000
0000
0001
0000
0010
0000
0001
,
0000
1000
0000
0100
0000
1000
0000
0002
,
0000
0203
0000
0320
0000
2030
0000
3002
,
0000
0023
0000
0230
0000
2300
0000
3001
,
0100
0000
0000
0000
;
#NOTES:
     dance-single:
     :
     Hard:
     7:
     :
0000
0000
0000
0000
,
0000
0000
0000
0000
,
0000
0000
0000
0000
,
0000
0000
0000
0000
,
1100
0000
0000
0000
0101
0000
0000
0000
1000
0100
1000
0000
0001
0000
0000
0000
,
0100
0010
0000
0100
0000
0001
0000
0100
,
0000
1000
0000
0100
0000
0001
0000
1001
,
0000
0110
0000
1001
0000
0110
0000
1001
,
0000
0101
0000
1001
0000
1100
0000
0000
,
1001
0000
0000
0000
0010
0010
0000
0100
,
0000
0001
0000
1010
0000
0011
0000
0000
,
1000
0010
0000
0001
0100
0001
0000
1001
,
0000
0001
1000
0001
0000
0101
0000
0000
,
0010
0000
1000
0000
1000
0100
0000
0010
,
0000
0100
0000
0010
0000
1100
0000
0000
,
1000
0100
0001
0100
1000
0000
1001
0000
,
0000
0110
0000
0110
0000
0110
0000
0000
,
0001
0100
0001
0000
1000
0100
1000
0000
,
0001
0010
0100
1000
0001
0010
0100
0000
,
1000
0000
0010
0000
0100
0010
0000
0100
,
0000
0000
1000
0000
0001
0200
0300
0000
,
1000
0010
1000
0000
0001
0010
0001
0000
,
0010
0001
0010
0100
0000
0010
0100
0000
,
1000
0010
1000
0001
0010
0100
1000
0000
,
0102
1000
1000
1003
,
0200
0320
2030
3002
,
0023
0230
2300
3100
,
0101
1000
1100
0001
,
1000
0010
0100
0001
1000
0010
0100
0000
,
2000
3002
0023
0230
,
2300
3002
2003
3001
,
1000
0010
1000
0010
0100
0001
0100
0001
,
0010
0001
0010
0001
1000
0100
1000
0100
,
2002
3003
0110
0110
,
1000
0000
0001
0000
1000
0001
0100
0000
,
0001
0100
0001
1000
0001
0100
0001
0000
,
0000
1000
0100
1000
0000
1100
0000
0000
,
0010
0000
0010
0000
0010
0100
0010
0000
,
0001
1000
0001
0000
1001
0000
1100
0000
,
0001
0000
0010
1000
0100
0000
1000
0000
,
0010
0000
0100
0000
0001
0100
1000
0000
,
0220
0000
0000
0000
0000
0000
0000
0330
,
0000
0000
0001
1000
0001
1000
0001
0000
,
1000
0000
0100
0000
0010
0001
0010
0100
,
0000
0101
0000
1100
0000
0101
0000
0000
,
1001
0000
0000
0010
0100
0010
0000
0102
,
0000
0000
0000
0000
0003
0000
0000
0000
0010
1000
0010
0000
0001
0100
0001
0000
,
2000
0000
3000
0001
0100
0010
0000
0000
,
1001
0000
0110
0000
1000
0001
1000
0000
,
0001
1000
0001
0000
1000
0010
0000
0010
,
0000
0100
0001
0000
0001
0100
0000
0100
,
0000
1000
0100
0000
0100
1000
0000
1000
,
0000
0010
0001
0000
0001
0010
0000
0000
,
0010
0010
0010
0000
1100
0000
0101
0000
,
0010
0010
0010
0000
0011
0000
1010
0000
,
0001
0100
1000
0000
1000
0100
0001
0000
,
0001
0100
1000
0100
0001
0010
1000
0000
,
0010
0001
0000
0100
0000
0010
0000
1000
,
0000
0001
0000
0010
0000
0100
0000
1100
,
0000
0110
0000
0011
0000
0101
0000
0110
,
0000
1100
0000
0110
0000
1001
0000
0100
,
0010
0000
0000
0000
;
#NOTES:
     dance-double:
     :
     Beginner:
     2:
     :
00000000
00000000
00000000
00000000
,
00000000
00000000
00000000
00000000
,
00000000
00000000
00000000
00000000
,
00000000
00000000
00000000
00000000
,
00000000
00000000
00000000
00000000
,
10000000
00000000
01000000
00000000
,
00010000
00000000
00001000
00000000
,
00010000
00000000
00001000
00000000
,
00000010
00000000
00000001
00000000
,
00000001
00000000
00000000
00000100
,
00000000
00000100
00000000
00001000
,
00000000
00001000
00000000
00010000
,
00000000
00010000
00000000
01000000
,
00000000
10010000
00000000
00100000
,
00000000
00100000
00000000
00010000
,
00000000
00010000
00000000
00001000
,
00000000
00001000
00000000
00000100
,
00000000
00000001
00000000
00001000
,
00000000
00010000
00000000
00100000
,
00000000
10000000
00000000
10000000
,
00000000
00010000
00000000
00010000
,
00000000
10000000
00000000
00010000
,
00000000
00001000
00000000
00000010
,
00000000
00000001
00000000
00000001
,
00000000
00001000
00000000
00001000
,
00000000
00000000
00000000
00000000
,
00001000
00000000
00000000
00000000
,
00010000
00000000
00000000
00000000
,
00100000
00000000
00000000
00000000
,
10000000
00000000
00010000
00000000
,
10000000
00000000
00010000
00000000
,
10000000
00000000
00010000
00000000
,
00010000
00000000
00000010
00000000
,
00000001
00000000
00000000
00000100
,
00000000
00000100
00000000
00001000
,
00000000
00001000
00000000
00010000
,
00000000
00010000
00000000
01000000
,
00000000
10010000
00000000
00100000
,
00000000
00100000
00000000
00010000
,
00000000
00010000
00000000
00001000
,
00000000
00001000
00000000
00000100
,
00000000
00001000
00000000
00001001
,
00000000
00000100
00000000
00000110
,
00000000
00010000
00000000
00011000
,
00000000
01000000
00000000
01100000
,
00000000
00010000
00000000
10010000
,
00000000
01000000
00000000
01100000
,
00000000
00001000
00000000
00011000
,
00000000
00000100
00000000
00000110
,
00000000
00000000
00000100
00000000
,
00001000
00000000
00000010
00000000
,
00000001
00000000
00000100
00000000
,
00001000
00000000
00010000
00000000
,
00001000
00000000
00010000
00000000
,
01000000
00000000
10000000
00000000
,
00100000
00000000
00010000
00000000
,
01000000
00000000
10000000
00000000
,
10000000
00000000
01000000
00000000
,
00010000
00000000
00001000
00000000
,
00010000
00000000
00001000
00000000
,
00000010
00000000
00000001
00000000
,
00001001
00000000
00000000
00000000
;
#NOTES:
     dance-double:
     :
     Easy:
     3:
     :
00000000
00000000
00000000
00000000
,
00000000
00000000
00000000
00000000
,
00000000
00000000
00000000
00000000
,
00000000
00000000
00000000
00000000
,
00000000
00000000
00000000
00000000
,
20000000
30000000
02000000
03000000
,
00020000
00030000
00002000
00003000
,
00020000
00030000
00002000
00003000
,
00000020
00000030
00000002
00000003
,
00000001
00001001
00000000
00000100
,
00000000
00000100
00000000
00001000
,
00000000
00001000
00000000
00010000
,
00000000
00010000
00000000
01000000
,
10000000
10010000
00000000
00100000
,
00000000
00100000
00000000
00010000
,
00000000
00010000
00000000
00001000
,
00000000
00001000
00000000
00000100
,
00000000
00000001
00000100
00001000
,
00000000
00010000
00000000
00100000
,
00000000
10000000
00010000
10000000
,
00000000
00010000
10000000
00010000
,
00000000
10000000
01000000
00010000
,
00000000
00001000
00000000
00000010
,
00000000
00000001
00001000
00000001
,
00000000
00001000
00000001
00001000
,
00000200
00000000
00000000
00000300
,
00002000
00000000
00000000
00003000
,
00020000
00000000
00000000
00030000
,
00200000
00000000
00000000
00300000
,
20000000
00000000
30020000
00000000
,
20030000
00000000
30020000
00000000
,
20030000
32000000
03020000
00032000
,
00023000
00032000
00003020
00000030
,
00000001
00001001
00000000
00000100
,
00000000
00000100
00000000
00001000
,
00000000
00001000
00000000
00010000
,
00000000
00010000
00000000
01000000
,
10000000
10010000
00000000
00100000
,
00000000
00100000
00000000
00010000
,
00000000
00010000
00000000
00001000
,
00000000
00001000
00000000
00000100
,
00000002
00002000
00003003
00001001
,
00000020
00000200
00000330
00000110
,
00002000
00020000
00033000
00011000
,
00020000
02000000
03030000
01010000
,
20000000
00020000
30030000
10010000
,
00200000
02000000
03300000
01100000
,
00020000
00002000
00033000
00011000
,
00002000
00000200
00003300
00001100
,
00000001
00000000
00000100
00000000
,
00001000
00000000
00000010
00000000
,
00000001
00000000
00000100
00000000
,
00001000
00000000
00010000
00000000
,
00001000
00000000
00010000
00000000
,
01000000
00000000
10000000
00000000
,
00100000
00000000
00010000
00000000
,
01000000
00000000
10000000
00000000
,
20000000
30000000
02000000
03000000
,
00020000
00030000
00002000
00003000
,
00020000
00030000
00002000
00003000
,
00000020
00000030
00000002
00000003
,
00001001
00000000
00000000
00000000
;
#NOTES:
     dance-double:
     :
     Medium:
     4:
     :
00000000
00000000
00000000
00000000
,
00000000
00000000
00000000
00000000
,
00000000
00000000
00000000
00000000
,
00000000
00000000
00000000
00000000
,
00000000
00000000
00000000
00000000
,
10000000
01000000
00010000
01000000
,
10000000
01000000
00010000
00011000
,
00001000
00000100
00000001
00000100
,
00001000
00000100
00000001
00000100
,
00000000
00001001
00000000
00000010
,
00000001
00001000
00000100
00000001
,
00000100
00001000
00000010
00001000
,
00000001
00000100
00001000
00010000
,
00000000
10010000
00000000
00100000
,
10000000
00010000
01000000
10000000
,
01000000
00010000
00100000
00010000
,
10000000
01000000
00010000
00001000
,
00000000
00000020
00000000
00000002
,
00000030
00000200
00000003
00002000
,
00000300
00020000
00003000
02000000
,
00030000
20000000
03000000
00200000
,
30000000
00020000
00300000
00002000
,
00030000
00000020
00003000
00000000
,
00001030
00010000
00001000
00010000
,
00100000
00010000
00001000
00000010
,
00001001
00000100
00000000
00000100
,
00000000
00001000
00000000
00010000
,
01100000
00010000
00000000
01000000
,
00000000
00010000
00000000
00001000
,
00000110
00001000
00000000
00000100
,
00000000
00001000
00000000
00010000
,
00100000
10000000
01000000
00010000
,
00100000
10000000
01000000
00010000
,
00000000
10010000
00000000
01000000
,
10000000
00010000
00100000
10000000
,
00100000
00010000
01000000
00010000
,
10000000
00100000
00010000
00001000
,
00000000
00001001
00000000
00000100
,
00000001
00001000
00000010
00000001
,
00000010
00001000
00000100
00001000
,
00000001
00000010
00001000
00010000
,
00011000
00000010
00000001
00000100
,
00000001
00000010
00001000
00010000
,
00011000
00100000
10000000
01000000
,
10000000
00100000
00010000
00001000
,
00011000
00010000
00001000
00000100
,
00000010
00001000
00000100
00000001
,
00000100
00001000
00000001
00000100
,
00001000
00010000
01000000
00010000
,
00011000
00001000
00010000
01000000
,
00100000
00010000
01000000
10000000
,
01000000
00010000
10000000
01000000
,
00010000
00001000
00000100
00001000
,
00010000
00001000
00000100
00000001
,
00000010
00000001
00001000
00000100
,
00000010
00001000
00010000
00100000
,
10000000
00010000
01000000
00100000
,
10000000
01000000
00010000
01000000
,
10000000
01000000
00010000
00011000
,
00001000
00000100
00000001
00000100
,
00001000
00000100
00000001
00000100
,
00001001
00000000
00000000
00000000
;
#NOTES:
     dance-double:
     :
     Hard:
     7:
     :
00000000
00000000
00000000
00000000
,
00000000
00000000
00000000
00000000
,
00000000
00000000
00000000
00000000
,
00000000
00000000
00000000
00000000
,
00000000
00000000
00000000
00000000
,
00100000
10000000
00000000
00010000
00000000
01000000
00000000
00100000
,
00000000
10000000
00000000
01000000
00000000
00010000
00000000
00001000
,
00000000
00000100
00000000
00000001
00000000
00000010
00000000
00000100
,
00000000
00001000
00000000
00000001
00000000
00000010
00000000
00001000
,
00000010
00000000
00001001
00000000
00000000
00000001
00000100
00000000
,
00001000
00000000
00011000
00000000
00000000
00010000
01000000
00000000
,
00100000
00000000
10010000
00000000
00000000
10000000
01000000
00000000
,
00010000
00000000
00011000
00000000
00000000
00001000
00000100
00000000
,
00000001
00000000
00000110
00000000
00000000
00000001
00000010
00000000
,
00001000
00000000
00011000
00000000
00000000
00010000
00100000
00000000
,
10000000
00000000
01100000
00000000
00000000
10000000
00100000
00000000
,
00010000
00000000
00011000
00000000
00000000
00001000
00000010
00000000
,
00000020
00000032
00000203
00002300
,
00003020
00002030
00003200
00002300
,
00023000
00230000
00320000
02030000
,
23000000
30200000
00320000
00230000
,
20300000
01000000
30020000
00100000
,
00032000
00000100
00003002
00000010
,
00002003
00000100
00023000
00100000
,
20030000
01000000
30010000
01000000
,
10000000
00000000
00000000
00000000
00000000
01000000
00000000
00000000
,
00000000
00000000
00010000
00000000
00000000
00000000
00000000
00000000
00000000
00000000
00001000
00000000
00000000
00000100
00000000
00000000
,
00000001
00000000
00000000
00000000
00000000
00000010
00000000
00000000
,
00000000
00000000
00001000
00000000
00000000
00000000
00000000
00000000
00000000
00000000
00010000
00000000
00000000
01000000
00000000
00000000
,
10000000
00000000
00000000
00000000
00000000
00100000
00000000
00000000
,
00000000
00000000
01000000
00000000
00000000
00000000
00000000
00000000
00000000
00000000
00010000
00000000
00000000
01000000
00000000
00000000
,
10000000
00000000
00000000
01100000
00000000
00010000
00000000
00001000
,
00000000
00000110
00000000
00000001
00000000
00000100
00000000
00000000
,
00001001
00000000
00000000
00000000
00000001
00000100
00000000
00001000
,
00000000
00010000
00000000
01000000
00000000
10000000
00000000
00100000
,
00000000
10000000
00000000
01000000
00010000
01000000
00000000
10000000
,
00000000
01000000
00000000
00010000
00000000
00010000
01000000
10000000
,
00000000
01000000
00000000
00000000
00010000
00001000
00000000
00000100
,
00000000
00000001
00000000
00000010
00000000
00000001
00000000
00000100
,
00000000
00001000
00000000
00010000
00000000
01000000
00000000
10000000
,
00000000
01000000
00000000
00010000
00000000
00001000
00000000
00000100
,
00000010
00000000
00001001
00000000
00000000
00000001
00000100
00000000
,
00001000
00000000
00011000
00000000
00000000
00010000
01000000
00000000
,
00100000
00000000
10010000
00000000
00000000
10000000
01000000
00000000
,
00010000
00000000
00011000
00000000
00000000
00001000
00000100
00000000
,
00000001
00000000
00000110
00000000
00000000
00000001
00000010
00000000
,
00001000
00000000
00011000
00000000
00000000
00010000
00100000
00000000
,
10000000
00000000
01100000
00000000
00000000
10000000
00100000
00000000
,
00010000
00000000
00011000
00000000
00000000
00001000
00000010
00000000
,
00010020
00000100
00001000
00010030
,
00021000
00000100
00000010
00031000
,
00102000
00010000
01000000
00103000
,
00201000
00010000
01000000
10300000
,
10000000
00000000
01100000
00000000
00000000
10000000
01000000
00000000
,
00010000
00000000
00011000
00000000
00000000
00001000
00000100
00000000
,
00000001
00000000
00000110
00000000
00000000
00000001
00000100
00000000
,
00001000
00000000
00011000
00000000
00000000
00010000
01000000
00000000
,
00100000
10000000
00000000
00010000
00000000
01000000
00000000
00100000
,
00000000
10000000
00000000
01000000
00000000
00010000
00000000
00001000
,
00000000
00000100
00000000
00000001
00000000
00000010
00000000
00000100
,
00000000
00001000
00000000
00000001
00000000
00000010
00000000
00001000
;
